#VERSION:0.83;
#TITLE:freaky freak;
#SUBTITLE:;
#ARTIST:kamome sano;
#TITLETRANSLIT:;
#SUBTITLETRANSLIT:;
#ARTISTTRANSLIT:;
#GENRE:;
#CREDIT:;
#MUSIC:freaky freak.ogg;
#BANNER:freaky freak.png;
#BACKGROUND:freaky freak-bg.png;
#CDTITLE:./CDTitles/SDVX BOOTH.png;
#SAMPLESTART:27.447;
#SAMPLELENGTH:15.000;
#SELECTABLE:YES;
#OFFSET:0.681;
#BPMS:0.000=145.000;
#STOPS:70.000=0.414
,199.000=0.414
;
#TIMESIGNATURES:0.000=4=4,
68.000=3=4,
71.000=4=4,
195.000=5=4,
200.000=4=4
;
#BGCHANGES:0.000=../BGAs/29cy.mp4=1.000=0=0=0=StretchNoLoop====,
99999.000=-nosongbg-=1.000=0=0=0=StretchNoLoop====
;
#FGCHANGES:;

//--------------- dance-single - forcednature ----------------
#NOTEDATA:;
#STEPSTYPE:dance-single;
#DESCRIPTION:forcednature;
#CREDIT:forcednature;
#DIFFICULTY:Beginner;
#METER:2;
#RADARVALUES:0,0,0,0,0;
#NOTES:
0000
0000
0000
0000
,
0000
0000
0000
0000
,
0000
0000
0000
0000
,
0000
0000
0000
0000
,
0000
0000
0000
0000
,
0001
0000
0000
0000
,
0001
0000
0000
0000
,
1000
0000
0000
0000
,
1000
0000
0000
0000
,
0100
0000
0000
0000
,
0010
0000
0000
0000
,
0100
0000
0000
0000
,
0010
0000
0000
0000
,
0001
0000
0000
0000
,
1000
0000
0000
0000
,
0010
0000
0000
0000
,
0200
0000
0000
0000
,
0000
0000
0300
0000
,
0000
0000
0000
0001
,
0000
0000
0000
1000
,
0000
0000
0000
0100
,
0000
0000
0000
1000
,
0000
0000
0000
0001
,
0000
0000
0000
0010
,
0000
0000
0000
0000
,
0100
0000
0100
0000
,
0000
0000
0000
0010
,
0000
0000
0000
0001
,
0000
0000
0000
1000
,
0000
0000
0000
0010
,
0000
0000
0000
0100
,
0000
0000
0000
0001
,
0000
0000
0000
0000
,
1000
0000
1000
0000
,
0000
0000
0000
0010
,
0000
0000
0000
0100
,
0000
0000
0000
0001
,
0000
0000
0000
0010
,
0000
0000
0000
0001
,
0000
0000
0000
1000
,
0000
0000
0000
0100
,
0000
0000
1001
0000
,
0000
0000
1000
0000
,
0000
0000
0010
0000
,
0000
0000
1000
0000
,
0000
0000
0001
0000
,
0000
0000
0010
0000
,
0000
0000
0001
0000
,
0100
0000
0000
0000
,
0010
0000
0010
0000
,
0000
0000
1000
0000
,
1000
0000
0100
0000
,
0000
0000
1000
0000
,
0010
0000
1000
0000
,
0000
0000
0001
0000
,
0001
0000
0100
0000
,
0000
0000
0001
0000
,
0001
0000
0010
0000
,
0000
0100
0000
0000
,
0010
0000
0001
0000
,
0001
0000
0000
0000
,
0100
0000
0000
0000
,
0010
0000
0000
0000
,
1000
0000
1000
0000
,
1000
0000
0100
0000
,
1000
0000
0010
0000
,
1001
0000
0000
0000
;

//--------------- dance-single - forcednature ----------------
#NOTEDATA:;
#STEPSTYPE:dance-single;
#DESCRIPTION:forcednature;
#CREDIT:forcednature;
#DIFFICULTY:Easy;
#METER:5;
#RADARVALUES:0,0,0,0,0;
#NOTES:
0000
0000
0000
0000
,
0000
0000
0000
0000
,
0000
0000
0000
0000
,
0000
0000
0000
0000
,
0000
0000
0000
0000
,
0001
0000
0100
0000
,
0001
0000
0010
0000
,
1000
0000
0100
0000
,
1000
0000
0010
0000
,
1001
0000
0001
0001
,
0100
0000
0001
0001
,
0010
0000
1000
1000
,
0100
0000
1000
1000
,
0010
0010
0100
0100
,
0010
0010
0100
0100
,
0001
1000
0001
1000
,
0200
0000
0000
0000
,
0000
0000
0310
0000
,
0001
0100
0001
0000
,
0010
0100
1000
0000
,
0010
1000
0010
0000
,
0100
0001
1000
0000
,
0100
0010
0100
0000
,
1000
0001
0010
0000
,
0001
0100
0001
0000
,
0110
0000
1001
0000
,
1000
0100
0010
0000
,
0001
1000
0010
0000
,
0100
0001
0010
0000
,
0100
1000
0001
0000
,
0100
0010
1000
0000
,
0100
0010
0001
0000
,
1000
0001
0100
0000
,
0110
0000
1001
0000
,
0001
0000
0001
0000
,
0010
0000
0010
0000
,
0001
0000
0001
0000
,
0100
0000
0110
0000
,
1000
0000
1000
0000
,
0100
0000
0100
0000
,
1000
0000
1000
0000
,
0110
0000
1001
0000
,
0001
0010
0000
0100
,
0100
0010
0000
0001
,
1000
0001
0000
0100
,
0100
0010
0000
2000
,
0000
0100
0000
0100
,
0000
3001
0000
0000
,
0110
0000
0001
0000
,
1001
0000
0110
0000
,
0001
0010
0100
0010
,
0001
1000
0100
0000
,
1000
0010
0100
0001
,
0100
0010
1000
0000
,
0001
0010
0100
1000
,
0001
0010
0100
0000
,
1000
0001
0100
0001
,
0000
0110
0000
1001
,
0000
0110
0000
0001
,
1000
0100
1000
0010
,
1000
0001
0100
0010
,
1000
0100
0010
0001
,
1000
0010
0100
0010
,
1000
0001
0100
0001
,
1000
1000
0100
0100
,
0000
0110
0000
0010
,
2002
0000
0000
0000
,
0000
0000
0000
0000
,
3003
0000
0000
0000
;

//--------------- dance-single - forcednature ----------------
#NOTEDATA:;
#STEPSTYPE:dance-single;
#DESCRIPTION:forcednature;
#CREDIT:forcednature;
#DIFFICULTY:Medium;
#METER:11;
#RADARVALUES:0,0,0,0,0;
#NOTES:
0000
0000
0000
0000
,
0000
0000
0000
0000
,
0000
0000
0000
0000
,
0000
0000
0000
0000
,
0000
0000
0000
0000
,
0001
0100
0001
0100
,
0010
1000
0010
1000
,
0001
0010
0001
0010
,
0100
1000
0100
1000
,
1001
0100
1001
0100
,
0110
0001
0110
1000
,
1001
0010
1001
0010
,
0110
1000
0110
0001
,
0100
0001
0100
0000
0001
0010
0001
0000
,
1000
0010
1000
0000
0100
1000
0100
0000
,
0010
0001
0010
0001
0100
0010
0100
0010
,
2000
0000
0000
0000
,
3100
0000
0010
0000
0100
0000
0000
0010
0001
0000
0000
0000
0000
0000
1000
0000
,
0010
0000
0000
0001
0000
0000
0010
0000
1000
0000
0000
0001
0000
0000
0100
0000
,
0010
0000
0000
1000
0000
0000
0001
0000
0010
0000
0000
0110
0000
0000
1000
0000
,
0001
0000
0000
0010
0000
0000
0100
0000
0010
0000
0000
0001
0000
0000
1000
0000
,
0010
0000
0000
0100
0000
0000
0001
0000
0010
0000
0010
0000
0000
0000
0001
0000
,
0100
0000
0000
1000
0000
0000
0100
0000
0001
0000
0000
0010
0000
0000
0100
0000
,
1000
0000
0000
0010
0000
0000
0100
0000
0001
0000
0001
0000
0000
0000
0010
0000
,
0100
0000
0000
0010
0000
0000
0001
0000
0100
0000
0010
0000
1000
0000
0100
0000
,
1001
0000
0001
0100
1001
0000
1000
0010
,
0100
0000
0000
0001
0000
0000
0010
0000
0100
0000
0000
0001
0000
0000
0100
0000
,
1000
0000
0000
0001
0000
0000
0010
0000
0001
0000
0000
0101
0000
0000
1000
0000
,
0010
0000
0000
0001
0000
0000
0010
0000
1000
0000
0000
0001
0000
0000
0100
0000
,
0010
0000
0000
1000
0000
0000
0100
0000
0010
0000
0010
0000
0001
0000
1000
0000
,
0010
0000
0000
0100
0000
0000
0001
0000
0010
0000
0000
1000
0000
0000
0010
0000
,
0001
0000
0000
1000
0000
0000
0100
0000
1000
0000
0000
0000
0010
0000
0010
0000
,
0010
0000
0000
0100
0000
0000
0001
0000
0010
0000
0100
0000
1000
0000
0010
0000
,
1001
0000
0000
0000
0001
0000
0000
0001
0020
0000
0000
0000
0130
0000
0000
0000
,
1000
0000
0010
1000
0010
0000
2000
0000
,
3100
2000
3010
1000
,
0001
0000
0000
0001
0000
0000
0100
0000
0100
0000
0001
0000
0000
0001
0000
0000
,
0001
0000
0000
0010
0000
0000
0100
0000
0110
0000
0000
0000
1000
0000
0001
0000
,
0000
0001
0000
0000
0100
0000
0000
0010
0000
0000
1000
0000
0000
0000
0100
0000
,
0000
0100
0000
0000
1000
0000
0000
0001
0000
0000
0010
0000
0001
0000
1000
0000
,
0000
1000
0000
0000
0010
0000
0010
0000
0100
0000
0000
0000
0001
0000
0010
0000
,
1001
0000
0100
0000
0110
0000
1000
0100
,
0001
0000
0100
0000
1000
0000
0001
0010
,
1000
0000
0010
0001
1000
0000
0001
0100
,
1000
0000
0000
0000
0000
0000
0000
0000
0000
1000
0000
0000
0000
0000
0000
0000
0000
0000
0100
0000
0000
0000
0000
0000
0000
0000
0000
0000
0001
0000
0000
0000
0100
0000
0000
0000
0001
0000
0000
0000
1000
0000
0000
0000
0001
0000
0000
0000
,
0100
0000
0010
0000
0010
0000
1000
1000
,
0001
0000
0010
0001
1000
0000
0001
0010
,
1000
0000
0000
0000
0010
0000
0001
0000
1000
0000
0000
0000
0100
0000
0000
0010
,
0002
0000
0103
0001
1000
0000
0010
0100
,
1001
0100
0110
0001
,
1000
0100
0010
0001
0100
0010
1000
0001
,
0010
0100
1000
0001
0100
0010
1000
0001
,
0010
0001
0100
0010
1000
0100
0010
0001
,
0100
1000
0100
0001
1000
0100
0010
0001
,
1000
0010
0001
0010
1000
0001
0100
0010
,
1000
0100
0010
0001
0100
0010
1000
0100
,
1000
0001
0100
0001
0010
0001
0100
0001
,
0010
0000
0000
0000
0010
0000
0200
0000
0000
0000
0000
0000
1300
0000
0000
1000
0000
0000
0002
0000
0000
0000
0000
0000
,
0003
0000
0110
0000
0001
1000
0010
0001
,
0010
1000
0001
1000
0100
0001
0100
1000
,
0010
0100
1000
0100
0001
0010
0100
0001
,
0100
1000
0010
0100
0001
0010
0200
0000
,
1300
0010
0100
0010
0001
0010
0100
0010
,
1000
0100
0010
0100
0001
0100
0010
0100
,
1000
1000
0001
0001
0100
0100
0010
0010
,
1000
0000
0100
0000
1001
0000
0000
0000
0001
0000
0000
0001
0010
0000
0000
0000
,
2002
0000
0000
0000
,
0000
0000
0000
0000
,
3003
0000
0000
0000
;

//--------------- dance-single - forcednature ----------------
#NOTEDATA:;
#STEPSTYPE:dance-single;
#DESCRIPTION:forcednature;
#CREDIT:forcednature;
#DIFFICULTY:Hard;
#METER:15;
#RADARVALUES:0,0,0,0,0;
#NOTES:
0000
0000
0000
0000
,
0000
0000
0000
0000
,
0000
0000
0000
0000
,
0000
0000
0000
0000
,
0000
0000
0000
0000
,
1000
1000
0001
0001
,
0100
0100
0010
0010
,
1000
1000
0001
0001
,
0010
0010
0100
0100
,
1001
0000
0000
0000
0001
0000
0000
0100
0010
0000
0000
1000
0001
0000
0000
0100
,
0010
0000
0000
0000
1000
0000
0000
0100
0010
0000
0000
0001
1000
0000
0000
0100
,
0010
0000
0000
0000
0001
0000
0000
0100
0010
0000
0000
1000
0001
0000
0000
0100
,
0010
0000
0000
0000
1000
0000
0000
0100
0010
0000
0000
0001
1000
0000
0000
0100
,
0010
0010
0001
0010
0001
0001
0100
0001
,
1000
1000
0100
1000
0010
0010
1000
0010
,
1000
0001
1000
0001
1000
0001
1000
0001
0010
0100
0010
0100
0010
0100
0010
0100
,
2000
0000
0000
0000
0001
0000
0000
0001
0000
0000
0001
0000
0000
0001
0000
0000
,
3010
0000
0010
0000
0100
0010
0100
0000
0110
0000
0000
0000
0000
1000
0100
0000
,
0010
0100
0000
0011
0000
0001
0100
0001
0100
0010
1000
0010
0000
1000
0100
0000
,
1000
0010
0000
0100
0000
0001
0010
0000
0001
1000
0000
1100
0000
0001
0100
0000
,
0010
0100
0000
1010
0000
1000
0100
1000
0100
0010
0001
1000
0000
0010
0100
0000
,
0001
0010
0100
0010
0000
0100
1000
0000
0001
0000
0001
0000
0100
0000
0010
0000
,
1000
0100
0000
0110
0000
0001
1000
0001
1000
0010
1000
0010
0000
0100
0010
0000
,
1000
0001
0000
0010
0000
0001
1000
0000
0100
1000
0100
1000
0000
0010
0100
0000
,
0001
0100
0000
1010
0000
1000
0001
1000
0001
0010
0001
0000
0100
0010
0100
0010
,
2000
0000
0000
0000
3100
0010
0100
0010
0002
0000
0000
0000
0103
0010
0100
0000
,
0010
1000
0000
1100
0000
0001
0010
0001
0010
0100
1000
0100
0000
0010
0001
0000
,
1000
0010
0000
0110
0000
0001
1000
0000
0100
1000
0000
0010
0000
0100
0001
0000
,
0010
0001
0000
0110
0000
1000
0100
1000
0100
0010
0001
0010
0000
0100
1000
0000
,
0010
0100
0001
0100
0000
0010
1000
0000
0001
0010
0001
0000
0100
0010
0100
0000
,
0010
1000
0000
0101
0000
0001
0010
0001
0010
0100
1000
0100
0000
0010
0100
0000
,
0010
0001
1000
0001
0000
0100
0010
0100
0010
0000
1000
0000
1010
0000
1010
0000
,
1001
0000
0000
0001
0000
0100
0010
0100
0010
1000
0100
0000
0010
0001
0010
0001
,
0200
0000
0000
0000
0310
1000
0000
0001
0200
0000
0000
0000
0301
0000
0010
0000
,
0100
0010
0000
0000
0001
0100
0000
0000
0010
0000
0000
1000
0000
1000
0000
0000
,
0100
0000
0000
0000
1000
0000
0000
1000
0000
0000
0010
0000
1000
0000
1000
0000
,
0100
0010
0000
0100
0010
0000
0001
0010
0100
0010
0001
0000
0000
0101
0000
0000
,
0110
0000
0000
0001
1000
0000
0010
1000
0200
0000
0000
0000
1300
0000
0010
0000
,
0100
0010
0000
0000
1000
0000
0000
0100
0010
0000
0001
0000
0000
0000
0001
0000
,
0100
0001
0000
0000
0011
0000
0000
0011
0000
0000
1000
0000
0001
0000
0001
0000
,
0100
0010
0000
0100
0010
1000
0010
0100
0010
0000
1000
0001
0010
0100
0010
0100
,
1000
0100
0000
0010
0002
0000
0000
0103
1000
0000
0000
0000
0100
0000
0001
0000
,
0010
0001
0000
1000
0010
0100
0000
0010
1000
0000
0000
0001
0000
0000
0001
0000
,
0010
0100
0000
0010
0001
0000
0100
0010
0000
1000
0100
0000
0100
0000
1100
0000
,
0001
0000
0000
0010
0000
0000
0000
0000
0000
0100
0000
0000
0010
0000
0000
0000
0000
0000
0001
0000
0000
0010
0000
0000
0000
0000
0000
0000
0100
0000
0000
0000
0100
0000
0000
0000
0100
0000
0000
0000
1000
0000
0000
0000
0100
0000
0000
0000
,
0100
0000
1000
0010
0000
0100
0010
0000
0100
0001
0000
0001
0010
0000
0001
0000
,
0011
0000
1000
0100
0000
1000
0010
0100
0010
0000
0100
0001
0000
0010
0001
0010
,
0001
0000
1000
0000
0001
0000
0100
0010
0000
0100
0010
0000
1000
0000
0000
0100
,
0002
0000
0000
0000
0103
1000
0000
0010
0100
0000
0001
0000
0010
0001
0010
0001
,
0200
0000
0000
0310
0010
1000
0200
0000
0000
0300
0000
0000
,
0010
0001
0010
0000
0100
1000
0001
0010
0100
0000
0010
0001
1000
0001
0010
0000
,
0100
0000
1000
0010
0100
0010
0100
0001
1000
0000
0001
0010
0000
0100
0010
0000
,
0001
0100
0010
0100
0001
0000
1000
0010
0100
0010
1000
0000
0001
0100
0010
0100
,
0001
0000
1000
0001
0010
0000
0001
0000
1000
0001
0010
0000
0100
1000
0001
1000
,
0100
0000
0010
0001
0100
0000
0010
1000
0100
0000
0010
0001
1000
0001
0100
0000
,
0010
1000
0010
1000
0001
0100
0010
0000
1000
0001
0010
0100
0000
0010
0001
0010
,
0000
0100
1000
0010
0000
0100
0001
0010
0001
0000
1000
0100
0010
0000
0001
0000
,
0100
0000
0000
0000
0100
0000
0000
0000
0010
0000
0000
0000
0110
0000
0000
0000
0000
0000
0000
0000
0000
0000
0000
0000
1000
0000
0000
0001
0000
0000
1000
0000
0000
0001
0000
0000
0010
0000
0000
0100
0000
0000
0000
0000
0000
0100
0000
0000
,
0001
0100
0000
0100
1000
0000
0010
0100
0001
0000
0010
0000
0001
1000
0100
0000
,
0010
0001
0010
0001
1000
0100
0010
0000
0100
1000
0001
0000
0100
0001
1000
0000
,
0010
0100
0001
1000
0010
0000
0010
0100
0001
1000
0010
0000
0010
0100
0001
1000
,
0010
0000
0100
0001
0010
0000
0100
0000
0010
0001
0100
0000
0010
1000
0001
0100
,
0001
0000
1000
0100
0010
0000
0100
1000
0001
0000
0010
0100
0000
0100
0010
0000
,
0001
0100
0001
0100
0010
1000
0001
0000
0010
0100
1000
0000
0010
0100
0001
0000
,
1000
0000
1000
0100
0010
0000
0010
0001
0100
0000
0100
0010
1000
0000
0110
0000
,
0100
0001
0100
0001
0020
0000
0000
0000
0130
1000
0100
0001
0100
0000
0110
0000
,
2002
0000
0000
0000
,
0000
0000
0000
0000
,
3003
0000
0000
0000
;

//--------------- dance-double - forcednature ----------------
#NOTEDATA:;
#STEPSTYPE:dance-double;
#DESCRIPTION:forcednature;
#CREDIT:forcednature;
#DIFFICULTY:Easy;
#METER:5;
#RADARVALUES:0,0,0,0,0;
#NOTES:
00000000
00000000
00000000
00000000
,
00000000
00000000
00000000
00000000
,
00000000
00000000
00000000
00000000
,
00000000
00000000
00000000
00000000
,
00000000
00000000
00000000
00000000
,
00010000
00000000
00001000
00000000
,
00010000
00000000
00001000
00000000
,
00100000
00000000
00010000
00000000
,
01000000
00000000
00010000
00000000
,
10010000
00000000
00010000
00010000
,
00100000
00000000
00001000
00001000
,
00010000
00000000
00000010
00000010
,
00001000
00000000
00000100
00000100
,
00000010
00000010
00000001
00000001
,
00000100
00000100
00000001
00000001
,
00000010
00000100
00000010
00000100
,
00002000
00000000
00000000
00000000
,
00000000
00000000
00003010
00000000
,
00010000
00001000
00010000
00000000
,
00001000
00100000
00010000
00000000
,
01000000
00010000
01000000
00000000
,
00100000
10000000
00010000
00000000
,
00100000
00010000
00100000
00000000
,
00001000
00010000
00000100
00000000
,
00001000
00000010
00001000
00000000
,
00000110
00000000
00001001
00000000
,
00000001
00000010
00000100
00000000
,
00000010
00000001
00001000
00000000
,
00000010
00010000
00001000
00000000
,
01000000
00010000
00100000
00000000
,
01000000
10000000
00010000
00000000
,
00100000
00001000
00010000
00000000
,
00000010
00001000
00000001
00000000
,
00000110
00000000
00001001
00000000
,
00001000
00000000
00001000
00000000
,
00000100
00000000
00010000
00000000
,
00001000
00000000
00001000
00000000
,
01000000
00000000
01100000
00000000
,
00010000
00000000
00010000
00000000
,
10000000
00000000
00100000
00000000
,
01000000
00000000
01000000
00000000
,
01100000
00000000
10010000
00000000
,
00010000
00100000
00000000
00001000
,
00001000
00010000
00000000
00000010
,
00001000
00000010
00000000
00000100
,
00000100
00000001
00000000
00000020
,
00000000
00000100
00000000
00000100
,
00000000
00000031
00000000
00000000
,
00000110
00000000
00001000
00000000
,
00011000
00000000
00100000
00000000
,
00010000
01000000
00010000
10000000
,
00100000
10000000
00010000
00000000
,
00100000
00001000
00010000
00000100
,
00010000
00000010
00001000
00000000
,
00000001
00000010
00000100
00001000
,
00000010
00000100
00000001
00000000
,
00001000
00000100
00010000
00001000
,
00000000
00011000
00000000
00100000
,
00000000
10010000
00000000
00010000
,
01000000
00010000
10000000
01000000
,
10000000
00100000
01000000
00010000
,
00100000
00001000
00010000
00000010
,
00001000
00000100
00001000
00000001
,
00000100
00000001
00000010
00000100
,
00001000
00001000
00000001
00000001
,
00000000
00000110
00000000
00000010
,
00002002
00000000
00000000
00000000
,
00000000
00000000
00000000
00000000
,
00003003
00000000
00000000
00000000
;

//--------------- dance-double - forcednature ----------------
#NOTEDATA:;
#STEPSTYPE:dance-double;
#DESCRIPTION:forcednature;
#CREDIT:forcednature;
#DIFFICULTY:Medium;
#METER:11;
#RADARVALUES:0,0,0,0,0;
#NOTES:
00000000
00000000
00000000
00000000
,
00000000
00000000
00000000
00000000
,
00000000
00000000
00000000
00000000
,
00000000
00000000
00000000
00000000
,
00000000
00000000
00000000
00000000
,
00010000
00001000
00010000
00001000
,
00000010
00000001
00000010
00000001
,
00000100
00000010
00000100
00000010
,
00001000
00000100
00001000
00000100
,
00011000
00000100
00011000
00000010
,
00011000
01000000
00011000
00100000
,
00110000
00101000
00010010
00001010
,
00001100
00010100
01001000
01010000
,
10000000
00100000
10000000
00000000
01000000
10000000
01000000
00000000
,
00100000
00010000
00100000
00000000
00001000
00010000
00001000
00000000
,
00000010
00000100
00000010
00000100
00001000
00000001
00000010
00000100
,
00002000
00000000
00000000
00000000
,
00003001
00000100
00001000
00000000
00011000
00000000
00000000
00010000
,
00100000
00000000
00000000
10000000
00000000
00000000
01000000
00000000
10000000
00000000
00000000
00010000
00000000
00000000
00100000
00000000
,
00001000
00000000
00000000
00010000
00000000
00000000
00000100
00000000
00001000
00000000
00000000
00000110
00000000
00000000
00000001
00000000
,
00000010
00000000
00000000
00000001
00000000
00000000
00000100
00000000
00001000
00000000
00000000
00010000
00000000
00000000
00001000
00000000
,
00000010
00000000
00000000
00001000
00000000
00000000
00010000
00000000
00100000
00000000
00100000
00000000
00000000
00000000
01000000
00000000
,
00010000
00000000
00000000
10000000
00000000
00000000
01000000
00000000
00010000
00000000
00000000
00001000
00000000
00000000
00000010
00000000
,
00001000
00000000
00000000
00010000
00000000
00000000
00000100
00000000
00001000
00000000
00001000
00000000
00000000
00000000
00000010
00000000
,
00000100
00000000
00000000
00000001
00000000
00000000
00000010
00000000
00001000
00000000
00010000
00000000
00000100
00000000
00000000
00000000
,
00011000
00000000
00100000
00000000
00011000
00000000
01000000
00010000
,
00100000
00000000
00000000
01000000
00000000
00000000
10000000
00000000
01000000
00000000
00000000
00010000
00000000
00000000
00001000
00000000
,
00000100
00000000
00000000
00000001
00000000
00000000
00000010
00000000
00000100
00000000
00000000
00001100
00000000
00000000
00010000
00000000
,
00001000
00000000
00000000
01000000
00000000
00000000
00010000
00000000
00100000
00000000
00000000
01000000
00000000
00000000
00010000
00000000
,
01000000
00000000
00000000
10000000
00000000
00000000
00100000
00000000
00010000
00000000
00010000
00000000
00000000
00000000
00001000
00000000
,
00010000
00000000
00000000
00001000
00000000
00000000
00000100
00000000
00000001
00000000
00000000
00001000
00000000
00000000
00000010
00000000
,
00000100
00000000
00000000
00000001
00000000
00000000
00000010
00000000
00001000
00000000
00000000
00000000
00010000
00000000
00010000
00000000
,
00010000
00000000
00000000
00001000
00000000
00000000
00010000
00000000
01000000
00000000
00000000
00000000
00100000
00000000
00000000
00000000
,
00011000
00000000
00000000
00000000
00000100
00000000
00000000
00000100
00002000
00000000
00000000
00000000
00003010
00000000
00000000
00000000
,
00000100
00000000
00000001
00000100
00000001
00000000
00002000
00000000
,
00003100
00002000
00003010
00010000
,
00001000
00000000
00000000
00001000
00000000
00000000
00100000
00000000
00100000
00000000
00010000
00000000
00000000
00010000
00000000
00000000
,
00010000
00000000
00000000
01000000
00000000
00000000
00100000
00000000
01100000
00000000
00000000
00000000
10000000
00000000
00010000
00000000
,
00000000
00010000
00000000
00000000
00100000
00000000
00000000
00001000
00000000
00000000
00010000
00000000
00000000
00000000
00000010
00000000
,
00000000
00000010
00000000
00000000
00001000
00000000
00000000
00000001
00000000
00000000
00000100
00000000
00000010
00000000
00001000
00000000
,
00000000
00001000
00000000
00000000
00000100
00000000
00000100
00000000
00010000
00000000
00000000
00000000
00000010
00000000
00000000
00000000
,
00011000
00000000
01000000
00000000
00011000
00000000
00100000
00010000
,
01000000
00000000
10000000
00000000
01000000
00000000
00010000
00100000
,
00001000
00000000
00010000
00000010
00001000
00000000
00000001
00000100
,
00001000
00000000
00000000
00000000
00000000
00000000
00000000
00000000
00000000
00001000
00000000
00000000
00000000
00000000
00000000
00000000
00000000
00000000
00000100
00000000
00000000
00000000
00000000
00000000
00000000
00000000
00000000
00000000
00000001
00000000
00000000
00000000
00000000
00000000
00000000
00000000
00000010
00000000
00000000
00000000
00000001
00000000
00000000
00000000
00001000
00000000
00000000
00000000
,
00000001
00000000
00000100
00000000
00000100
00000000
00001000
00001000
,
00010000
00000000
00100000
10000000
00010000
00000000
10000000
01000000
,
00010000
00000000
00000000
00000000
00001000
00000000
00010000
00000000
01000000
00000000
00000000
00000000
00100000
00000000
00000000
00001000
,
00020000
00000000
00030100
00001000
00000010
00000000
00000100
00000000
,
00011000
00100000
00011000
00000001
,
00000100
00000010
00001000
00000100
00000010
00000001
00000100
00000010
,
00001000
00000100
00010000
00001000
00100000
00010000
01000000
00100000
,
10000000
01000000
00010000
01000000
10000000
00010000
10000000
01000000
,
00010000
00001000
00100000
00001000
00010000
00000010
00001000
00000001
,
00000100
00001000
00010000
00001000
00010000
00100000
10000000
00010000
,
01000000
00100000
10000000
00100000
01000000
00010000
00100000
01000000
,
00010000
00001000
00100000
00001000
00010000
00001000
01000000
00001000
,
00010000
00000000
00000000
00000000
00010000
00000000
00000010
00000000
00000000
00000000
00000000
00000000
00001000
00000000
00000000
00001000
00000000
00000000
00000002
00000000
00000000
00000000
00000000
00000000
,
00000003
00000000
00000110
00000000
00001000
00000100
00010000
00001000
,
00000010
00000100
00000010
00001000
00010000
00001000
00100000
00010000
,
01000000
00100000
10000000
01000000
00100000
00001000
01000000
00100000
,
10000000
01000000
00010000
00001000
00000100
00000001
00000020
00000000
,
00000130
00001000
00000001
00001000
00000010
00000100
00001000
00010000
,
00100000
01000000
00010000
01000000
00100000
10000000
01000000
00010000
,
00001000
00001000
00010000
00010000
00001000
00001000
00000010
00000010
,
00000100
00011000
01000000
00011000
,
00020020
00000000
00000000
00000000
,
00000000
00000000
00000000
00000000
,
00030030
00000000
00000000
00000000
;

//--------------- dance-double - forcednature ----------------
#NOTEDATA:;
#STEPSTYPE:dance-double;
#DESCRIPTION:forcednature;
#CREDIT:forcednature;
#DIFFICULTY:Hard;
#METER:16;
#RADARVALUES:0,0,0,0,0;
#NOTES:
00000000
00000000
00000000
00000000
,
00000000
00000000
00000000
00000000
,
00000000
00000000
00000000
00000000
,
00000000
00000000
00000000
00000000
,
00000000
00000000
00000000
00000000
,
00001000
00010000
00001000
00010000
,
00100000
10000000
00100000
10000000
,
01000000
00010000
01000000
00010000
,
00001000
00000010
00001000
00000010
,
00000001
00000000
00000000
00000001
00000100
00000000
00000000
00000100
00001000
00000000
00000000
00001000
00010000
00000000
00000000
00010000
,
00100000
00000000
00000000
00100000
10000000
00000000
00000000
10000000
01000000
00000000
00000000
01000000
00010000
00000000
00000000
00010000
,
00001000
00000000
00000000
00001000
00000010
00000000
00000000
00000010
00000001
00000000
00000000
00000001
00000100
00000000
00000000
00000100
,
00001000
00000000
00000000
00001000
00010000
00000000
00000000
00010000
01000000
00000000
00000000
01000000
10000000
00000000
00000000
10000000
,
00100000
00100000
00010000
00100000
00010000
00010000
00001000
00010000
,
00001000
00001000
00000100
00001000
00000100
00000100
00000001
00000100
,
00000001
00000010
00000001
00000010
00000001
00000010
00000001
00000010
00000100
00001000
00000100
00001000
00000100
00001000
00000100
00001000
,
00000020
00000000
00000000
00000000
,
00000130
00000000
00001000
00000000
00010000
00000000
00100000
00000000
01100000
00000000
00000000
00000000
00000000
10000000
00010000
00000000
,
01000000
00010000
00000000
00100000
00000000
01000000
10000000
01000000
10000000
00010000
00100000
01000000
00000000
00100000
00010000
00000000
,
00100000
00001000
00000000
00010000
00000000
00000010
00001000
00000000
00000100
00000010
00000000
00000001
00000000
00000100
00001000
00000000
,
00000100
00000001
00000000
00000010
00000000
00000100
00001000
00000100
00001000
00000001
00000010
00000100
00000000
00010000
00001000
00000000
,
00100000
00010000
01000000
00010000
00000000
10000000
00100000
00000000
10000000
00010000
10000000
00000000
01000000
00000000
00100000
00000000
,
00001000
00010000
00000000
00000100
00000000
00001000
00000010
00001000
00000010
00000100
00000001
00001000
00000000
00000100
00010000
00000000
,
00001000
00010000
00000000
00100000
00000000
01000000
00100000
00000000
10000000
00010000
10000000
00010000
00000000
00100000
00010000
00000000
,
00100000
00001000
00000000
01000000
00000000
00001000
00010000
00001000
00010000
00000010
00001000
00000000
00000100
00000001
00000010
00000000
,
00002000
00000000
00000000
00000000
00003010
00000001
00000100
00000000
00002000
00000000
00000000
00000000
00013000
00001000
00010000
00000000
,
00100000
01000000
00000000
00100000
00000000
10000000
00010000
10000000
00010000
01000000
00100000
10000000
00000000
01000000
00010000
00000000
,
00001000
00010000
00000000
00001000
00000000
00000010
00000100
00000000
00001000
00000001
00000000
00000100
00000000
00000010
00001000
00000000
,
00000001
00000010
00000000
00000100
00000000
00010000
00001000
00010000
00001000
00100000
00010000
01000000
00000000
00100000
10000000
00000000
,
01000000
10000000
00010000
10000000
00000000
00100000
01000000
00000000
00010000
00100000
00010000
00000000
00100000
00001000
00010000
00000000
,
00000010
00001000
00000000
00000100
00000000
00000010
00000001
00000010
00000001
00000100
00000010
00001000
00000000
00000100
00010000
00000000
,
00001000
01000000
00010000
01000000
00000000
00100000
10000000
00100000
10000000
00000000
01000000
00000000
00010000
00000000
00010000
00000000
,
00001000
00000000
00000000
00000010
00000000
00000100
00001000
00000100
00001000
00000001
00000010
00000000
00000001
00000000
00000100
00001000
,
00020000
00000000
00000000
00000000
00130000
01000000
00000000
00100000
20000000
00000000
00000000
00000000
31000000
00000000
00010000
00000000
,
00000000
00001000
00000000
00000000
00010000
00000100
00000000
00000000
00001000
00000000
00000000
00000010
00000000
00000010
00000000
00000000
,
00000100
00000000
00000000
00000000
00001000
00000000
00000000
00001000
00000000
00000000
00000100
00000000
00000001
00000000
00000001
00000000
,
00000010
00000100
00000000
00000010
00000100
00000000
00001000
00000100
00001000
00000100
00010000
00000000
00000000
00011000
00000000
00000000
,
00101000
00000000
00000000
00100000
00010000
00000000
01000000
00100000
20000000
00000000
00000000
00000000
31000000
00000000
00010000
00000000
,
00001000
00010000
00000000
00000000
00001000
00000000
00000000
00000010
00000001
00000000
00000100
00000000
00000000
00000000
00000100
00000000
,
00000001
00000100
00000000
00000000
00001000
00000000
00000000
00001000
00000000
00000000
00010000
00000000
00100000
00000000
00100000
00000000
,
10000000
00100000
00000000
01000000
00100000
10000000
00100000
01000000
00100000
00000000
10000000
00010000
00100000
00010000
00100000
00001000
,
00010000
00001000
00000000
00000000
00000020
00000000
00000000
00000130
00010000
00000000
00000000
00000000
00001000
00000000
00001000
00000000
,
00000010
00000001
00000000
00000010
00000100
00000010
00000000
00000001
00000100
00000000
00000000
00000100
00000000
00000000
00000100
00000000
,
00001000
00010000
00000000
00010000
00001000
00000000
00100000
00010000
00000000
01000000
00010000
00000000
10000000
00000000
10000000
00000000
,
00100000
00000000
00000000
00010000
00000000
00000000
00000000
00000000
00000000
00100000
00000000
00000000
10000000
00000000
00000000
00000000
00000000
00000000
00100000
00000000
00000000
00010000
00000000
00000000
00000000
00000000
00000000
00000000
00001000
00000000
00000000
00000000
00000100
00000000
00000000
00000000
00001000
00000000
00000000
00000000
00010000
00000000
00000000
00000000
00001000
00000000
00000000
00000000
,
00010000
00000000
00000100
00001000
00000000
00000010
00000100
00000000
00000001
00000010
00000000
00000010
00000001
00000000
00000100
00000000
,
00001000
00000000
00010000
00001000
00000000
00100000
00010000
01000000
00010000
00000000
10000000
01000000
00000000
10000000
00100000
10000000
,
00100000
00000000
00010000
00000000
00001000
00000000
00000100
00001000
00000000
00000100
00000001
00000000
00000010
00000000
00000000
00001000
,
00020000
00000000
00000000
00000000
01030000
10000000
00000000
10000000
00100000
00000000
01000000
00000000
00001000
00000000
00010000
00100000
,
20000000
00000000
00000000
30100000
00010000
00001000
00000200
00000000
00000000
00000300
00000000
00000000
,
00000001
00000010
00000100
00000000
00000010
00000001
00000100
00000010
00001000
00000000
00000100
00010000
00001000
00010000
00001000
00000000
,
00100000
00010000
00000000
01000000
00010000
01000000
00010000
10000000
00100000
00000000
01000000
00010000
00000000
00100000
00010000
00000000
,
10000000
00000000
01000000
00010000
00001000
00000000
00010000
00000000
01000000
10000000
00010000
00000000
00100000
00010000
00100000
00001000
,
00010000
00000000
00000010
00001000
00000100
00000000
00000001
00000000
00000100
00001000
00000010
00000000
00010000
00001000
00010000
00001000
,
01000000
00000000
00100000
10000000
01000000
00000000
00100000
00010000
01000000
00000000
00100000
10000000
00010000
10000000
01000000
00000000
,
00010000
00001000
00010000
00001000
00010000
00000100
00001000
00000000
00000010
00000100
00000001
00000100
00000000
00000010
00001000
00000100
,
00000000
00010000
00001000
00100000
00000000
00001000
00010000
00000010
00000000
00010000
00001000
00010000
00000100
00000000
00001000
00000000
,
00000010
00000000
00000000
00000000
00000010
00000000
00000000
00000000
00000100
00000000
00000000
00000000
00000110
00000000
00000000
00000000
00000000
00000000
00000000
00000000
00000000
00000000
00000000
00000000
00000001
00000000
00000000
00001000
00000000
00000000
00000001
00000000
00000000
00001000
00000000
00000000
00000010
00000000
00000000
00000100
00000000
00000000
00000000
00000000
00000000
00000100
00000000
00000000
,
00001000
00010000
00000000
00010000
00100000
00000000
01000000
00010000
00100000
00000000
01000000
00000000
00100000
00010000
10000000
00000000
,
01000000
00010000
01000000
00000000
00010000
00001000
00100000
00001000
00010000
00000000
00000100
00000000
00001000
00000010
00000100
00000000
,
00000001
00000000
00000010
00000100
00010000
00000000
00000001
00000000
00000010
00000100
00010000
00000000
00001000
00000000
00100000
00000000
,
00010000
00000000
10000000
00100000
00010000
00000000
00001000
00000000
00010000
00100000
10000000
00000000
01000000
00100000
01000000
00100000
,
00001000
00000000
00010000
00000100
00000010
00000000
00000100
00010000
00000010
00000000
00000100
00000001
00000000
00000001
00000100
00000000
,
00001000
00010000
00001000
00010000
00100000
01000000
00100000
00000000
01000000
00010000
00100000
00000000
01000000
10000000
00100000
00000000
,
00010000
00000000
00010000
00001000
00000010
00000000
00000010
00000100
00010000
00000000
00001000
00010000
00100000
00000000
00100000
01000000
,
00001000
00010000
00001000
00010000
02000000
00000000
00000000
00000000
03100000
00001000
00010000
00000100
00000010
00000000
00000110
00000000
,
00002002
00000000
00000000
00000000
,
00000000
00000000
00000000
00000000
,
00003003
00000000
00000000
00000000
;
