#VERSION:0.83;
#TITLE:croiX;
#SUBTITLE:;
#ARTIST:TeamGrimoire+あま猫;
#TITLETRANSLIT:;
#SUBTITLETRANSLIT:;
#ARTISTTRANSLIT:Team Grimoire+amaneko;
#GENRE:;
#CREDIT:;
#MUSIC:croiX.ogg;
#BANNER:croiX.png;
#BACKGROUND:croiX-bg.png;
#CDTITLE:./CDTitles/SDVX BOOTH.png;
#SAMPLESTART:66.170;
#SAMPLELENGTH:15.000;
#SELECTABLE:YES;
#OFFSET:0.728;
#BPMS:0.000=195.000
,28.000=180.000
,30.000=170.000
,32.000=160.000
,40.000=195.000
,182.000=190.000
,184.000=185.000
,186.000=180.000
,188.000=175.000
,190.000=170.000
,192.000=165.000
,194.000=160.000
,198.000=165.000
,200.000=170.000
,202.000=175.000
,204.000=180.000
,206.000=185.000
,208.000=190.000
,210.000=195.009
;
#STOPS:;
#TIMESIGNATURES:0.000=4=4;
#DISPLAYBPM:160.000:195.000;
#BGCHANGES:0.000=../BGAs/27em.mp4=1.000=0=0=0=StretchNoLoop====,
99999.000=-nosongbg-=1.000=0=0=0=StretchNoLoop====
;
#FGCHANGES:;

//--------------- dance-single - forcednature ----------------
#NOTEDATA:;
#STEPSTYPE:dance-single;
#DESCRIPTION:forcednature;
#DIFFICULTY:Beginner;
#METER:5;
#RADARVALUES:0,0,0,0,0;
#CREDIT:forcednature;
#NOTES:
0000
0000
0000
0000
,
0000
0000
0000
0000
,
0000
0000
0000
0000
,
0000
0000
0000
0000
,
0000
0000
0000
0000
,
0001
0000
0000
0000
,
1000
0000
0000
0000
,
0100
0000
0010
0000
,
0001
0000
0200
0000
,
0000
0000
0000
0000
,
0000
0000
0000
0000
,
0000
0000
0000
0000
,
0000
0000
0300
0000
,
0010
0000
0000
0010
,
1000
0000
0000
1000
,
0100
0000
0000
0100
,
0010
0000
0001
0000
,
1000
0000
0001
0000
,
0100
0000
0010
0000
,
1000
0000
0001
0000
,
0010
0000
0000
0000
,
0100
0000
0000
0100
,
1000
0000
0000
1000
,
0001
0000
0000
0001
,
0100
0000
0010
0000
,
1000
0000
0100
0000
,
1000
0000
0001
0000
,
0010
0000
0001
0000
,
0100
0100
0010
0000
,
0110
0000
0000
0000
,
0001
0000
0001
0000
,
1000
0000
0000
0000
,
0100
0000
0100
0000
,
0000
1001
0000
0000
,
1000
0000
1000
0000
,
0010
0000
0000
0000
,
0100
0000
0100
0000
,
0001
0000
0010
0000
,
0001
0000
1000
0001
,
1000
0000
0010
0000
,
1000
0000
0001
1000
,
0001
0000
0100
0000
,
1001
0000
0100
0000
,
1001
0000
0110
0000
,
1000
0001
1000
0000
,
1001
0000
0000
0000
,
0001
0000
0010
0000
,
0100
0000
0000
0000
,
1000
0000
0010
0000
,
0100
0000
0100
0001
,
1000
0000
1000
0100
,
0010
0000
0001
0000
,
0100
0000
0010
0000
,
2002
0000
3003
0000
,
1000
0000
0100
0000
,
1000
0000
0010
0000
,
0100
0000
0000
0000
,
0110
0000
0000
0001
,
0010
0000
0000
0100
,
1000
0000
0001
0000
,
0200
0000
0300
0000
,
0110
0000
1000
0000
,
1001
0000
0010
0000
,
0110
0000
0000
1001
,
0000
0001
0000
1000
,
0100
0000
0100
0010
,
0001
0000
0001
1000
,
0010
0000
0000
0000
,
0220
0000
0330
0000
,
1001
0000
0000
1000
,
0100
0000
0000
0100
,
0010
0000
0000
0010
,
0001
0000
0100
0000
,
0001
0000
1000
0000
,
0010
0000
0000
0000
,
0100
0000
0001
0000
,
1000
0000
0000
0000
,
0001
0010
0001
0000
,
1000
0010
1000
0000
,
0110
0000
0000
1001
,
0000
0001
0000
1000
,
0010
0010
0010
0100
,
0001
0001
0001
0100
,
0010
0000
1000
0001
,
0010
0010
0100
0000
,
2002
0000
0000
0000
,
0000
0000
0000
0000
,
0000
0000
0000
0000
,
3003
0000
0000
0000
,
0200
0000
0000
0000
,
0000
0000
0000
0000
,
0000
0300
0000
0000
;

//--------------- dance-single - forcednature ----------------
#NOTEDATA:;
#STEPSTYPE:dance-single;
#DESCRIPTION:forcednature;
#DIFFICULTY:Easy;
#METER:9;
#RADARVALUES:0,0,0,0,0;
#CREDIT:forcednature;
#NOTES:
0000
0000
0000
0000
,
0000
0000
0000
0000
,
0000
0000
0000
0000
,
0000
0000
0000
0000
,
0000
0000
0000
0000
,
0001
0001
1000
0000
,
0100
0010
0001
0000
,
1000
0010
0100
0001
,
0010
0100
1000
0200
,
0000
0000
0000
0000
,
0000
0000
0000
0000
,
0000
0000
0000
0000
,
0020
0000
0000
0330
,
1001
1000
0000
0100
,
1000
0010
0000
1000
,
0001
0100
0000
0001
,
0020
0000
0130
0010
,
0002
0000
1003
0010
,
0200
0000
0302
0000
,
2003
0000
3100
0010
,
0001
0100
0001
1000
,
1001
0001
0000
0010
,
0001
0100
0000
0001
,
1000
0100
0000
1000
,
0020
0000
0130
0001
,
2000
0000
3100
0010
,
0002
0000
0203
0000
,
0320
0000
1030
0001
,
0010
0100
0010
0000
0110
0000
0000
0000
,
1001
0000
0000
1000
0000
0000
0100
0000
,
0000
1000
0000
0000
0010
0000
0100
0000
,
0001
0000
0000
0001
0000
0000
0100
0000
,
0000
0001
0000
0000
0010
0000
0100
0000
,
1000
0000
0000
1000
0000
0000
0010
0000
,
0000
1000
0000
0000
0100
0000
0010
0000
,
0001
0000
0000
0001
0000
0000
0100
0000
,
0000
0001
0000
0000
0010
0000
0100
0000
,
0110
0001
0100
0001
,
1000
0100
2000
3002
,
1003
0010
1000
0001
,
0010
0001
2000
3002
,
0103
0000
0000
0100
0000
0000
0010
0000
,
1001
0000
0000
0100
0000
0000
0010
0000
,
1001
1000
1001
0001
,
0100
0000
0010
0000
1000
0010
1000
0000
,
0001
0010
0001
0000
,
1000
0010
0100
0001
,
1000
0100
1000
0000
,
0001
0010
0100
1000
,
0001
0100
0001
1001
,
1000
0100
1000
1001
,
0001
0010
0100
0110
,
1000
0010
0100
0110
,
0002
0000
0103
0010
,
1000
0000
0001
1000
0001
0000
0010
0000
,
0200
0000
1300
0010
,
0100
0010
0100
0000
0001
0000
0010
0000
,
0110
0000
0000
1000
0000
0000
1000
0000
,
1001
0000
0000
0010
0000
0000
0010
0000
,
0110
0001
0010
0001
,
0100
0010
0100
0000
0010
0000
1000
0000
,
0100
0000
0100
0000
0010
0000
0100
1000
,
0100
0000
0010
0000
0001
0000
0100
0001
,
0100
0000
0000
0110
0000
0000
1001
0000
,
0000
1000
0100
0001
,
0100
1000
0100
0000
1000
0000
0020
0000
,
0130
0001
0100
0000
0001
0000
0020
0000
,
0230
0000
1300
0001
,
0100
0010
0100
0010
0100
0000
0010
0000
,
1001
1000
0000
0100
,
1000
0010
0000
0100
,
0001
0010
0000
0001
,
2000
0000
3100
0010
,
0002
0000
0103
0010
,
2000
0000
3002
0000
,
0023
0000
0130
1000
,
0001
0100
0010
1000
,
0100
0000
0010
0100
0010
0000
0001
0000
,
0100
0000
0010
0100
0010
0000
1000
0000
,
0100
0000
0000
0110
0000
0000
1001
0000
,
0000
0001
0010
0100
,
1000
0001
1000
0000
0010
0000
0110
0000
,
0001
1000
0001
0000
0010
0000
0110
0000
,
1000
0001
0100
0010
,
1000
0001
1000
0001
1000
0000
0100
0000
,
2002
0000
0000
0000
,
0000
0000
3003
0000
,
1000
0100
1000
0010
,
0100
0001
0010
0100
,
2000
0000
0000
0000
,
0000
0000
0000
0000
,
0000
3000
0000
0000
;

//--------------- dance-single - forcednature ----------------
#NOTEDATA:;
#STEPSTYPE:dance-single;
#DESCRIPTION:forcednature;
#DIFFICULTY:Medium;
#METER:14;
#RADARVALUES:0,0,0,0,0;
#CREDIT:forcednature;
#NOTES:
0000
0000
0000
0000
,
0000
0000
0000
0000
,
0000
0000
0000
0000
,
0000
0000
0000
0000
,
0000
0000
0000
0000
,
0001
0001
1000
0010
,
0100
0001
0100
0010
1000
0000
0001
0000
,
0010
0001
0010
0001
0100
0010
0100
0010
,
1000
0100
0010
0001
0010
0100
2000
0000
,
0000
0000
0000
0000
,
0000
0000
0000
0000
,
0000
0000
0000
0000
,
0002
0000
0000
3003
,
0011
0000
1000
0100
0000
0010
0100
1000
,
0001
0000
1000
0010
0000
0100
0010
1000
,
0001
0000
1000
0100
0000
0001
0100
1000
,
0002
0000
0013
0100
2000
0000
3010
0100
,
0002
0000
1003
0010
0001
0010
1000
0001
,
0200
0000
0301
0010
2000
0000
3010
0001
,
2000
0000
3010
0100
0001
0010
0001
1000
,
0100
0000
0000
1000
0001
0000
0000
0001
0010
0000
0000
0010
0200
0000
0000
0000
,
1300
0010
0100
1000
0000
0100
0001
1000
,
0001
0010
0100
0001
0000
0100
1000
0001
,
1000
0000
0100
0000
0010
0000
1000
0000
0000
0000
0010
0000
0001
0000
1000
0001
,
2000
0000
3010
0100
2000
0000
3100
0001
,
0010
0000
0001
0000
0100
0000
0010
0000
1000
0000
0100
0000
0010
0000
0000
0100
,
1000
0000
0010
0000
0100
0000
0001
0000
0010
0000
0100
0000
0010
0000
0000
0001
,
1000
1000
0100
1000
0010
0100
0001
0010
,
0002
0000
0000
0003
1000
0001
1000
0000
0020
0000
0000
0000
0130
0000
0000
0000
,
1001
0000
0001
0010
0000
1000
0010
0000
,
0001
0000
0100
0000
0000
0000
1000
0000
0100
0000
0001
0000
1000
0000
0001
1000
,
0001
0000
1000
0010
0000
0001
0010
0000
,
1000
0000
0100
0000
0000
0000
0001
0000
0100
0000
1000
0001
1000
0000
0001
0010
,
0000
0000
2002
0000
3003
0001
0100
0000
,
1000
0000
0100
0000
0000
0000
0001
0000
0010
0000
1000
0000
0010
0000
0001
0010
,
0001
0000
1000
0010
0000
0001
0010
0000
,
1000
0000
0100
0000
0000
0000
0001
0000
0100
0000
1000
0100
1000
0000
0001
0000
,
0011
0000
1000
0010
0100
0010
0001
0010
,
1000
0001
0100
0010
0110
0000
1001
0000
,
1010
0000
0001
0010
0100
0010
1000
0010
,
0001
0000
1000
0000
0010
0000
1000
0000
0001
0000
0000
0100
0001
0000
0100
0000
,
0020
0000
1030
0100
1000
0001
0010
0000
,
0110
0000
0001
0100
0001
1000
0010
0000
,
1000
0001
1000
0000
0200
0000
0000
0000
1300
0001
1000
0000
0020
0000
0000
0000
,
0130
0001
0100
0000
0001
0000
0010
0000
0100
0000
1000
0000
0010
0000
0000
0000
,
1001
0000
0000
0000
1100
0000
0000
0000
0001
0000
0010
0000
0100
0000
0000
0010
,
0001
0000
0000
0000
0101
0000
0000
0000
1000
0000
0010
0000
0100
0000
0000
0010
,
1000
0000
1000
0000
0001
0000
0000
0010
0001
0000
0001
0000
0100
0000
0000
0010
,
1000
0000
1000
0000
0001
0000
0000
0010
0100
0000
1000
0000
0100
0000
0000
0000
,
1000
0000
0001
0100
0001
0000
0100
0010
0100
0000
0010
1000
0020
0000
0000
0000
,
1030
0000
0100
1000
0100
0000
0010
0100
0010
0000
0001
0010
0002
0000
0000
0000
,
1003
0010
0100
0001
1000
0100
0010
0001
,
0100
1000
0100
0001
0010
1000
0010
0001
,
2001
0000
0000
0000
0100
0000
0000
0000
3100
0000
0000
0000
1000
0000
0000
0010
,
0200
0000
0301
0010
0100
0010
0001
1000
,
0200
0000
0310
0100
1000
0001
0100
0010
,
1000
0000
0001
1000
0001
0000
0010
0000
0100
0000
1000
0100
1000
0000
0001
0000
,
0200
0000
0000
0000
0310
0000
1010
0000
0000
0000
0001
0000
0100
0000
0010
0100
,
0020
0000
0000
0000
1030
0000
0100
0000
0001
0000
0100
0000
1000
0000
0001
1000
,
0001
0010
0001
0010
0001
0100
0001
0100
,
0010
0010
1000
1000
0100
1000
0002
0000
,
0013
0100
0001
0100
0010
0100
1000
0010
,
0001
0010
0100
0010
1000
0100
0010
0001
,
0011
0000
1000
1100
0000
0010
0110
0000
,
0001
0000
0001
0000
1000
0000
0100
1000
0100
0000
1000
0000
0002
0000
0000
0000
,
0103
0010
1000
0010
0001
0010
1001
0000
,
0100
0010
0001
0010
1000
0010
1001
0000
,
0002
0100
0103
1001
,
1000
0001
1000
0001
1000
0000
0010
0000
0100
0000
0000
0000
0110
0000
0000
0000
,
0001
0010
0001
0100
0000
0001
0010
0100
,
1000
0010
1000
0100
0000
1000
0010
0100
,
0001
0010
0001
0100
0000
0001
0010
1000
,
0020
0000
0000
0000
0030
0000
0001
1000
0002
0000
0000
0000
0003
0000
1000
0100
,
2000
0000
3000
0010
0100
0001
0010
0100
,
2000
0000
0000
0000
3000
0000
0010
0100
0020
0000
0000
0000
0030
0000
0100
0001
,
0200
0000
0300
0001
0010
0001
1000
0010
,
0100
0000
0000
0001
1000
0000
0000
1000
0100
0000
0000
0100
0020
0000
0000
0000
,
0031
0100
0001
1000
0001
0100
1000
0100
,
0001
0010
0001
1000
0001
0010
1000
0010
,
0001
0000
0100
0110
0000
0010
1010
0000
,
0001
0000
1000
0000
0100
0000
1000
0001
1000
0000
0010
0000
0200
0000
0000
0000
,
0301
0010
1000
0010
0001
0100
1001
0000
,
1000
0010
0001
0010
1000
0100
1001
0000
,
0001
0010
0100
1000
0001
0100
0010
1000
,
0100
0010
0100
0000
0010
0100
0010
0000
0001
0000
0000
0000
0110
0000
0000
0000
,
2002
0000
0000
0000
,
0000
0000
0000
3003
,
1000
0100
0010
0001
0100
0010
0001
1000
,
0100
0001
0010
0001
1000
0010
0100
0001
,
0020
0000
0000
0000
,
0000
0000
0000
0000
,
0000
0030
0000
0000
;

//--------------- dance-single - forcednature ----------------
#NOTEDATA:;
#STEPSTYPE:dance-single;
#DESCRIPTION:forcednature;
#DIFFICULTY:Hard;
#METER:17;
#RADARVALUES:0,0,0,0,0;
#CREDIT:forcednature;
#NOTES:
0000
0000
0000
0000
,
0000
0000
0000
0000
,
0000
0000
0000
0000
,
0000
0000
0000
0000
,
0000
0000
0000
0000
,
1000
0000
1000
0000
0001
0000
0100
0010
,
1000
0001
0100
0001
1000
0000
0100
0000
,
1000
0010
0100
0001
1000
0100
0010
0001
,
0100
0010
1000
0001
0010
0100
2000
0000
,
0000
0000
0000
0000
,
0000
0000
0000
0000
,
0000
0000
0000
0000
,
0002
0000
0000
3003
,
0011
0000
0000
0000
0001
0000
0100
0000
0010
0000
1000
0000
0100
0000
1000
0001
,
1000
0000
0000
0000
0001
0000
0010
0000
0100
0000
1000
0000
0010
0000
1000
0001
,
1000
0000
0000
0000
0100
0000
0010
0000
0001
0000
0100
0000
1000
0000
0100
0001
,
0200
0000
0000
0000
0301
0000
0010
0001
0020
0000
0000
0000
0130
0000
1000
0100
,
2000
0000
0010
0000
3001
0010
0100
1000
,
0020
0000
0000
0000
0130
0000
0001
1000
0002
0000
0000
0000
0013
0000
0100
1000
,
0200
0000
0000
0000
0310
0000
0001
0000
1000
0000
0010
0000
0100
0000
0001
1000
,
0001
0000
0000
0010
0001
0000
0000
0100
0010
0000
0000
1000
0200
0000
0300
0000
,
1001
0000
0000
0000
1000
0000
0010
0000
0100
0000
0001
0000
0010
0000
0100
1000
,
0001
0000
0000
0000
1000
0000
0100
0000
1000
0000
0001
0000
0100
0000
0010
1000
,
0001
0000
0000
0000
1000
0000
0001
0000
0010
0000
0100
0000
0001
0000
0100
1000
,
0200
0000
0000
0000
1300
0000
0010
1000
0020
0000
0000
0000
0130
0000
0001
0100
,
0001
0000
1000
0000
0001
0000
1000
0000
0010
0000
0100
0000
0001
0000
0010
0001
,
1000
0000
0001
0000
1000
0000
0010
0100
0001
0000
0010
0000
0001
0000
1000
0100
,
1000
0000
0001
0100
0001
0000
1000
0010
0000
0010
0000
0100
0001
0000
1000
0000
,
0100
0010
0100
0010
0001
1000
0100
0010
0002
0000
0000
0000
0103
0010
0100
0010
,
1000
0000
0010
0000
0100
0000
1000
0000
0100
0000
0010
0000
1000
0000
0001
1000
,
0001
0000
0100
0000
0010
0000
0001
0000
0010
1000
0000
0000
0100
1000
0000
0000
,
0001
0000
0010
0000
0100
0000
0001
0000
0100
0000
0010
0000
0001
0000
1000
0001
,
1000
0000
0100
0000
0010
0000
1000
0000
0010
0001
0010
0000
0001
0100
0001
0000
,
0000
0000
1000
0100
0020
0000
0000
0000
0130
0000
1000
0000
0010
0000
1000
0001
,
1000
0000
0010
0000
0100
0000
1000
0000
0100
0001
0000
0000
0010
0001
0000
0000
,
1000
0000
0010
0000
0100
0000
1000
0000
0100
0000
0010
0000
1000
0000
0001
1000
,
0001
0000
0100
0000
0010
0000
0001
0000
0010
0000
1000
0010
1000
0000
0010
0100
,
0001
0000
1000
0000
0100
0000
0001
0000
0001
0000
0100
0000
1000
0000
0001
1000
,
0001
0000
0010
0000
1000
0000
0010
0000
0001
0100
0000
0000
0010
1000
0000
0000
,
0001
0000
1000
0000
0010
0000
0001
0000
0001
0000
0010
0000
1000
0000
0001
1000
,
0001
0000
0100
0001
0100
0000
0010
0000
1000
0100
0010
0000
0001
0100
0010
0000
,
1000
0000
0100
0000
0010
0000
0100
0000
0001
0000
0100
0000
1000
0000
0100
0010
,
0001
0000
0100
0000
0010
0000
0100
0000
1000
0000
0100
0000
0001
0000
0100
0010
,
1000
0100
1100
0001
0010
0001
0101
1000
,
0010
0100
0010
0100
0001
0000
1000
0000
0100
0010
0001
0000
0100
0010
1000
0000
,
0001
0010
0011
0000
1000
0100
1100
0000
,
0001
0000
0100
0000
0110
0000
0000
0000
1000
0000
0100
0000
1001
0000
0000
0001
,
0010
0000
0100
0000
0110
0000
0000
1000
0001
0000
0100
0000
0101
0000
0000
0001
,
0010
0000
0100
0000
0110
0000
0000
0100
1000
0000
0001
0100
0001
0000
1000
0000
,
0010
0000
0100
0001
0010
0000
0100
1000
0010
0000
0100
0001
2000
0000
3100
0010
,
0100
0000
0010
0001
0100
0000
0010
1000
0100
0000
0010
0001
2000
0000
3010
0000
,
0100
0001
1000
0001
0100
0000
0010
0000
1000
0001
0010
0001
1000
0000
0100
0000
,
0010
0001
0010
0100
1000
0000
0001
0000
0100
0010
1000
0001
0010
0000
0100
0000
,
2001
0000
0000
0000
0100
0000
0000
0000
3001
0000
1000
0000
0010
0000
0100
0010
,
1000
0000
0001
0000
0010
0000
1000
0000
0010
0000
0001
0010
0001
0000
0100
0010
,
2000
0000
0000
0000
3100
0000
0001
0000
0100
0000
1000
0000
0001
0000
0010
0001
,
1000
0000
0010
1000
0010
0000
0100
0001
1000
0000
0100
0010
0100
0000
0010
0000
,
1002
0000
0000
0000
0103
0000
0001
0000
1000
0000
0001
0000
0010
0001
0010
0100
,
2000
0000
0000
0000
3100
0000
1000
0000
0001
0000
1000
0010
1000
0000
0010
0100
,
0001
0000
0010
0000
0100
0000
0010
0001
1000
0000
0010
0000
0100
0000
0010
0000
,
1000
0100
1000
0100
1000
0000
0001
0000
0010
0001
0010
0001
1000
0010
0100
0001
,
2000
0000
0100
0000
0001
0000
0100
0000
3001
0000
1000
0100
0010
0000
0100
1000
,
0002
0000
0100
0000
1000
0000
0100
0000
1003
0000
0001
0100
0010
0000
0100
0001
,
1000
0000
0100
0000
1000
0010
0100
0000
0001
0000
0010
0001
0100
0000
0010
0100
,
0010
0000
1000
0000
0100
0000
1000
0001
0010
0000
0100
0000
0110
0000
0000
0000
,
1000
0001
0100
0001
1000
0001
0100
0001
1000
0001
0100
0001
0020
0000
0030
0000
,
0001
1000
0100
1000
0001
1000
0100
1000
0001
1000
0100
1000
0020
0000
0030
0000
,
0200
0001
0001
0310
,
1000
0001
1000
0001
0010
0100
1000
0001
0020
0000
0000
0000
0130
0000
0000
0000
,
1001
0000
0000
0000
0001
0000
0010
0000
0100
0000
0001
0000
0001
0000
0100
1000
,
0100
0000
0000
0000
1000
0000
0010
0000
0100
0000
1000
0000
1000
0000
0100
0001
,
0100
0000
0000
0000
0001
0000
1000
0000
0100
0000
0010
0000
1000
0000
0010
0001
,
0020
0000
0000
0000
0130
0000
1000
0001
0200
0000
0000
0000
0310
0000
1000
0100
,
0020
0000
0000
0000
0130
0000
1000
0000
0001
0000
0100
0000
0010
0000
1000
0001
,
0200
0000
0000
0000
0301
0000
1000
0100
0020
0000
0000
0000
0130
0000
1000
0001
,
0200
0000
0000
0000
0310
0000
1000
0000
0100
0000
1000
0000
0001
0000
0010
0001
,
0010
0000
0000
0100
1000
0000
0000
0010
0100
0000
0000
0001
0020
0000
0030
0000
,
0002
0000
0100
0000
2003
0000
0100
0000
3001
0000
1000
0100
0010
0000
0100
1000
,
0002
0000
0010
0000
2003
0000
0010
0000
3001
0000
1000
0010
0100
0000
0010
1000
,
0001
0000
0010
0000
0001
0100
0010
0000
1000
0000
0100
0010
0001
0000
0100
0010
,
1000
0000
0100
0000
0001
0000
0100
1000
0100
0000
1000
0000
0010
0000
0100
0000
,
0001
0010
0001
1000
0010
1000
0001
0010
0001
1000
0010
1000
0200
0000
0300
0000
,
1000
0010
1000
0001
0010
0001
1000
0010
1000
0001
0010
0001
0200
0000
0300
0000
,
0010
1000
0100
0000
0010
0001
0100
0000
0010
1000
0001
0000
0100
0000
0010
0000
,
1000
0100
0010
0100
1000
0100
0010
0100
0002
0000
0000
0000
0103
1000
0100
1000
,
0020
0000
0000
0000
,
0000
0000
0000
0030
,
1000
0100
0010
0001
1000
0010
0100
0001
,
0010
0001
0010
0000
0100
0010
0100
0000
1000
0001
0010
0100
1000
0000
0010
0000
,
0200
0000
0000
0000
,
0000
0000
0000
0000
,
0000
0300
0000
0000
;

//--------------- dance-single - ----------------
#NOTEDATA:;
#STEPSTYPE:dance-single;
#DESCRIPTION:forcednature;
#CREDIT:forcednature;
#DIFFICULTY:Challenge;
#METER:18;
#RADARVALUES:0,0,0,0,0;
#NOTES:
0000
0000
0000
0000
,
0000
0000
0000
0000
,
0000
0000
0000
0000
,
0000
0000
0000
0000
,
0000
0000
0000
0000
,
0001
0000
0001
0000
0001
0000
0001
0100
,
0010
1000
0100
1000
0001
0000
0010
0000
,
0100
1000
0001
0100
0010
1000
0001
0010
,
0100
1000
0100
0001
0100
1000
0020
0000
,
0000
0000
0000
0000
,
0000
0000
0000
0000
,
0000
0000
0000
0000
,
0200
0000
0000
0330
,
1000
0010
1000
0000
0100
0000
1000
0010
1000
0000
0100
0000
0010
0000
0100
1000
,
0001
0010
0001
0000
0100
0000
0001
0010
0001
0000
0100
0000
0010
0000
0100
0001
,
1000
0100
1000
0000
0010
0000
1000
0100
1000
0000
0001
0000
0010
0000
0100
1000
,
0020
0000
0000
0000
0130
0000
0010
1000
0002
0000
0000
0000
0013
0000
0001
0100
,
0020
0000
0000
0000
1030
0000
0100
0000
0001
0000
0100
0000
1000
0000
0010
0100
,
0002
0000
0000
0000
0013
0000
0100
1000
0002
0000
0000
0000
0103
0000
0010
1000
,
0200
0000
0000
0000
0310
0000
0001
0000
1000
0000
0010
0000
0001
0000
0010
0100
,
0010
0000
0100
0001
1000
0000
0100
0010
0001
0000
1000
0010
0100
0001
0100
0000
,
0001
0010
0001
0000
0100
0000
0001
0010
0001
0000
0100
0000
0010
0000
0100
0001
,
1000
0010
1000
0000
0100
0000
1000
0010
1000
0000
0100
0000
0010
0000
0100
1000
,
0001
0100
0001
0000
0010
0000
0001
0100
0001
0000
1000
0000
0010
0000
0100
0001
,
0020
0000
0000
0000
0130
0000
0010
0001
2000
0000
0000
0000
3010
0000
1000
0100
,
0020
0000
0000
0000
0031
0000
0100
0000
1000
0000
0100
0000
0001
0000
0010
0100
,
2000
0000
0000
0000
3010
0000
0100
0001
2000
0000
0000
0000
3100
0000
0010
0001
,
0100
0000
0010
1000
0100
0000
0010
0000
0001
1000
0001
1000
0010
0000
0100
0000
,
0001
0010
0100
0010
0001
0010
0100
1000
0002
0000
0000
0000
1003
0010
0100
0001
,
1000
0100
0010
0110
0001
0100
0110
1000
,
0100
0110
0001
0100
1010
0000
0011
0000
,
1001
1000
0100
1001
0001
0100
1010
0001
,
0010
0000
0011
0000
1000
0000
0010
0000
0110
0000
1000
0001
0010
0001
0100
0001
,
0000
0000
0010
0100
1000
0000
0010
0000
1000
0000
0100
0000
0110
0000
0001
0000
,
0100
0110
1000
0100
0011
0000
1010
0000
,
0011
1000
0100
1010
0001
0100
0110
1000
,
0100
0000
0110
0000
0001
0000
0100
0000
1001
0000
1000
0100
0010
0000
0001
0100
,
0010
0000
1000
0100
0010
0000
1000
0000
0010
0100
1000
0000
0010
0000
1000
0100
,
0010
0000
1000
0000
0010
0100
1000
0000
0010
0100
0001
0000
1000
0001
1000
0001
,
0010
0000
0001
0100
0010
0000
0001
0000
0010
0100
0001
0000
0010
0000
0001
0100
,
0010
0000
0001
0000
0010
0100
0001
0000
0010
0100
1000
0000
0010
0100
0001
0100
,
0020
0000
0000
0000
1030
0000
0100
0000
0100
0000
1000
0000
0010
0000
0100
0001
,
0020
0000
0000
0000
0130
0000
0010
0001
1000
0000
0010
1000
0001
0000
0010
0100
,
2000
0000
0010
0000
3010
0000
1000
0100
0020
0000
0001
0000
0031
0000
0010
0100
,
1000
0001
1000
0001
0100
0010
0100
0010
2000
0000
3100
0010
0002
0000
0103
0010
,
1000
0000
0100
0000
1100
0000
0000
0001
0010
0000
0001
0000
0101
0000
0000
1000
,
0010
0000
0100
0000
0110
0000
0000
0001
0010
0000
0100
0010
0001
0000
0100
0010
,
1000
0000
0001
0000
0011
0000
0000
0001
1000
0000
0010
0000
1010
0000
0000
0100
,
0001
0000
0010
0000
0011
0000
0000
1000
0100
0000
0010
0100
1000
0000
0010
0100
,
0001
0000
0001
0010
0100
0000
0100
1000
0010
0000
0010
0100
2000
0000
3100
0001
,
1000
0000
1000
0010
0100
0000
0100
0001
0010
0000
0010
0100
0002
0000
0103
1000
,
0001
0100
0001
0100
0010
1000
0001
0000
1000
0100
1000
0100
0010
0001
1000
0000
,
0010
0100
0001
1000
0100
0010
0100
1000
0010
0100
0001
1000
0100
0010
0001
1000
,
0020
0100
1000
0230
,
0302
0000
0000
0013
0100
1000
0001
0100
,
0020
0000
0000
0000
1030
0000
0001
0000
0020
0000
0000
0000
0130
0000
1000
0100
,
1000
0000
0001
0100
0001
0000
1000
0010
0100
0000
0001
0010
0100
0000
0010
0000
,
1002
0000
0000
0000
1003
0100
0010
0001
0010
0100
1000
0001
0100
0010
1000
0001
,
0200
0000
0000
0000
0301
1000
0100
0010
0001
0010
0100
1000
0001
0100
0010
1000
,
0002
0010
0013
0001
2000
0010
3010
1000
,
0001
0010
0001
0010
0001
0010
0001
0010
0100
1000
0001
0100
0010
1000
0001
0010
,
0200
0000
1000
0000
1000
0000
0010
0000
0010
0000
1000
0000
1000
0000
0310
0001
,
0020
0000
0100
0000
0100
0000
0001
0000
0001
0000
0100
0000
0100
0000
0031
1000
,
0100
0000
1000
0001
0100
0001
0010
0000
0001
1000
0100
1000
0010
0000
0100
0001
,
0010
0000
0100
1000
0010
0000
0100
0001
1000
0001
0100
0010
1000
0000
0001
0000
,
0010
0100
1000
0001
0100
0001
1000
0100
0010
0001
1000
0010
0200
0000
0301
0000
,
0100
0010
1000
0001
0010
0001
1000
0010
0100
0001
1000
0100
0020
0000
0031
0000
,
1000
0010
1000
0010
0100
0001
0020
0000
,
0130
1000
0100
1000
0001
0010
0100
1000
0020
0000
0000
0000
1030
0001
1000
0001
,
0010
0100
0010
0000
0001
0000
0100
0010
0100
0000
0010
0000
1000
0000
0100
1000
,
0010
0100
0010
0000
1000
0000
0100
0010
0100
0000
0010
0000
0001
0000
0100
0001
,
0010
0100
0010
0000
0001
0000
0100
0010
0100
0000
0010
0000
1000
0000
0100
0010
,
0002
0000
0000
0000
0103
0000
0010
1000
0002
0000
0000
0000
0013
0000
0001
0100
,
0020
0000
0000
0000
1030
0000
0100
0000
0001
0000
0100
0000
1000
0000
0010
0100
,
0002
0000
0000
0000
0013
0000
0100
1000
0002
0000
0000
0000
0103
0000
0010
1000
,
0200
0000
0000
0000
0310
0000
0001
0000
1000
0000
0010
0000
0001
0000
0010
0100
,
0010
0000
0100
0001
1000
0000
0100
0010
0001
0000
1000
0010
0100
0001
0100
0001
,
1000
0000
1000
0100
0010
0000
0010
0001
1000
0000
1000
0010
0100
0000
0110
0000
,
1001
0000
0001
0010
0100
0000
0100
1000
0001
0000
0001
0100
0010
0000
0110
0000
,
1000
0001
0010
0001
0100
0000
0001
1000
0010
1000
0100
0000
0110
0000
0010
0001
,
1000
0000
0010
0000
0101
0000
0010
1000
0001
0000
0010
0000
1100
0000
0001
0000
,
0010
0100
1000
0001
0100
0010
1000
0010
0100
0001
1000
0100
0020
0000
0031
0000
,
0100
0010
1000
0001
0010
0100
1000
0100
0010
0001
1000
0010
0200
0000
0301
0000
,
0010
0100
1000
0000
0010
0100
0001
0000
1000
0100
0010
0000
0001
1000
0010
0100
,
0001
0010
0100
0010
0001
0010
0100
1000
0020
0000
0000
0000
0130
0001
0100
0010
,
2002
0000
0000
0000
,
0000
0000
0000
3003
,
1000
0100
1000
0100
0010
0001
0010
0001
1000
0100
0010
0001
1000
0010
0100
0001
,
0010
0100
1000
0001
0100
0010
1000
0010
0100
0001
1000
0100
0010
0001
1000
0001
,
0200
0000
0000
0000
,
0000
0000
0000
0000
,
0000
0300
0000
0000
;

//--------------- dance-double - forcednature ----------------
#NOTEDATA:;
#STEPSTYPE:dance-double;
#DESCRIPTION:forcednature;
#DIFFICULTY:Easy;
#METER:10;
#RADARVALUES:0,0,0,0,0;
#CREDIT:forcednature;
#NOTES:
00000000
00000000
00000000
00000000
,
00000000
00000000
00000000
00000000
,
00000000
00000000
00000000
00000000
,
00000000
00000000
00000000
00000000
,
00000000
00000000
00000000
00000000
,
00010000
00010000
00001000
00000000
,
00100000
00010000
10000000
00000000
,
01000000
00100000
00001000
00010000
,
00000100
00000010
00000001
00000200
,
00000000
00000000
00000000
00000000
,
00000000
00000000
00000000
00000000
,
00000000
00000000
00000000
00000000
,
00000020
00000000
00000000
00000330
,
00001001
00000000
00001000
00000100
,
00010000
00000000
00001000
00010000
,
00001000
00000000
00100000
00010000
,
02000000
00000000
03200000
00000000
,
20300000
00000000
31000000
00100000
,
00020000
00000000
02030000
00000000
,
03002000
00000000
00013000
00000100
,
00001000
00000010
00001000
00000001
,
00001001
00000000
00001000
00000100
,
00010000
00000000
00001000
00100000
,
00010000
00000000
01000000
00100000
,
20000000
00000000
32000000
00000000
,
03200000
00000000
00301000
00010000
,
00000200
00000000
00002300
00000000
,
00003020
00000000
00000130
00000001
,
00000010
00000100
00000010
00000000
00000110
00000000
00000000
00000000
,
00001001
00000000
00000000
00001000
00000000
00000000
00000100
00000000
,
00000000
00010000
00000000
00000000
00001000
00000000
00011000
00000000
,
00100000
00000000
00000000
00010000
00000000
00000000
01000000
00000000
,
00000000
00010000
00000000
00000000
10000000
00000000
10010000
00000000
,
00010000
00000000
00000000
00100000
00000000
00000000
00001000
00000000
,
00000000
00010000
00000000
00000000
00000010
00000000
00001001
00000000
,
00001000
00000000
00000000
00000100
00000000
00000000
00001000
00000000
,
00000000
00000010
00000000
00000000
00010000
00000000
00011000
00000000
,
00100000
00010000
01000000
00010000
,
10000000
01000000
20000000
30020000
,
00130000
00001000
00010000
00000100
,
00001000
00000010
00002000
00003002
,
00000103
00000000
00000010
00000100
00000000
00000010
00000100
00000000
,
00001001
00000000
00010000
00001000
00000000
00010000
00001000
00000000
,
00011000
00100000
00011000
01000000
,
00010000
00000000
10000000
00000000
01000000
10000000
01000000
00000000
,
00100000
00001000
00010000
00000000
,
00000010
00010000
00001000
01000000
,
00010000
00100000
00001000
00000000
,
00010000
00000010
00001000
00000100
,
00000010
00000001
00000100
00000110
,
00001000
00000100
00010000
00011000
,
00100000
00010000
01000000
01100000
,
00010000
00000000
10000000
00000000
01000000
00100000
01000000
00100000
,
00020000
00000000
00130000
00001000
,
00010000
00000000
00001000
00010000
00001000
00000000
00010000
00000000
,
00000200
00000000
00001300
00000010
,
00000100
00000010
00000100
00000000
00000001
00000000
00000010
00000000
,
00000110
00000000
00000000
00001000
00000000
00000000
00000100
00000000
,
00011000
00000000
00000000
00100000
00000000
00000000
00010000
00000000
,
01100000
10000000
00100000
10000000
,
01000000
00100000
01000000
00000000
00100000
00000000
00001000
00000000
,
00010000
00000000
00010000
00000000
00000100
00000000
00001000
00000010
,
00001000
00000000
00000001
00000000
00000100
00000000
00000001
00001000
,
00000001
00000000
00000000
00000110
00000000
00000000
00001001
00000000
,
00000000
00001000
00000010
00010000
,
00001000
00010000
00001000
00000000
00100000
00000000
00020000
00000000
,
01030000
00100000
01000000
00000000
10000000
00000000
02000000
00000000
,
03200000
00000000
00301000
00010000
,
00000100
00001000
00000100
00001000
00000100
00000000
00000010
00000000
,
00001001
00000000
00000001
00000100
,
00000010
00000000
00001000
00000100
,
00010000
00000000
00001000
00100000
,
00020000
00000000
02030000
00000000
,
03200000
00000000
10300000
01000000
,
00020000
00000000
00032000
00000000
,
00003020
00000000
00000031
00001000
,
00000010
00000100
00001000
00010000
,
00100000
00000000
01000000
00100000
01000000
00000000
00010000
00000000
,
00100000
00000000
00001000
00010000
00001000
00000000
00000100
00000000
,
00000010
00000000
00000000
00000110
00000000
00000000
00001001
00000000
,
00000000
00010000
00001000
00100000
,
00001000
00010000
00001000
00000000
01000000
00000000
01010000
00000000
,
00001000
00010000
00001000
00000000
00100000
00000000
00110000
00000000
,
10000000
01000000
00010000
00001000
,
00000010
00000100
00000010
00000100
00000010
00000000
00000001
00000000
,
00002002
00000000
00000000
00000000
,
00000000
00000000
00003003
00000000
,
00000001
00000010
00000100
00001000
,
00000010
00000100
00001000
00010000
,
00200000
00000000
00000000
00000000
,
00000000
00000000
00000000
00000000
,
00000000
00300000
00000000
00000000
;

//--------------- dance-double - forcednature ----------------
#NOTEDATA:;
#STEPSTYPE:dance-double;
#DESCRIPTION:forcednature;
#DIFFICULTY:Medium;
#METER:15;
#RADARVALUES:0,0,0,0,0;
#CREDIT:forcednature;
#NOTES:
00000000
00000000
00000000
00000000
,
00000000
00000000
00000000
00000000
,
00000000
00000000
00000000
00000000
,
00000000
00000000
00000000
00000000
,
00000000
00000000
00000000
00000000
,
00010000
00010000
00001000
00010000
,
00000010
00001000
00000010
00000100
00000001
00000000
00000010
00000000
,
00000100
00001000
00000100
00001000
00000010
00010000
00000010
00010000
,
00001000
01000000
00010000
00100000
01000000
10000000
00200000
00000000
,
00000000
00000000
00000000
00000000
,
00000000
00000000
00000000
00000000
,
00000000
00000000
00000000
00000000
,
02000000
00000000
00000000
03300000
,
10010000
00000000
10000000
01000000
00000000
00010000
01000000
00010000
,
00001000
00000000
00000010
00000100
00000000
00000010
00000001
00000100
,
00000001
00000000
00001000
00000010
00000000
00010000
00001000
01000000
,
00020000
00000000
00130000
01000000
20000000
00000000
30100000
01000000
,
00002000
00000000
00013000
00000010
00000100
00001000
00000100
00000001
,
00002000
00000000
00003010
00010000
00002000
00000000
01003000
00010000
,
00200000
00000000
01300000
10000000
00100000
01000000
00010000
00100000
,
00001000
00000000
00000000
00010000
00000100
00000000
00000000
00000100
00001000
00000000
00000000
00001000
00000002
00000000
00000000
00000000
,
00000013
00000100
00001000
00000100
00000000
00010000
00001000
00100000
,
00010000
10000000
00100000
10000000
00000000
01000000
00010000
00001000
,
00010000
00000100
00001000
00000100
00000000
00000010
00000001
00000100
,
00002000
00000000
00013000
00100000
02000000
00000000
03010000
10000000
,
01000000
00010000
00001000
00010000
00001000
00000010
00000001
00000000
,
00000100
00001000
00010000
00001000
00010000
00100000
10000000
00000000
,
01000000
01000000
00010000
01000000
00010000
00001000
00000010
00000100
,
00002000
00000000
00000000
00003000
00000001
00001000
00000001
00000000
00000200
00000000
00000000
00000000
00000310
00000000
00000000
00000000
,
00001001
00000000
00000001
00000100
00000000
00001000
00000100
00000000
,
00001000
00000000
00010000
00000000
00000000
00000000
00100000
00000000
10000000
00000000
01000000
00000000
10000000
00000000
00010000
10000000
,
00010000
00000000
10000000
01000000
00000000
00010000
01000000
00000000
,
00010000
00000000
00001000
00000000
00000000
00000000
00000010
00000000
00001000
00000000
00000010
00000000
00000001
00000000
00000100
00000010
,
00000000
00000000
00002002
00000000
00003003
00001000
00000010
00000000
,
00010000
00000000
00001000
00000000
00000000
00000000
01000000
00000000
00010000
00000000
10000000
00000000
00100000
00000000
10000000
00010000
,
10000000
00000000
01000000
00010000
00000000
00001000
00010000
00000000
,
00001000
00000010
00000000
00000001
00000010
00000001
00000100
00000010
,
00001001
00000000
00001000
00000100
00000010
00000100
00010000
00001000
,
00100000
00010000
01000000
00100000
01100000
00000000
10010000
00000000
,
10100000
00000000
00010000
01000000
00100000
01000000
00001000
00010000
,
00000010
00000000
00001000
00000000
00000100
00000000
00000010
00000000
00000001
00000000
00000000
00000100
00001000
00000000
00000100
00000000
,
00000002
00000000
00000013
00000100
00010000
00001000
00100000
00000000
,
01100000
00000000
01000000
00010000
00001000
00010000
00000100
00000000
,
00001000
00000010
00001000
00000000
00000002
00000000
00000000
00000000
00001003
00000100
00001000
00000000
00000002
00000000
00000000
00000000
,
00000013
00000100
00000010
00000000
00000100
00000000
00010000
00000000
00001000
00000000
00100000
00000000
01000000
00000000
00000000
00000000
,
10010000
00000000
00000000
00000000
11000000
00000000
00000000
00000000
00010000
00000000
00100000
00000000
00001000
00000000
00000000
00010000
,
00000100
00000000
00000000
00000000
00001100
00000000
00000000
00000000
00000001
00000000
00000100
00000000
00000010
00000000
00000000
00001000
,
00000100
00000000
00000100
00000000
00010000
00000000
00000000
00001000
00100000
00000000
00100000
00000000
00010000
00000000
00000000
01000000
,
00100000
00000000
00100000
00000000
10000000
00000000
00000000
01000000
00010000
00000000
00001000
00000000
00010000
00000000
00000000
00000000
,
00000010
00000000
00001000
00000010
00001000
00000000
00000100
00010000
00000100
00000000
00010000
00001000
00200000
00000000
00000000
00000000
,
00310000
00000000
01000000
00010000
01000000
00000000
00001000
00010000
00001000
00000000
00010000
00000010
00002000
00000000
00000000
00000000
,
00003100
00000010
00001000
00010000
00000010
00000100
00001000
00010000
,
01000000
10000000
00100000
00010000
00001000
00000010
00000001
00000100
,
00002001
00000000
00000000
00000000
00000100
00000000
00000000
00000000
00003100
00000000
00000000
00000000
00010000
00000000
00000000
00001000
,
00200000
00000000
00310000
01000000
10000000
01000000
00010000
00100000
,
00002000
00000000
00013000
00000010
00000100
00001000
00010000
00000010
,
00001000
00000000
00000001
00001000
00000001
00000000
00000010
00000000
00000100
00000000
00001000
00000100
00001000
00000000
00000010
00000000
,
00020000
00000000
00000000
00000000
00031000
00000000
00011000
00000000
00000000
00000000
00100000
00000000
00010000
00000000
01000000
00010000
,
02000000
00000000
00000000
00000000
03100000
00000000
01100000
00000000
00000000
00000000
10000000
00000000
01000000
00000000
10000000
00010000
,
10000000
00100000
10000000
00100000
01000000
10000000
01000000
10000000
,
01000000
01000000
00010000
00100000
00001000
00010000
00000200
00000000
,
00000310
00001000
00000010
00001000
00010000
00000100
00001000
00000001
,
00000100
00001000
00000100
00001000
00010000
00100000
01000000
00100000
,
10100000
00000000
10000000
11000000
00000000
00010000
00110000
00000000
,
00001000
00000000
00001000
00000000
00010000
00000000
00000100
00001000
00000100
00000000
00001000
00000000
00000020
00000000
00000000
00000000
,
00000130
00001000
00010000
00100000
01000000
00010000
20010000
00000000
,
31000000
00010000
00001000
00000010
00000100
00001000
00001002
00000000
,
00000203
00000010
00001300
00011000
,
00001000
00010000
00001000
00010000
00001000
00000000
00010000
00000000
00001000
00000000
00000000
00000000
00110000
00000000
00000000
00000000
,
10000000
00100000
00010000
00100000
00000000
00010000
00001000
00010000
,
00000100
00001000
00000100
00000001
00000000
00000100
00001000
00000010
,
00000100
00000001
00000010
00000001
00000000
00000100
00001000
00010000
,
00002000
00000000
00000000
00000000
00003000
00000000
01000000
00010000
02000000
00000000
00000000
00000000
03000000
00000000
00100000
10000000
,
00200000
00000000
00300000
10000000
01000000
00010000
00001000
00010000
,
00002000
00000000
00000000
00000000
00003000
00000000
00000010
00000100
00000020
00000000
00000000
00000000
00000030
00000000
00000001
00001000
,
00000002
00000000
00000003
00000100
00001000
00010000
00001000
00010000
,
00100000
00000000
00000000
00100000
10000000
00000000
00000000
10000000
01000000
00000000
00000000
01000000
00020000
00000000
00000000
00000000
,
00031000
00000010
00000001
00000010
00001000
00010000
01000000
10000000
,
00100000
00010000
00001000
00010000
00100000
10000000
01000000
00010000
,
00002000
00000000
00003010
00000110
00000000
00000001
00002001
00000000
,
00003010
00000100
00002000
00000000
00013000
00100000
02000000
00000000
,
03010000
10000000
00100000
00010000
00001000
00000100
00001001
00000000
,
00001000
00000001
00000010
00001000
00010000
01000000
10010000
00000000
,
10000000
00100000
00010000
00001000
00000010
00000001
00000100
00001000
,
00010000
00001000
00010000
00000000
00001000
00010000
00001000
00000000
00100000
00000000
00000000
00000000
01100000
00000000
00000000
00000000
,
20020000
00000000
00000000
00000000
,
00000000
00000000
00000000
30030000
,
10000000
01000000
00100000
00010000
01000000
00100000
00010000
00001000
,
00100000
00010000
00001000
00000100
00010000
00001000
00000100
00000010
,
00000002
00000000
00000000
00000000
,
00000000
00000000
00000000
00000000
,
00000000
00000003
00000000
00000000
;

//--------------- dance-double - forcednature ----------------
#NOTEDATA:;
#STEPSTYPE:dance-double;
#DESCRIPTION:forcednature;
#DIFFICULTY:Hard;
#METER:17;
#RADARVALUES:0,0,0,0,0;
#CREDIT:forcednature;
#NOTES:
00000000
00000000
00000000
00000000
,
00000000
00000000
00000000
00000000
,
00000000
00000000
00000000
00000000
,
00000000
00000000
00000000
00000000
,
00000000
00000000
00000000
00000000
,
00001000
00000000
00001000
00000000
00010000
00000000
00000100
00001000
,
00000001
00000100
00000001
00001000
00000010
00000000
00010000
00000000
,
00001000
00100000
00010000
01000000
00001000
00010000
00100000
01000000
,
00010000
00100000
01000000
00100000
00010000
00001000
00000200
00000000
,
00000000
00000000
00000000
00000000
,
00000000
00000000
00000000
00000000
,
00000000
00000000
00000000
00000000
,
00000020
00000000
00000000
00000330
,
00000001
00000000
00000100
00000000
00001000
00000000
00000100
00000000
00000000
00000000
00001000
00000000
00010000
00000000
00001000
00010000
,
00001000
00000000
00010000
00000000
00100000
00000000
00010000
00000000
00000000
00000000
00100000
00000000
10000000
00000000
00010000
10000000
,
00010000
00000000
10000000
00000000
01000000
00000000
00010000
00000000
00000000
00000000
00001000
00000000
00010000
00000000
00000100
00001000
,
00000200
00000000
00000000
00000000
00000300
00000000
00000010
00000001
00000020
00000000
00000000
00000000
00000030
00000000
00000001
00000100
,
00000002
00000000
00001000
00000000
00000013
00000001
00000100
00001000
,
00020000
00000000
00000000
00000000
00030000
00000000
00100000
01000000
00200000
00000000
00000000
00000000
00300000
00000000
10000000
01000000
,
20000000
00000000
30000000
00010000
00100000
01000000
00100000
00001000
,
00010000
00000000
00000000
00000100
00001000
00000000
00000000
00000010
00000100
00000000
00000000
00000001
00000020
00000000
00000030
00000000
,
00000001
00000000
00001000
00000000
00000100
00000000
00000001
00000000
00000000
00000000
00000100
00000000
00010000
00000000
00001000
00010000
,
00001000
00000000
00100000
00000000
00010000
00000000
01000000
00000000
00000000
00000000
00100000
00000000
10000000
00000000
01000000
10000000
,
01000000
00000000
00010000
00000000
00001000
00000000
00010000
00000000
00000000
00000000
00001000
00000000
00000010
00000000
00000001
00000010
,
00000002
00000000
00000000
00000000
00000003
00000000
00000100
00000010
00000200
00000000
00000000
00000000
00000300
00000000
00000010
00001000
,
00000010
00000000
00010000
00000000
00000010
00000000
00010000
00000000
00001000
00000000
01000000
00000000
00010000
00000000
00100000
00010000
,
10000000
00000000
00010000
00000000
10000000
00000000
01000000
10000000
01000000
00000000
00010000
00000000
00001000
00000000
00100000
00001000
,
00100000
00000000
00001000
00010000
00001000
00000000
00010000
00000100
00000000
00000100
00000000
00001000
00000010
00000000
00000100
00000000
,
00000001
00000010
00000001
00000010
00000100
00001000
00000100
00001000
00000002
00000000
00000000
00000000
00000103
00000000
00001000
00010000
,
00001000
00010000
00100000
10000000
00100000
00010000
00001000
00010000
,
00100000
10000000
00100000
00010000
00002000
00000000
00103000
01000000
,
00010000
00001000
00000010
00000001
00000010
00001000
00010000
00001000
,
00000010
00000000
00000001
00000000
00000010
00000000
00001000
00000000
00010000
00000000
00001000
00010000
00001000
00000000
00100000
00010000
,
00000000
00000000
01000000
00100000
20000000
00000000
00000000
00000000
31000000
00000000
00010000
00000000
00001000
00000000
00010000
00000000
,
01000000
10000000
01000000
00010000
00002000
00000000
01003000
00100000
,
00010000
00001000
00000100
00000001
00000100
00001000
00010000
00001000
,
00000100
00000000
00000001
00000000
00000100
00000000
00001000
00000000
00010000
00000000
00001000
00010000
00001000
00000000
01000000
00010000
,
10000000
00000000
10000000
00000000
01000000
00000000
00010000
00000000
00010000
00000000
00001000
00000000
00000010
00000000
00000001
00000010
,
00000001
00000100
00000010
00010000
00002000
00000000
00003002
00000000
,
00001003
00000000
00001000
00000000
00010000
00000000
00100000
00000000
00100000
00000000
10000000
00000000
00100000
00000000
00010000
00001000
,
00010000
00000000
00000100
00001000
00000100
00000000
00000010
00000000
00000001
00000100
00000010
00000000
00001000
00000100
00000010
00000000
,
00000001
00000000
00000100
00000000
00000001
00000000
00000100
00000000
00001000
00000000
00010000
00000000
00100000
00000000
01000000
00100000
,
10000000
00000000
01000000
00000000
10000000
00000000
01000000
00000000
00010000
00000000
00001000
00000000
00000010
00000000
00000100
00000010
,
00000001
00000100
00001000
00010000
00011000
00001000
00010000
00100000
,
10000000
00100000
10000000
00100000
01000000
00000000
00010000
00000000
00100000
00001000
00010000
00000000
00000100
00010000
00001000
00000000
,
00000010
00000000
00000010
00000000
00000100
00000000
00000000
00001000
00000001
00000000
00000001
00000000
00000100
00000000
00000000
00001000
,
00010000
00000000
00010000
00000000
00100000
00000000
00000000
01000000
00010000
00000000
00010000
00000000
10000000
00000000
00000000
01000000
,
00010000
00000000
00001000
00000000
00011000
00000000
00000000
00000100
00001000
00000000
00000010
00000000
00000110
00000000
00000000
00000001
,
00000010
00000000
00000100
00000000
00010100
00000000
00000000
00001000
00100000
00000000
00010000
01000000
00010000
00000000
10000000
00000000
,
01000000
00000000
00100000
01000000
00010000
00000000
00001000
00010000
00001000
00000000
00000010
00000100
00002000
00000000
00003001
00000000
,
00000100
00000000
00000010
00000100
00001000
00000000
00010000
00001000
00010000
00000000
00100000
01000000
00020000
00000000
10030000
00000000
,
01000000
10000000
00010000
00000000
00100000
00000000
00001000
00000000
00010000
00000010
00001000
00000000
00000001
00000000
00000100
00000000
,
00001000
00010000
00001000
00000000
00010000
00000000
00100000
00000000
10000000
00010000
01000000
00000000
00100000
10000000
00010000
00000000
,
00200000
00000000
00000000
00000000
01000000
00000000
00000000
00000000
00310000
00000000
00100000
00000000
00001000
00000000
00010000
00000100
,
00001000
00000000
00000010
00000000
00000100
00000000
00001000
00000000
00000100
00000000
00000001
00000100
00000001
00000000
00000010
00000001
,
00002000
00000000
00000000
00000000
00003100
00000000
00010000
00000000
00001000
00000000
00100000
00000000
00010000
00000000
01000000
00100000
,
10000000
00000000
01000000
10000000
01000000
00000000
10000000
00010000
00100000
00000000
00001000
00010000
00001000
00000000
00010000
00000000
,
00000020
00000000
00000000
00000000
00000130
00000000
00000001
00000000
00000010
00000000
00000001
00000000
00000100
00000010
00001000
00000100
,
00020000
00000000
00000000
00000000
00031000
00000000
01000000
00000000
00010000
00000000
00100000
00010000
00100000
00000000
01000000
10000000
,
00010000
00000000
00100000
00000000
01000000
00000000
00100000
00001000
00010000
00000000
00000010
00000000
00000100
00000000
00000010
00000000
,
00001000
00000100
00001000
00000100
00001000
00000000
00000001
00000000
00000010
00000100
00000010
00000100
00001000
00000001
00001000
00000001
,
00001000
00000000
00000010
00000000
00000001
00000000
00000010
00000000
00001000
00000000
00010000
01000000
00100000
00000000
00100000
10000000
,
00010000
00000000
00100000
00000000
10000000
00000000
00100000
00000000
00010000
00000000
00001000
00000100
00000010
00000000
00000010
00000001
,
00001000
00000000
00000010
00000000
00010000
00001000
00010000
00000000
00001000
00000000
00100000
00010000
01000000
00000000
00100000
10000000
,
00100000
00000000
01000000
00000000
00010000
00000000
00100000
00001000
00010000
00000000
00000100
00000000
00001100
00000000
00000000
00000000
,
00001000
00000010
00001000
00000010
00010000
00001000
00010000
00001000
01000000
00010000
01000000
00010000
20000000
00000000
30000000
00000000
,
00010000
00100000
00010000
00100000
00001000
00010000
00001000
00010000
00000100
00001000
00000100
00001000
00000002
00000000
00000003
00000000
,
00000200
00000010
00000010
00000301
,
00001000
00000010
00001000
00000010
00010000
00001000
01000000
00010000
00200000
00000000
00000000
00000000
01300000
00000000
00000000
00000000
,
10010000
00000000
00000000
00000000
00010000
00000000
00100000
00000000
01000000
00000000
00010000
00000000
00010000
00000000
00001000
00010000
,
00000100
00000000
00000000
00000000
00001000
00000000
00000010
00000000
00000100
00000000
00001000
00000000
00001000
00000000
00010000
00001000
,
01000000
00000000
00000000
00000000
00010000
00000000
00100000
00000000
01000000
00000000
00010000
00000000
01000000
00000000
10000000
01000000
,
20000000
00000000
00000000
00000000
30100000
00000000
10000000
00010000
02000000
00000000
00000000
00000000
03001000
00000000
00010000
00001000
,
00020000
00000000
00000000
00000000
00030100
00000000
00001000
00000000
00000010
00000000
00000100
00000000
00000001
00000000
00000010
00000100
,
00002000
00000000
00000000
00000000
00003010
00000000
00010000
00001000
00020000
00000000
00000000
00000000
00031000
00000000
00100000
00010000
,
20000000
00000000
00000000
00000000
31000000
00000000
00010000
00000000
00001000
00000000
00010000
00000000
00000010
00000000
00001000
00000010
,
00001000
00000000
00000000
00000001
00000100
00000000
00000000
00001000
00010000
00000000
00000000
00100000
20000000
00000000
30000000
00000000
,
00010000
00000000
01000000
00000000
00001000
00000000
00010000
00000000
01000000
00000000
00100000
00001000
00010000
00000000
00010000
00000010
,
00001000
00000000
00000100
00000000
00010000
00000000
00001000
00000000
00000100
00000000
00000010
00010000
00001000
00000000
00001000
01000000
,
00010000
00000000
00100000
00000000
00010000
01000000
00100000
00000000
10000000
00000000
01000000
00100000
00001000
00000000
00010000
00000100
,
00001000
00000000
00000001
00000000
00000010
00000000
00000001
00000100
00000001
00000000
00001000
00000000
00000010
00000000
00000100
00000000
,
00001000
00010000
00000010
00001000
00000010
00010000
00001000
01000000
00010000
01000000
00001000
00010000
00200000
00000000
00300000
00000000
,
00010000
00001000
00100000
00010000
00100000
00001000
00010000
00000100
00001000
00000100
00010000
00001000
00000020
00000000
00000030
00000000
,
00000100
00001000
00000010
00000000
00000100
00000001
00000010
00000000
00000100
00001000
00000001
00000000
00000100
00000000
00001000
00000000
,
00010000
00100000
01000000
00100000
00010000
00100000
01000000
00100000
20000000
00000000
00000000
00000000
31000000
00010000
01000000
00010000
,
00002000
00000000
00000000
00000000
,
00000000
00000000
00000000
00003000
,
01000000
00100000
00010000
00001000
00100000
00010000
00001000
00000100
,
00000010
00000001
00000010
00000000
00000001
00000100
00000001
00000000
00000100
00001000
00010000
00100000
01000000
00000000
00010000
00000000
,
20000000
00000000
00000000
00000000
,
00000000
00000000
00000000
00000000
,
00000000
30000000
00000000
00000000
;

//--------------- dance-double - ----------------
#NOTEDATA:;
#STEPSTYPE:dance-double;
#DESCRIPTION:forcednature;
#CREDIT:forcednature;
#DIFFICULTY:Challenge;
#METER:18;
#RADARVALUES:0,0,0,0,0;
#NOTES:
00000000
00000000
00000000
00000000
,
00000000
00000000
00000000
00000000
,
00000000
00000000
00000000
00000000
,
00000000
00000000
00000000
00000000
,
00000000
00000000
00000000
00000000
,
00001000
00000000
00001000
00000000
00001000
00000000
00001000
00010000
,
00100000
01000000
00100000
00010000
00001000
00000000
00010000
00000000
,
00001000
00000010
00000001
00000010
00001000
00010000
00001000
00100000
,
00010000
01000000
10000000
01000000
00001000
00100000
02000000
00000000
,
00000000
00000000
00000000
00000000
,
00000000
00000000
00000000
00000000
,
00000000
00000000
00000000
00000000
,
00200000
00000000
00000000
03300000
,
00100000
00010000
00100000
00000000
01000000
00000000
00100000
00010000
00100000
00000000
00001000
00000000
00010000
00000000
00000100
00000000
,
00000010
00000001
00000010
00000000
00000100
00000000
00000010
00000001
00000010
00000000
00000100
00000000
00010000
00000000
00001000
00000000
,
00100000
00010000
00100000
00000000
01000000
00000000
00100000
00010000
00100000
00000000
00001000
00000000
00010000
00000000
00000010
00000000
,
00002000
00000000
00000000
00000000
00003100
00000000
00000010
00000001
00000020
00000000
00000000
00000000
00000130
00000000
00010000
00001000
,
00020000
00000000
00130000
01000000
00010000
00100000
01000000
10000000
,
00200000
00000000
00000000
00000000
01300000
00000000
00001000
00010000
00002000
00000000
00000000
00000000
00103000
00000000
00010000
10000000
,
00020000
00000000
01030000
00100000
10000000
01000000
00010000
00001000
,
00000010
00000000
00000100
00000010
00000001
00000000
00000100
00000010
00001000
00000000
00000100
00010000
00001000
00010000
00001000
00000000
,
01000000
00010000
01000000
00000000
00100000
00000000
01000000
00010000
01000000
00000000
00001000
00000000
00010000
00000000
00000010
00000000
,
00000100
00000001
00000100
00000000
00000010
00000000
00000100
00000001
00000100
00000000
00001000
00000000
00010000
00000000
00100000
00000000
,
01000000
00010000
01000000
00000000
00100000
00000000
01000000
00010000
01000000
00000000
00001000
00000000
00010000
00000000
00000010
00000000
,
00000200
00000000
00000000
00000000
00000301
00000000
00001000
00000010
00002000
00000000
00000000
00000000
00003100
00000000
00010000
00001000
,
00020000
00000000
00000000
00000000
00130000
00000000
10000000
00000000
01000000
00000000
00010000
00000000
00001000
00000000
00100000
00010000
,
00200000
00000000
00000000
00000000
01300000
00000000
10000000
01000000
20000000
00000000
00000000
00000000
30010000
00000000
01000000
00010000
,
01000000
00000000
00100000
00000000
00010000
00000000
00001000
00010000
00000000
00010000
00000000
00001000
00000010
00000000
00000001
00000000
,
00000100
00000010
00001000
00000010
00000100
00000010
00001000
00000010
00020000
00000000
00000000
00000000
00031000
01000000
00010000
01000000
,
00100000
00000000
10000000
00000000
01000000
00000000
00010000
00001000
00010000
00000000
00001000
00000000
00000010
00000000
00000001
00000000
,
00000100
00000000
00001000
00010000
00001000
00000000
00010000
00000000
00010010
00000000
00000000
00000000
00101000
00000000
00000000
00000000
,
00001000
00000000
00000010
00000000
00000001
00000000
00000100
00000001
00000100
00000000
00001000
00000000
00010000
00000000
00100000
00000000
,
10000000
00000000
01000000
10000000
01000000
00000000
00010000
00000000
00001000
00000000
00100000
00010000
10000000
00010000
00100000
00010000
,
00000000
00000000
01000000
00100000
10000000
00000000
01000000
00000000
00010000
00000000
00001000
00010000
00001000
00000000
00000010
00000000
,
00000001
00000000
00000100
00000000
00001000
00000000
00010000
00001000
00010000
00000000
00000000
00000000
01001000
00000000
00000000
00000000
,
00001000
00000000
00010000
00000000
00100000
00000000
10000000
00010000
10000000
00000000
01000000
00000000
00010000
00000000
00001000
00000000
,
00000010
00000000
00000001
00001000
00000001
00000000
00000100
00000000
00001000
00000000
00010000
00001000
00100000
00000000
00001000
00010000
,
00000010
00000000
00001000
00000100
00000010
00000000
00000001
00000000
00000010
00000100
00001000
00000000
00000010
00000000
00010000
00001000
,
00100000
00000000
00010000
00000000
01000000
00100000
10000000
00000000
01000000
00000000
00010000
00000000
01000000
00000000
10000000
00000000
,
00010000
00000000
00100000
00001000
00010000
00000000
00000100
00000000
00001000
00000010
00010000
00000000
00001000
00000000
00000010
00000100
,
00001000
00000000
00000001
00000000
00000100
00000001
00000010
00000000
00000100
00000000
00001000
00000100
00010000
00000100
00001000
00000100
,
00000020
00000000
00000000
00000000
00000031
00000000
00000100
00000000
00000100
00000000
00001000
00000000
00010000
00000000
01000000
10000000
,
00200000
00000000
00000000
00000000
10300000
00000000
01000000
00000000
01000000
00000000
00010000
00000000
00001000
00000000
00000100
00000001
,
00000020
00000000
00000100
00000000
00000130
00000000
00000010
00000001
00002000
00000000
00000001
00000000
00003001
00000000
00001000
00000010
,
00010000
00001000
00010000
00001000
00100000
00001000
00010000
00001000
00200000
00000000
01300000
00000000
20000000
00000000
31000000
00000000
,
00010000
00000000
00001000
00000000
00011000
00000000
00000000
00010000
00001000
00000000
00000010
00000000
00000110
00000000
00000000
00000100
,
00000010
00000000
00000001
00000000
00001001
00000000
00000000
00001000
00000010
00000000
00010000
00001000
00010000
00000000
00001000
00010000
,
00100000
00000000
01000000
00000000
01100000
00000000
00000000
00100000
10000000
00000000
01000000
00000000
11000000
00000000
00000000
10000000
,
00010000
00000000
00100000
00000000
00101000
00000000
00000000
00001000
00010000
00000000
00001000
00000010
00000001
00000000
00000010
00000100
,
00001000
00000000
00001000
00000001
00000100
00000000
00000100
00001000
00010000
00000000
00010000
00100000
20000000
00000000
30100000
01000000
,
00010000
00000000
00010000
10000000
01000000
00000000
01000000
00010000
00001000
00000000
00001000
00000010
00000002
00000000
00000103
00000010
,
00001000
00000100
00001000
00000100
00010000
00001000
00100000
00000000
00010000
01000000
00010000
01000000
00001000
00010000
00000010
00000000
,
00001000
00000100
00000010
00000001
00001000
00000010
00001000
00000000
00000100
00010000
00001000
00100000
00010000
10000000
00010000
10000000
,
00200000
01000000
01000000
20300000
,
30020000
00000000
00000000
00130000
01000000
10000000
00100000
00010000
,
00002000
00000000
00000000
00000000
00003100
00000000
00000010
00000000
00000200
00000000
00000000
00000000
00000301
00000000
00001000
00000010
,
00001000
00000000
00000001
00000010
00000001
00000000
00000010
00000100
00001000
00000000
00000010
00010000
00001000
00000000
00100000
00000000
,
10020000
00000000
00000000
00000000
10030000
01000000
10000000
01000000
00100000
00010000
00100000
00010000
01000000
00001000
00100000
00001000
,
00020000
00000000
00000000
00000000
00030010
00001000
00000010
00001000
00000001
00000010
00000001
00000010
00000100
00010000
00000010
00010000
,
00002000
00100000
00103000
00001000
02000000
00010000
03010000
01000000
,
00100000
10000000
00100000
10000000
00100000
10000000
00100000
10000000
01000000
10000000
01000000
00100000
00010000
00100000
00001000
00010000
,
00001000
00000000
00000010
00000000
00000001
00000000
00000010
00000000
00001000
00000000
00000010
00000000
00000001
00000000
00000100
00001000
,
00010000
00000000
00100000
00000000
10000000
00000000
00100000
00000000
00010000
00000000
00100000
00000000
10000000
00000000
01000000
00010000
,
00001000
00000000
00000010
00000100
00000010
00000001
00000100
00000000
00000010
00000100
00000010
00001000
00000100
00000000
00000010
00000100
,
00010000
00000000
00001000
00010000
00001000
00000000
00100000
01000000
10000000
00000000
00100000
01000000
00010000
00000000
10000000
00000000
,
01000000
00010000
01000000
00010000
00001000
00010000
00001000
00010000
00001000
00000010
00000100
00000010
00000002
00000000
00000003
00000000
,
00000100
00001000
00000100
00001000
00010000
00001000
00010000
00001000
00010000
00100000
01000000
00100000
20000000
00000000
30000000
00000000
,
01000000
00100000
01000000
00010000
00001000
00000100
00000020
00000030
,
00000100
00000001
00000100
00000001
00001000
00000010
00000100
00001000
00020000
00000000
00000000
00000000
00031000
00010000
00001000
00010000
,
00100000
01000000
00100000
00000000
10000000
00000000
01000000
00100000
01000000
00000000
00010000
00000000
00011000
00000000
00001000
00000000
,
00000010
00000100
00000010
00000000
00000001
00000000
00000100
00000010
00000100
00000000
00001000
00000000
00011000
00000000
00010000
00000000
,
00100000
01000000
00100000
00000000
10000000
00000000
01000000
00100000
01000000
00000000
00010000
00000000
00011000
00000000
00001000
00010000
,
00000020
00000000
00000000
00000000
00001030
00000000
00000100
00000010
00000002
00000000
00000000
00000000
00000103
00000000
00000010
00010000
,
00002000
00000000
00000000
00000000
01003000
00000000
00010000
00000000
00100000
00000000
01000000
00000000
00010000
00000000
01000000
10000000
,
02000000
00000000
00000000
00000000
13000000
00000000
00100000
01000000
00020000
00000000
00000000
00000000
00130000
00000000
00001000
00010000
,
00002000
00000000
00000000
00000000
00003010
00000000
00000100
00000000
00010000
00000000
00000010
00000000
00001000
00000000
00000001
00000100
,
00000001
00000000
00000010
00000100
00001000
00000000
00000010
00000100
00000001
00000000
00000010
00000000
00001000
00010000
00001000
00010000
,
01000000
00000000
01000000
10000000
00100000
00000000
00100000
10000000
01000000
00000000
00010000
00000000
00011000
00000000
00010000
00001000
,
00000100
00000000
00000100
00000001
00000010
00000000
00000010
00000001
00000100
00000000
00001000
00000000
00011000
00000000
00010000
00100000
,
10000000
00000000
00100000
00000000
01000000
00010000
10000000
00010000
00100000
00000000
00001000
00000000
00011000
00000000
00010000
00000100
,
00001000
00000000
00000010
00000000
00000110
00000000
00000100
00000001
00001000
00000000
00000100
00000000
00000110
00000000
00000010
00000000
,
00000001
00000100
00000001
00000100
00000010
00001000
00000010
00001000
00010000
01000000
00100000
10000000
00020000
00000000
00030000
00000000
,
10000000
01000000
10000000
01000000
00100000
00010000
00100000
00010000
00001000
00000100
00000010
00000001
00002000
00000000
00003000
00000000
,
00000010
00000100
00000001
00000000
00000010
00000100
00001000
00000000
00000001
00000000
00000100
00001000
00010000
00000000
00100000
00000000
,
10000000
00010000
01000000
00010000
00100000
00001000
00010000
00001000
00200000
00000000
00000000
00000000
01300000
10000000
01000000
00010000
,
00002000
00000000
00000000
00000000
,
00000000
00000000
00000000
00003000
,
00000010
00000100
00000010
00000100
00001000
00000000
00000001
00000000
00000100
00000010
00000100
00000010
00001000
00000000
00000001
00000000
,
00000100
00001000
00010000
00000000
00001000
00010000
00100000
00000000
01000000
00100000
10000000
00010000
00100000
00000000
01000000
00000000
,
20020000
00000000
00000000
00000000
,
00000000
00000000
00000000
00000000
,
00000000
30030000
00000000
00000000
;
