#VERSION:0.83;
#TITLE:全力 SPECIAL VACATION!! ~限りある休日~;
#SUBTITLE:;
#ARTIST:DJ GW;
#TITLETRANSLIT:Zenryoku SPECIAL VACATION!! ~kagiri aru kyuujitsu~;
#SUBTITLETRANSLIT:;
#ARTISTTRANSLIT:;
#GENRE:HAPPY VACAY CORE;
#CREDIT:;
#MUSIC:Zenryoku SPECIAL VACATION!! ~kagiri aru kyuujitsu~.ogg;
#BANNER:Zenryoku SPECIAL VACATION!! ~kagiri aru kyuujitsu~.png;
#BACKGROUND:Zenryoku SPECIAL VACATION!! ~kagiri aru kyuujitsu~-bg.png;
#CDTITLE:./CDTitles/bm IIDX 22 PENDUAL.png;
#SAMPLESTART:2.437;
#SAMPLELENGTH:15.000;
#SELECTABLE:YES;
#OFFSET:0.380;
#BPMS:0.000=170.000
,244.000=85.000
,246.000=170.000
;
#STOPS:246.000=0.176
,246.500=0.177
,247.000=0.176
,247.500=0.177
;
#TIMESIGNATURES:0.000=4=4,
244.000=2=4,
248.000=4=4
;
#BGCHANGES:1.000=Zenryoku SPECIAL VACATION!! ~kagiri aru kyuujitsu~.mp4=1.000=0=0=0=StretchNoLoop====,
99999.000=-nosongbg-=1.000=0=0=0=StretchNoLoop====
;
#FGCHANGES:;

//--------------- dance-single - forcednature ----------------
#NOTEDATA:;
#STEPSTYPE:dance-single;
#DESCRIPTION:forcednature;
#DIFFICULTY:Beginner;
#METER:4;
#RADARVALUES:0,0,0,0,0;
#CREDIT:forcednature;
#NOTES:
0000
0000
0000
0000
,
0000
0000
0000
0000
,
1000
0000
0001
0000
,
0010
0000
0000
0000
,
0010
0000
0000
0000
,
0010
0000
0000
0000
,
0001
0000
1000
0000
,
0010
0000
0000
0000
,
0010
0000
0000
0000
,
0010
0000
0000
0000
,
1000
0000
0001
0000
,
0100
0000
0000
0000
,
0100
0000
0000
0000
,
0100
0000
0000
0000
,
0001
0000
1000
0000
,
0010
0000
0000
0000
,
0100
0000
0000
0000
,
0001
0000
0001
0000
,
0010
0000
0100
0000
,
1001
0000
0000
0000
,
1000
0000
0000
0000
,
0010
0000
0000
0000
,
0100
0000
0001
0000
,
0010
0000
0000
0000
,
0001
0000
0000
0000
,
1000
0000
0000
0000
,
0010
0000
0100
0000
,
1001
0000
0000
0000
,
1000
0000
0000
0000
,
0100
0000
0000
0000
,
1000
0000
0010
0000
,
1001
0000
0000
0000
,
0001
0000
0000
0000
,
0100
0000
0100
0000
,
0010
0000
0010
0000
,
1000
0000
0000
0000
,
1000
1000
0000
0000
,
0001
0000
0000
0000
,
0001
0001
0000
0000
,
0010
0000
0000
0000
,
0010
0000
0100
0000
,
0010
0000
0100
0000
,
0100
0000
0010
0000
,
0001
0000
0000
0000
,
0001
0000
0100
0000
,
0010
0000
0000
0000
,
1000
0000
0001
0000
,
0010
0000
0000
0000
,
0100
0000
1000
0000
,
1000
0000
1000
0000
,
0001
0000
0001
0000
,
0100
0000
0000
0000
,
1001
0000
0000
0000
,
0000
0001
0000
0001
,
0000
0001
0000
0001
,
0000
0001
0000
0001
,
0000
1000
0000
1000
,
0000
1000
0000
1000
,
0000
0000
0000
0000
,
0010
0000
0010
0000
,
0100
0000
0010
0000
,
1001
0000
0000
0000
,
1001
0000
0000
0000
,
0110
0000
0000
0000
,
1001
0000
0000
0000
,
0001
0000
0010
0000
,
1001
0000
0000
0000
,
0110
0000
0000
0000
,
1001
0000
0000
0000
,
1000
0000
0010
0000
,
1001
0000
0000
0000
,
0110
0000
0000
0000
,
1001
0000
0000
0000
,
0001
0000
0100
0000
,
1001
0000
0000
0000
,
0110
0000
0000
0000
,
1000
0000
1000
0000
,
0001
0000
0010
0000
,
1001
0000
0000
0000
;

//--------------- dance-single - forcednature ----------------
#NOTEDATA:;
#STEPSTYPE:dance-single;
#DESCRIPTION:forcednature;
#DIFFICULTY:Easy;
#METER:7;
#RADARVALUES:0,0,0,0,0;
#CREDIT:forcednature;
#NOTES:
0000
0000
0000
0000
,
0000
0000
0000
0000
,
0001
0001
1000
0001
,
0010
0000
0000
0000
,
0110
0000
0000
0000
,
0110
0000
0000
0000
,
1000
0001
0100
0010
,
0100
0000
0100
0001
,
0010
0000
0010
0001
,
1000
0000
1000
0010
,
0100
0100
0001
0010
,
1001
0000
0000
0000
,
0110
0000
0000
0000
,
1001
0000
0001
0000
,
0110
0000
1000
0010
,
1000
0000
1000
0100
,
1000
0000
0001
0000
,
0010
0010
0100
0010
,
0100
1000
0001
0000
,
1001
0000
1000
0000
,
0010
0100
0010
0000
,
0100
0001
0100
0000
,
0001
0001
0010
0001
,
1001
0000
1000
0000
,
0100
0100
1000
0000
,
0010
0010
0100
0000
,
0001
0010
0100
0010
,
1001
0000
1000
0000
,
0010
0010
0100
0000
,
0001
1000
0100
0000
,
1000
1000
0001
0000
,
0110
0000
0001
0000
,
0100
0000
0001
0000
,
1000
0010
1000
0010
,
1000
1000
0001
1000
,
0110
0000
0001
0000
,
0010
0010
0000
0000
,
0110
0000
1000
0000
,
0010
0010
0100
0000
,
0110
0000
0001
0000
,
0010
0010
0100
0000
,
0100
1000
0100
0000
,
1000
1000
0010
0000
,
0110
0000
0001
0100
,
0001
0001
0010
0000
,
0110
0000
0100
1000
,
0010
0010
1000
0000
,
1001
0000
0001
0010
,
0001
0001
1000
0100
,
1000
0100
1000
0010
,
0100
0100
0001
0100
,
0001
0002
0003
1000
,
1001
0001
0000
0001
,
0000
0020
0030
0020
,
0030
0200
0300
0200
,
1300
0001
1000
0001
,
0100
0001
0100
0001
,
1000
0020
0030
0020
,
0130
0100
0100
0100
,
0001
0001
0010
0001
,
0020
0030
0200
0300
,
2002
0000
3003
0000
,
1001
0000
0001
0100
,
1001
0000
1000
0010
,
1001
0000
0001
0100
,
0001
0010
0100
1000
,
1001
0000
1000
0010
,
1001
0000
0001
0100
,
1001
0000
1000
0100
,
1000
0010
0100
0001
,
0110
0000
0001
1000
,
0110
0000
1000
0001
,
0110
0000
0001
0100
,
1001
0000
0010
0100
,
0110
1000
0000
1000
,
0001
0010
0000
0010
,
0100
1000
0100
1000
,
0010
0100
0001
0010
,
2002
0000
0000
0000
,
3003
0000
0000
0000
;

//--------------- dance-single - forcednature ----------------
#NOTEDATA:;
#STEPSTYPE:dance-single;
#DESCRIPTION:forcednature;
#DIFFICULTY:Medium;
#METER:10;
#RADARVALUES:0,0,0,0,0;
#CREDIT:forcednature;
#NOTES:
0000
0000
0000
0000
,
0000
0000
0000
0000
,
0001
0010
0100
1000
,
2002
0000
3003
0000
,
2002
0000
3003
0000
,
2002
0000
3003
0000
,
1000
0010
0100
0001
,
1001
1000
0100
1000
,
1001
0001
0100
0001
,
1001
1000
0010
1000
,
0001
0010
0100
1000
,
0220
0330
0001
0100
,
2002
3003
1000
0010
,
1001
0100
1001
0010
,
0220
0330
0001
1000
,
1001
0001
0010
0100
,
1000
0010
1000
0001
,
0020
0100
0100
0130
,
0110
0011
1100
1001
,
1000
0000
0010
0000
0100
0010
0100
0000
,
0001
0000
1000
0000
0100
1000
0100
0000
,
0010
0000
0001
0000
1000
0001
1000
0000
,
0020
0230
0302
1003
,
1001
0000
0001
0000
0010
0001
0010
0000
,
0100
0000
1000
0000
0010
0100
0010
0000
,
1000
0000
0100
0000
1000
0001
1000
0000
,
0200
0320
0032
1003
,
1001
0000
0001
0000
0010
0001
0010
0000
,
0100
0000
1000
0000
0010
0100
0010
0000
,
0100
0000
0001
0000
1000
0010
1000
0000
,
0001
0000
0010
0000
0100
0010
0100
0000
,
0210
2300
0010
0010
,
0001
0001
3100
0110
,
0001
1000
0001
0000
0100
0000
0001
0000
,
0010
0010
0010
0000
0001
1000
0100
0000
,
1001
0000
1000
0010
,
0110
0110
0001
1000
,
1001
0000
0001
0010
,
0100
0100
0100
0000
1000
0000
0001
0000
,
1001
0000
1000
0010
,
0100
0100
0001
0000
0010
0000
0001
0000
,
0100
0000
0001
0000
0010
0010
0001
0000
,
0110
0000
0110
0000
1000
0001
1000
0000
,
0010
0000
0100
0010
0100
0000
0001
0000
,
0010
0001
0010
0000
0100
0000
1000
0000
,
0010
0000
1000
0001
1000
0000
0100
0000
,
0010
0001
0010
0000
0001
0000
0100
0000
,
0110
0001
1000
0010
,
1000
0001
1000
0000
0100
0000
0001
0000
,
0100
0000
1000
0000
0100
0010
0100
0000
,
0010
0010
0001
0000
0100
0100
0001
0000
,
1000
0000
1000
0000
0010
0100
0001
0000
,
1001
1000
0010
0100
,
0000
0002
0023
0230
,
0300
2000
0000
3200
0000
0320
0000
0030
,
0001
0000
1000
0000
0010
1000
0010
0000
,
0100
0000
0001
0000
1000
0001
1000
0000
,
0200
0320
0032
0003
,
0100
0010
0100
0000
0010
0000
1000
0000
,
0100
1000
0100
0000
1000
0000
0001
0000
,
0010
0011
0001
0100
,
1001
0000
0000
0000
0000
0000
0000
0000
2000
3000
0020
0030
0200
0300
0002
0003
,
1000
0000
0100
0000
0010
0100
0010
0000
,
0001
0000
0100
0000
0010
0100
0010
0000
,
1000
0000
0001
0000
0010
0001
0010
0000
,
0100
1100
0010
1001
,
1000
0000
0010
0000
0100
0001
0100
0000
,
0010
0000
1000
0000
0001
1000
0001
0000
,
0010
0000
0100
0000
1000
0100
1000
0000
,
0010
0110
1000
1001
,
0001
0000
0010
0000
0001
0100
0001
0000
,
1000
0000
0010
0000
1000
0100
1000
0000
,
0010
0000
0100
0000
0001
1000
0001
0000
,
0010
0000
0100
0000
1000
0010
1000
0000
,
0110
0000
0001
0000
0100
0010
0100
0000
,
0001
0000
1000
0000
0100
0010
0100
0000
,
1000
0000
0010
0000
0100
0010
0100
0000
,
0001
0000
1000
0000
0001
0010
0001
0000
,
0220
0000
0000
0000
,
0330
0000
0000
0000
;

//--------------- dance-single - forcednature assist by extraordiberry ----------------
#NOTEDATA:;
#STEPSTYPE:dance-single;
#DESCRIPTION:forcednature assist by extraordiberry;
#DIFFICULTY:Hard;
#METER:13;
#RADARVALUES:0,0,0,0,0;
#CREDIT:forcednature assist by extraordiberry;
#NOTES:
0000
0000
0000
0000
,
0000
0000
0000
0000
,
0101
0011
1100
1010
,
2002
0000
3003
0000
,
2002
0000
3003
0000
,
2002
0000
3003
0000
,
1010
1100
0011
0101
,
2001
0100
0001
3010
,
1002
0100
1000
0013
,
0001
0100
0010
0000
0010
1000
0001
0000
,
0011
1100
1010
0101
,
1001
0000
1000
0100
1000
0000
0010
0010
,
0100
0000
0001
0010
0001
0000
0100
0100
,
0010
0000
1000
0100
0010
0000
0001
0100
,
0010
0000
1000
0001
0010
0000
0110
0000
,
1100
0000
0001
0010
0100
0010
0001
0000
,
1000
0010
0100
0010
1000
0001
0100
0000
,
1000
0100
0001
0100
0001
1000
0010
0000
,
0101
0011
1100
1010
,
0001
0010
0100
1000
0010
0100
0001
0000
,
1000
0100
1000
0010
0100
0001
0010
0000
,
0100
1000
0010
0100
0001
0010
0001
0000
,
0101
1010
1100
0011
,
1000
0010
1000
0001
0010
0100
0001
0000
,
0100
1000
0001
0010
0001
1000
0010
0000
,
0100
0001
0100
1000
0100
0001
1000
0000
,
1010
0101
0011
1100
,
0001
0010
0001
0100
1000
0100
0001
0000
,
1000
0010
1000
0001
0010
0100
0001
0000
,
0100
1000
0001
0010
0001
1000
0010
0000
,
0100
0001
0010
0001
1000
0010
1000
0000
,
1100
0000
0100
0010
0001
0000
0001
0100
,
0010
0000
0010
1000
0001
0000
0010
0000
,
0100
1000
0100
1000
0010
0100
0001
0000
,
0010
0010
0010
0001
0100
0000
0110
0000
,
1001
0000
0000
1000
0100
1000
0010
0000
,
0100
0100
0001
0000
0010
0100
0010
0000
,
1001
0000
0000
0001
0100
0010
1000
0000
,
0001
0001
0010
0000
0100
1000
0001
0000
,
0101
0000
1000
0010
1000
0001
0010
0000
,
0100
0000
0100
0000
1000
0000
0000
0000
0010
0100
0000
0000
0100
0010
0000
0000
,
0010
0100
0000
0000
0100
0010
0000
0000
1000
0000
1000
0000
0001
0000
0000
0010
,
0001
0000
0000
0100
0001
0000
0000
0010
0001
0000
0000
0100
0001
0000
0000
1000
,
0100
0000
1000
0010
0100
0001
0010
0000
,
0100
0100
1000
0100
1000
0010
0100
0001
,
0010
0000
0001
1000
0010
0100
0001
0010
,
0100
0010
0001
0100
0010
1000
0001
0100
,
0010
0000
1000
0100
1000
0001
0010
1000
,
0010
0010
0001
0000
1000
0010
0100
0001
,
1000
0010
0100
0001
0010
0100
0001
0000
,
0100
1000
0000
0000
0010
0100
0000
0000
0001
0010
0000
0000
0001
0000
1000
0000
,
0010
0100
0000
0000
0010
0100
0000
0000
0001
1000
0000
0001
0010
0000
0000
0000
,
1001
0000
1100
0000
0001
0010
0100
0010
,
0000
0000
0002
0203
0302
0000
2003
3020
,
0000
0032
0000
0023
0000
2030
0000
3002
,
0103
0010
1000
0010
0100
0001
0100
1000
,
0100
0001
1000
0010
1000
0001
0010
0001
,
2000
0000
0000
3200
0000
0000
0320
0000
0000
0000
0000
0000
0032
0000
0000
0000
,
0103
0010
1000
0001
0010
0100
1000
0001
,
0100
0000
0000
0010
1000
0000
0000
0100
1000
0000
0000
0001
1000
0000
0000
0010
,
0100
0001
0001
0010
0100
1000
1000
0010
,
1001
0000
0000
0000
0000
0000
0000
0000
2020
3030
0220
0330
0202
0303
0022
0033
,
0001
1000
0100
0010
1000
0010
0100
1000
,
0001
0100
0010
0001
0010
0100
0001
1000
,
0010
0100
1000
0100
0001
1000
0001
0010
,
0100
1000
0000
0000
1000
0010
0000
0000
0010
0100
0000
0000
0100
0001
0000
0000
,
0010
0001
1000
0010
0100
1000
0100
0010
,
1000
0001
0010
0100
0001
0100
0010
0001
,
1000
0010
0100
0001
0010
1000
0010
0001
,
0100
0010
0000
0000
0010
1000
0000
0000
1000
0100
0000
0000
0100
0010
0000
0000
,
0001
1000
0100
0001
0100
1000
0001
0010
,
0001
0100
1000
0100
0001
1000
0010
0100
,
0001
0010
1000
0010
0001
1000
0100
1000
,
0010
0001
0010
1000
0001
0100
0001
0010
,
0110
0000
0000
0100
1000
0000
0000
1000
0010
0000
0000
0010
0100
0000
0000
0100
,
0001
0000
0000
0001
0010
0000
0000
0010
0001
0000
0000
0001
1000
0000
0000
0000
,
0010
0010
0100
0001
0100
0100
0010
1000
,
0001
0010
0000
0000
0100
0010
0000
0000
0100
1000
0000
0000
0010
0000
0100
0000
,
2002
0000
0000
0000
,
3003
0000
0000
0000
;

//--------------- dance-single - forcednature assist by extraordiberry ----------------
#NOTEDATA:;
#STEPSTYPE:dance-single;
#DESCRIPTION:forcednature assist by extraordiberry;
#DIFFICULTY:Challenge;
#METER:15;
#RADARVALUES:0,0,0,0,0;
#CREDIT:forcednature assist by extraordiberry;
#NOTES:
0000
0000
0000
0000
,
0000
0000
0000
0000
,
0101
1010
1100
0011
,
2002
0000
3003
0000
,
2002
0000
3003
0000
,
2002
0000
3003
0000
,
1100
1010
0101
0011
,
1001
0000
0001
0010
0001
1000
0100
0000
,
1001
0000
1000
0010
1000
0001
0100
0000
,
0001
0010
0100
0000
1000
0010
0100
0000
,
0101
0011
1010
1100
,
2001
0000
0000
0000
0100
0000
0100
0000
3100
0000
1000
0000
0010
1000
0010
1000
,
0002
0000
0000
0000
0100
0000
0100
0000
0103
0000
0001
0000
1000
0000
0010
1000
,
0020
0000
0000
0000
0100
0000
0100
0000
0230
0000
0000
0000
0301
0000
0100
0001
,
0100
0000
0010
0000
1000
0000
0010
0000
1000
0100
1000
0000
0100
0010
0100
0010
,
0001
0010
0001
0100
0010
1000
0100
1000
,
0001
0010
0100
1000
0010
0100
0001
0000
,
1000
0100
0001
0100
1000
0100
0001
0100
,
1000
0100
0000
0000
1000
0010
0000
0000
0001
0010
0000
0000
0001
0100
0000
0000
,
0110
0000
1000
0000
0010
0000
0100
0000
0001
0000
0010
0000
0100
0000
0010
0001
,
1000
0000
0010
0000
0100
0000
0010
0000
1000
0000
0001
0000
0010
0000
0100
0010
,
0001
1000
0010
1000
0001
0100
0010
0100
,
0001
0010
0000
0000
0001
0100
0000
0000
1000
0100
0000
0000
1000
0010
0000
0000
,
0101
0000
1000
0000
0010
0000
1000
0000
0001
0000
0010
0000
0100
0000
0010
0001
,
1000
0000
0010
0000
0100
0000
0010
0000
1000
0000
0001
0000
0100
0000
0001
1000
,
0010
0010
1000
0010
1000
1000
0100
1000
,
0001
0010
0001
0000
0010
0100
0010
0000
0100
1000
0100
0000
0010
0100
0010
0000
,
0001
0000
0100
0000
0010
0000
0100
0000
0001
0000
1000
0000
0010
0000
1000
0001
,
0010
0000
0100
0000
0010
0000
0001
0000
1000
0000
0010
0000
0100
0000
0010
1000
,
0001
0010
0001
0100
0010
0100
0010
1000
,
1000
0100
0000
0000
1000
0000
0010
0000
0110
0000
0000
0000
0001
0100
0000
0000
,
0001
0000
0010
0000
1000
0000
0010
0000
0001
0000
1000
0000
0100
0000
1000
0001
,
0010
0000
0100
0000
0010
0000
0001
0000
0000
0000
1000
0100
1000
0000
0010
0000
,
0200
0001
0300
0001
0100
0010
0000
0010
,
1000
0001
1000
0001
1000
0001
1000
0001
0020
0000
0000
0000
0130
0000
0000
0000
,
1001
0000
1000
0100
0100
1000
0010
0100
,
0001
0000
0001
0000
0001
0000
0000
0000
0001
1000
0001
0000
1000
0001
1000
0000
,
0010
0000
0100
0001
0001
0010
0100
0000
,
1100
0000
1100
0000
1100
0000
0000
0000
0001
0010
0001
0000
0010
0001
0010
0000
,
0100
0000
1000
0010
0010
0100
0001
0000
,
0011
0000
0011
0000
0000
0000
0001
0000
0100
0010
0100
0000
0010
1000
0010
0000
,
0100
0010
0100
0000
0010
1000
0010
0000
0100
0000
0100
0000
0001
0000
0010
0000
,
0001
0100
0000
0000
1000
0100
0000
0000
0001
0000
1000
0001
1000
0000
0001
0000
,
0010
0000
0100
1000
1000
0010
0100
0001
,
0010
0000
0010
0000
0010
0000
0001
0000
0100
0001
0100
0000
0010
0100
0010
0000
,
1000
0000
0001
0010
0010
1000
0010
0001
,
1000
0000
0100
0010
0100
0000
1000
0000
0001
0000
0100
0010
0100
0000
0001
0000
,
0010
0000
0010
0001
0001
0100
1000
0100
,
0001
0000
0001
0000
1000
0000
0010
0000
1000
0100
1000
0000
0100
0010
0100
0000
,
1000
0100
1000
0000
0100
0010
0100
0000
1000
0000
0001
0000
0001
0000
1000
0000
,
0010
0100
0010
0100
0010
0100
0010
0000
1000
0001
1000
0001
1000
0001
1000
0000
,
0100
0000
0100
0000
0100
0000
0100
0000
0010
0001
0010
0001
2000
0000
0000
0000
,
3010
0100
0001
0100
1000
0100
0001
1000
,
0000
0010
0200
0302
0023
0000
0032
0203
,
0000
2300
0000
3002
0000
0023
0000
2030
,
3100
0000
1000
0000
0010
0000
0100
0000
0001
0010
0001
0000
0010
0000
0100
0010
,
0100
1000
0010
0001
0010
1000
0100
0001
,
0200
0000
0000
2300
0000
0000
3020
0000
0000
0000
0130
0000
0100
0000
0001
0100
,
0002
0010
2003
0010
3002
0010
2003
0010
,
3001
0000
0000
0100
1000
0000
0000
0100
0001
0000
0000
0100
1000
0000
0000
0100
,
0002
0000
0023
0000
0230
0000
2300
0000
3200
0000
0320
0000
0031
1000
0001
1000
,
0010
0000
0000
0000
0000
0000
0000
0000
2200
3300
0022
0033
0202
0303
2020
3030
,
1000
0000
0100
0010
0100
0000
0010
0001
0010
0000
0100
0000
1000
0000
0001
0000
,
0100
0000
0010
0100
0010
0000
1000
0010
1000
0000
0001
0000
0010
0000
1000
0000
,
0010
0000
0001
0010
0001
0000
0100
0001
0100
0000
0010
0000
1000
0000
0100
0000
,
0010
0001
0000
0000
0001
0100
0000
0000
0010
1000
0000
0000
1000
0100
0000
0000
,
0010
0000
0001
0010
0001
0000
0100
0001
0100
0000
0010
0000
0001
0000
0010
0000
,
1000
0000
0100
1000
0100
0000
1000
0010
1000
0000
0001
0000
0010
0000
1000
0000
,
0010
0000
0001
0010
0001
0000
0100
0001
0100
0000
0010
0000
1000
0000
0100
0000
,
1000
0010
0000
0000
0001
0010
0000
0000
1000
0100
0000
0000
0001
0100
0000
0000
,
1000
0000
0010
0100
0010
0000
0100
0001
1000
0000
0100
0000
0001
0000
0100
0000
,
1000
0000
0001
0010
0001
0000
0010
0100
1000
0000
0010
0000
0100
0000
0001
0000
,
0010
0000
0001
0100
0001
0000
0100
0010
1000
0000
0001
0000
0010
0000
0100
0000
,
0010
0000
0001
1000
0001
0000
0100
0010
1000
0000
0100
0000
1000
0000
0010
0000
,
0100
0010
0100
0010
0100
0000
0001
0000
0010
0000
0100
0010
0001
0000
1000
0000
,
0010
0100
0010
0100
0010
0000
1000
0000
0001
0000
0010
0100
1000
0000
0001
0000
,
0100
0000
0001
0100
0001
0000
0100
0010
0100
0000
0010
1000
0010
0000
0100
0000
,
0001
0010
0001
0010
0001
0000
0100
0000
0010
0000
1000
0100
1000
0000
0100
1000
,
0020
0000
0000
0000
,
0030
0000
0000
0000
;

//--------------- dance-double - forcednature ----------------
#NOTEDATA:;
#STEPSTYPE:dance-double;
#DESCRIPTION:forcednature;
#DIFFICULTY:Easy;
#METER:8;
#RADARVALUES:0,0,0,0,0;
#CREDIT:forcednature;
#NOTES:
00000000
00000000
00000000
00000000
,
00000000
00000000
00000000
00000000
,
00010000
00010000
00001000
00100000
,
00010000
00000000
00000000
00000000
,
10010000
00000000
00000000
00000000
,
10010000
00000000
00000000
00000000
,
10000000
01000000
00100000
00010000
,
01000000
00000000
01000000
00001000
,
00010000
00000000
00010000
00000100
,
00001000
00000010
00001000
00000010
,
00000100
00000001
00000010
00000100
,
00001001
00000000
00001000
00000100
,
00010000
00000000
00010000
00001000
,
00100000
00000000
00100000
00010000
,
01000000
00100000
10000000
00100000
,
01000000
00010000
00000000
00010000
,
00100000
00001000
00000000
00001000
,
00010000
00000010
00001000
00000010
,
00000100
00000001
00000010
00000001
,
00001001
00000000
00001000
00000100
,
00010000
00001000
00100000
00010000
,
00100000
00000000
01000000
10000000
,
00010000
01000000
00001000
00010000
,
00011000
00000000
00000010
00001000
,
00000001
00000100
00000001
00001000
,
00000010
00000000
00010000
00001000
,
00100000
00010000
01000000
00100000
,
10010000
00000000
00010000
00100000
,
00001000
00010000
00000100
00001000
,
00000001
00000000
00000100
00000001
,
00001000
00000010
00010000
00001000
,
00100000
00010000
00000000
00010000
,
01000000
00100000
00000000
00100000
,
10000000
01000000
00100000
00001000
,
00010000
00000100
00000010
00000001
,
00001001
00000000
00001000
00000010
,
00010000
00010000
00001000
00100000
,
00010000
00000000
01000000
00001000
,
00010000
00010000
00000010
00001000
,
00000001
00000000
00000010
00000100
,
00010000
00010000
00001000
00100000
,
00001000
00010000
00001000
00001000
,
01000000
00010000
10000000
00100000
,
10010000
00000000
10000000
01000000
,
00100000
00010000
00100000
00001000
,
00010000
00000000
00000100
00001000
,
00000010
00000100
00000001
00000010
,
00000001
00000000
00001000
00000010
,
00010000
00001000
01000000
00010000
,
00100000
01000000
00100000
00010000
,
01000000
01000000
00001000
00001000
,
00010000
00010000
00000100
00001000
,
00000000
00000001
00000010
00000001
,
00000000
00000200
00000000
00000320
,
00000000
00002030
00000000
00003100
,
00010000
00010000
00001000
00100000
,
00010000
00010000
01000000
00100000
,
20000000
32000000
03200000
00300000
,
00010000
01000000
00001000
00010000
,
00000010
00001000
00000001
00000100
,
00000020
00002030
00003200
00020300
,
00032000
00000000
00003000
00000000
,
01000000
00010000
00100000
00001000
,
00010000
00001000
01000000
00010000
,
10000000
00100000
10000000
00010000
,
00100000
00100000
00001000
00010000
,
00000100
00001000
00000010
00001000
,
00000001
00000010
00000001
00000100
,
00000010
00001000
00000100
00010000
,
00001000
00001000
00100000
00010000
,
01000000
00100000
10000000
00100000
,
01000000
00010000
00100000
00010000
,
00100000
00001000
00010000
00000010
,
00001000
00000100
00000010
00000010
,
00000001
00001000
00000000
00001000
,
00000100
00001000
00000000
00001000
,
00000010
00010000
00001000
01000000
,
00001000
00010000
00000100
00010000
,
00022000
00000000
00000000
00000000
,
00033000
00000000
00000000
00000000
;

//--------------- dance-double - forcednature ----------------
#NOTEDATA:;
#STEPSTYPE:dance-double;
#DESCRIPTION:forcednature;
#DIFFICULTY:Medium;
#METER:10;
#RADARVALUES:0,0,0,0,0;
#CREDIT:forcednature;
#NOTES:
00000000
00000000
00000000
00000000
,
00000000
00000000
00000000
00000000
,
00001000
00010000
00100000
10000000
,
20020000
00000000
30030000
00000000
,
20020000
00000000
30030000
00000000
,
20020000
00000000
30030000
00000000
,
10000000
01000000
00010000
00001000
,
00022000
00033000
00000100
00001000
,
00002020
00003030
00000001
00000100
,
00000010
00000010
00001000
00000010
,
00010000
00001000
00100000
00010000
,
20020000
30030000
10000000
01000000
,
02200000
03300000
00100000
00001000
,
00022000
00033000
00020200
00030300
,
00002200
00003300
00000001
00000010
,
00001001
00001000
00000010
00001000
,
00000100
00010000
00001000
00100000
,
00001000
00001000
00010000
00001000
,
00100000
01000000
10000000
00100000
,
10010000
00010000
01000000
00001000
,
00010000
00000010
00001000
00000010
,
00010000
00001000
00000010
00000001
,
00000100
00001000
00010000
00100000
,
01100000
00010000
10000000
00100000
,
10000000
01000000
00010000
00001000
,
00100000
00010000
00100000
00001000
,
00010000
00000100
00001000
00000010
,
00001001
00000000
00000001
00000000
00000100
00000000
00000010
00000100
,
00000010
00000000
00001000
00000000
00000100
00000000
00010000
00001000
,
00010000
00000000
00001000
00000000
00100000
00000000
00010000
00100000
,
00010000
10000000
00100000
01000000
,
10010000
00010000
00100000
00001000
,
00010000
00000010
00001000
00000001
,
00000100
00000001
00000100
00000000
00000010
00000000
00001000
00000000
,
00000100
00001000
00000100
00000000
00010000
00000000
00001000
00000000
,
00011000
00000000
00100000
00010000
,
01000000
00010000
01000000
00000000
00100000
00000000
10000000
00000000
,
01000000
00000000
00100000
00001000
,
00010000
00010000
00010000
00000000
00000100
00000000
00001000
00000000
,
00001001
00000000
00000001
00000010
,
00000100
00000100
00010000
00000000
00002000
00000000
00103000
00000000
,
00002000
00000000
01003000
00000000
00001000
00010000
00001000
00000000
,
00010000
00100000
10000000
01000000
,
01100000
00100000
00001000
00010000
,
00000100
00001000
00000100
00000000
00000010
00000000
00000001
00000000
,
00000101
00001000
00000010
00010000
,
00001000
00010000
00000000
00000000
00100000
00000000
00010000
00000000
,
00110000
10000000
00100000
10000000
,
01000000
10000000
01000000
00000000
00010000
00000000
00001000
00000000
,
00001000
00010000
00001000
00000010
,
00000001
00000010
00000001
00000000
00000100
00000001
00000100
00000000
,
00001000
00000000
00001000
00000000
00010000
00100000
10000000
00000000
,
10010000
00000000
00010000
00000000
00100000
00000000
01000000
10000000
,
00000000
00000000
01000000
00100000
01000000
00000000
00100000
00000000
,
00001000
00000000
00010000
00001000
00010000
00000000
00000100
00000000
,
00001000
00000000
00000010
00000000
00000100
00000010
00000100
00000000
,
00000001
00000000
00000010
00000000
00000100
00000010
00000100
00000000
,
00020000
00032000
00203000
00000000
,
00310000
01000000
00100000
01000000
,
00010000
10000000
00010000
00000000
10000000
01000000
10000000
00000000
,
00100000
00010000
00001000
00000010
,
00001001
00000000
00000000
00000000
00000000
00000000
00000000
00000000
00000002
00000003
00000200
00000300
00000020
00000030
00002000
00003000
,
00000100
00000000
00010000
00000000
00001000
00010000
00001000
00000000
,
00100000
00000000
00010000
00000000
00100000
01000000
00100000
00000000
,
01000000
00000000
10000000
00000000
00010000
01000000
00010000
00000000
,
00200000
00302000
00023000
00030020
,
00001030
00000000
00000100
00000000
00000010
00000100
00000010
00000000
,
00000001
00000000
00000100
00000000
00000010
00001000
00000010
00000000
,
00010000
00000000
00001000
00000000
00100000
00010000
00100000
00000000
,
02000000
23000000
30200000
02300000
,
03010000
00000000
00100000
00000000
00001000
00010000
00001000
00000000
,
00010000
00000000
00000010
00000000
00001000
00000010
00001000
00000000
,
00000001
00000000
00000100
00000000
00000001
00000010
00000001
00000000
,
00001000
00000000
00000100
00000000
00010000
00001000
00010000
00000000
,
00011000
00000000
00100000
00000000
00010000
01000000
00010000
00000000
,
10000000
00100000
10000000
00000000
00010000
01000000
00010000
00000000
,
00100000
00000000
00001000
00000000
00010000
00001000
00010000
00000000
,
00000100
00001000
00000100
00000000
00000010
00000001
00000010
00000000
,
00002002
00000000
00000000
00000000
,
00003003
00000000
00000000
00000000
;

//--------------- dance-double - forcednature assist by extraordiberry ----------------
#NOTEDATA:;
#STEPSTYPE:dance-double;
#DESCRIPTION:forcednature assist by extraordiberry;
#DIFFICULTY:Hard;
#METER:13;
#RADARVALUES:0,0,0,0,0;
#CREDIT:forcednature assist by extraordiberry;
#NOTES:
00000000
00000000
00000000
00000000
,
00000000
00000000
00000000
00000000
,
00011000
00010010
00001010
00001100
,
00000220
00000000
00000330
00000000
,
00000220
00000000
00000330
00000000
,
00000220
00000000
00000330
00000000
,
00010100
00011000
00101000
00110000
,
01010000
00000000
01000000
00100000
01000000
00000000
01000000
00100000
,
10000000
00000000
10000000
01000000
10000000
00000000
10000000
01000000
,
00010000
00000000
00010000
00001000
00010000
00000000
00010000
00000100
,
00001000
00001100
00001010
00000110
,
00000102
00000000
00000000
00000000
00000010
00000010
00000013
00000000
,
00002001
00000000
00000100
00000100
00003100
00000000
00010000
00001000
,
00200000
00000000
00310000
01000000
00002000
00000000
00103000
00010000
,
20000000
00000000
30100000
01000000
00010000
00000000
00110000
00000000
,
00101000
00000000
00001000
00010000
00000010
00010000
00001000
00000000
,
00000010
00000100
00001000
00000000
00000010
00000100
00000001
00000001
,
00000010
00000100
00000000
00000100
00010000
00001000
00000000
00001000
,
00100000
00110000
01010000
01100000
,
10010000
00000000
10000000
01000000
00010000
00000000
00001000
00100000
,
00010000
00000000
00100000
00001000
00010000
00000100
00010000
00000010
,
00001000
00000000
00000001
00000010
00001000
00000000
00000010
00000001
,
00000100
00000110
00010010
00011000
,
00101000
00000000
00100000
00010000
01000000
00000000
00100000
10000000
,
01000000
00000000
00100000
00001000
00010000
00000010
00001000
00000100
,
00001000
00000000
00000001
00000100
00001000
00000000
00010000
00000010
,
00001000
00001100
00010100
00011000
,
01001000
00000000
01000000
00010000
00100000
00000000
01000000
10000000
,
00010000
00000000
00100000
01000000
00010000
00001000
00010000
00000100
,
00001000
00000000
00000010
00000100
00001000
00000000
00000100
00000001
,
00001000
00000000
00000010
00010000
00001000
00000000
00011000
00000000
,
00101000
00000000
00100000
00010000
01000000
00010000
00100000
00000000
,
01000000
10000000
00100000
00000000
01000000
00010000
00100000
00000000
,
01000000
10000000
01000000
10000000
01000000
00010000
01000000
00000000
,
00010000
00001000
00010000
00001000
00000010
00000100
00000010
00000000
,
00001001
00000000
00000000
00000001
00000100
00000000
00001000
00000000
,
00010000
00010000
00010000
00000000
00100000
10000000
00010000
00000000
,
10010000
00000000
00000000
10000000
01000000
00010000
00001000
00000000
,
00010000
00010000
00010000
00000000
00001000
00000010
00000001
00000000
,
00001001
00000000
00000000
00000001
00000100
00001000
00010000
00000000
,
00001000
00000000
00001000
00000000
00100000
00000000
00000000
00000000
00010000
00000000
00000000
01000000
00001000
00000000
00000000
00000000
,
00010000
00000000
00000000
00000100
00001000
00000000
00000000
00000000
00000010
00000000
00000010
00000000
00000100
00000000
00000010
00000000
,
00001000
00000001
00000010
00000001
00001000
00000001
00000010
00000000
,
00000110
00000000
00000100
00010000
00001000
00100000
00010000
00000000
,
01000000
01000000
00010000
00000000
10000000
00100000
00010000
00100000
,
10000000
00000000
00010000
01000000
00001000
00010000
00000010
00000000
,
00001000
00000100
00010000
00000010
00001000
00000100
00010000
00000000
,
00011000
00000000
00001000
00100000
00010000
01000000
00001000
00000000
,
00010000
00100000
00010000
00000000
00100000
10000000
00010000
01000000
,
00001000
00010000
00000010
00001000
00000001
00000100
00000001
00000000
,
00000010
00000100
00000000
00000000
00000100
00010000
00000000
00000000
00010000
00001000
00000000
00000000
00001000
00100000
00000000
00000000
,
00010000
00000000
00010000
00000000
00010000
00000000
00000000
00000000
01000000
00000000
00000000
00100000
10000000
00000000
00000000
00000000
,
11000000
00000000
00010000
00100000
00001000
00010000
00000100
00001000
,
00000000
00000000
00000020
00000230
00000320
00000000
00002030
00003002
,
00000000
00000023
00000000
00002030
00000000
00023000
00000000
00032000
,
00103000
00010000
00100000
00010000
01000000
00100000
10000000
00000000
,
01000000
00100000
01000000
00100000
00001000
00010000
00001000
00000000
,
00020000
00000000
00000000
00030200
00000000
00000000
00002300
00000000
00000000
00000000
00000000
00000000
00003020
00000000
00000000
00000000
,
00000130
00000001
00000100
00000001
00001000
00000010
00000100
00000001
,
00000010
00000000
00000000
00000100
00000010
00000000
00000000
00000001
00000100
00000000
00000000
00000010
00001000
00000000
00000000
00000100
,
00010000
00001000
00100000
01000000
00010000
00001000
01000000
01000000
,
00100000
00000000
00000000
00000000
00000000
00000000
00000000
00000000
22000000
33000000
20200000
30300000
02200000
03300000
02020000
03030000
,
00110000
00000000
00100000
00001000
00010000
00000100
00001000
00000010
,
00010000
00001000
00000010
00000100
00001000
00000001
00000010
00000001
,
00001000
00000010
00000100
00000001
00000010
00001000
00010000
00000000
,
00011000
00101000
00110000
01010000
,
01100000
00000000
00100000
10000000
01000000
00100000
00010000
01000000
,
00001000
00010000
00100000
00010000
00001000
01000000
00010000
00100000
,
00001000
00010000
00000010
00001000
00000100
00000010
00001000
00000000
,
00011000
00101000
01010000
10100000
,
11000000
00000000
00010000
00100000
01000000
00010000
00001000
00100000
,
00010000
01000000
00001000
00010000
00000010
00000100
00001000
00010000
,
00000100
00000010
00000001
00000100
00001000
00010000
00000010
00001000
,
00000010
00010000
00000100
00001000
00000001
00000010
00001000
00000000
,
00011000
00000000
00010000
00100000
10000000
00010000
01000000
00100000
,
10000000
01000000
00010000
00001000
00100000
00001000
00010000
00000000
,
00000100
00010000
00000010
00001000
00000001
00000010
00001000
00010000
,
01000000
10000000
00010000
01000000
00100000
00010000
00001000
00000000
,
00022000
00000000
00000000
00000000
,
00033000
00000000
00000000
00000000
;

//--------------- dance-double - forcednature assist by extraordiberry ----------------
#NOTEDATA:;
#STEPSTYPE:dance-double;
#DESCRIPTION:forcednature assist by extraordiberry;
#DIFFICULTY:Challenge;
#METER:15;
#RADARVALUES:0,0,0,0,0;
#CREDIT:forcednature assist by extraordiberry;
#NOTES:
00000000
00000000
00000000
00000000
,
00000000
00000000
00000000
00000000
,
00011000
00101000
00110000
01010000
,
02200000
00000000
03300000
00000000
,
02200000
00000000
03300000
00000000
,
02200000
00000000
03300000
00000000
,
01010000
00101000
00011000
00010100
,
00001100
00000000
00001000
00000010
00001000
00000001
00000100
00000000
,
00000110
00000000
00000010
00001000
00000100
00000010
00000001
00000000
,
00000100
00001000
00000100
00001000
00010000
00001000
00010000
00000000
,
00101000
00110000
01010000
01100000
,
10010000
00000000
10000000
01000000
00010000
00001000
00000100
00000001
,
00000020
00000000
00000031
00000100
00001000
00010000
01000000
10000000
,
00200000
00000000
00310000
00001000
00000020
00000000
00001030
00010000
,
00200000
00000000
00310000
00001000
00000100
00000001
00001000
00000000
,
00000110
00000000
00001000
00000100
00010000
00000010
00001000
00000001
,
00000010
00001000
00010000
00100000
10000000
01000000
00100000
00000000
,
00010000
01000000
00100000
01000000
00001000
00010000
00000100
00000010
,
00000001
00000000
00000000
00000001
00000100
00000000
00000000
00000100
00001000
00000000
00000000
00001000
00010000
00000000
00000000
00010000
,
00000010
00000000
00001000
00000000
00000100
00000000
00010000
00000000
00001000
00000000
00100000
00000000
00010000
00000000
01000000
00010000
,
10000000
00000000
00100000
00000000
10000000
00000000
01000000
00000000
00100000
00000000
00001000
00000000
00010000
00000000
00001000
00010000
,
00000100
00000000
00001000
00000000
00000010
00000000
00000100
00000000
00000001
00000000
00000010
00000000
00001000
00000000
00000010
00000001
,
00000010
00000000
00000000
00000010
00000100
00000000
00000000
00000100
00010000
00000000
00000000
00010000
00001000
00000000
00000000
00001000
,
00100000
00000000
00010000
00000000
01000000
00000000
00100000
00000000
10000000
00000000
01000000
00000000
00010000
00000000
00001000
00010000
,
00000100
00000000
00001000
00000000
00000010
00000000
00000100
00000000
00001000
00000000
00000100
00000000
00000001
00000000
00000100
00000010
,
00001000
00000000
00000100
00000000
00010000
00000000
00001000
00000000
00100000
00000000
00010000
00000000
01000000
00000000
00010000
10000000
,
01000000
00000000
00000000
01000000
00010000
00000000
00000000
00010000
00001000
00000000
00000000
00001000
00000010
00000000
00000000
00000010
,
00000100
00000000
00010000
00000000
00001000
00000000
00000010
00000000
00000001
00000000
00001000
00000000
00000010
00000000
00000100
00000010
,
00001000
00000000
00000001
00000000
00000010
00000000
00001000
00000000
00010000
00000000
00000100
00000000
00010000
00000000
00001000
00100000
,
00010000
00000000
01000000
00000000
00100000
00000000
01000000
00000000
00010000
00000000
10000000
00000000
00100000
00000000
10000000
00010000
,
01000000
00000000
00100000
00000000
10000000
00000000
01000000
00000000
00010000
00000000
00000000
00010000
00001000
00000000
00000000
00001000
,
00000010
00000000
00000100
00000000
00001000
00000000
00000100
00000000
00000010
00000000
00001000
00000000
00010000
00000000
00001000
00010000
,
00001000
00000000
00100000
00000000
00010000
00000000
01000000
00000000
00100000
00000000
10000000
00000000
01000000
00000000
10000000
01000000
,
10000000
00100000
10000000
00100000
00010000
00010000
00001000
00010000
,
00000100
00001000
00000100
00000000
00001000
00000010
00001000
00000000
00000010
00000100
00000010
00000100
00000010
00000000
00000000
00000000
,
00001001
00000000
00000001
00000100
00001000
00010000
01000000
00000000
,
00100000
00001000
01000000
00000000
00100000
10000000
01000000
00000000
,
10010000
00000000
10000000
01000000
00010000
00001000
00000100
00000000
,
00000001
00000010
00001000
00000000
00000010
00000001
00000100
00000000
,
00001001
00000000
00000001
00000100
00001000
00010000
01000000
00000000
,
10000000
00000000
00100000
00000000
00010000
00000000
00000000
00000000
00100000
00000000
10000000
00000000
01000000
10000000
01000000
00000000
,
00100000
00000000
00010000
00000000
00100000
00001000
00100000
00000000
00001000
00000000
00010000
00001000
00010000
00000000
00001000
00010000
,
00000100
00000000
00001000
00000100
00001000
00000000
00000010
00001000
00000010
00000000
00000100
00000010
00000100
00000000
00000001
00000000
,
00000010
00000000
00000100
00000001
00000100
00001000
00000100
00010000
,
00001000
00000000
00001000
00000000
00100000
00000000
00010000
00000000
01000000
00010000
01000000
00000000
00100000
01000000
00100000
00000000
,
10000000
00000000
01000000
00010000
00001000
00100000
00001000
00010000
,
00000100
00000000
00001000
00000100
00001000
00000000
00000001
00000000
00000100
00000000
00000010
00000100
00000010
00000000
00001000
00000000
,
00000001
00000000
00000010
00001000
00010000
00001000
00100000
00010000
,
01000000
00000000
01000000
00000000
00100000
00000000
10000000
00000000
01000000
10000000
01000000
00000000
00100000
00000000
00001000
00000000
,
00010000
00001000
00010000
00000000
00000100
00000000
00001000
00000000
00000010
00000000
00000100
00000010
00000100
00000000
00000001
00000000
,
00000010
00001000
00000000
00000000
00010000
00001000
00000000
00000000
00000010
00001000
00000000
00000000
00010000
00001000
00000000
00000000
,
00100000
00010000
00100000
00000000
01000000
10000000
01000000
00000000
10000000
00010000
10000000
00010000
01000000
00000000
00000000
00000000
,
00100000
10000000
01000000
10000000
00100000
10000000
01000000
00010000
,
00000000
00000000
00002000
00003020
00000032
00000000
00000203
00002300
,
00000000
02003000
00000000
03020000
00000000
00230000
00000000
02300000
,
13000000
00000000
00100000
00000000
10000000
00000000
01000000
00000000
00100000
00010000
00100000
00000000
00001000
00000000
00010000
00001000
,
00010000
00000100
00001000
00000100
00000010
00001000
00010000
00001000
,
00200000
00000000
00000000
00320000
00000000
00000000
00030020
00000000
00000000
00000000
00000000
00000000
00000230
00000000
00000000
00000000
,
00001300
00000010
00000100
00000010
00000001
00000010
00001000
00000010
,
00010000
00000000
00000000
00001000
00100000
00000000
00000000
00010000
01000000
00000000
00000000
00001000
00100000
00000000
00000000
00010000
,
01000000
00000000
00100000
01000000
00100000
00000000
10000000
00100000
10000000
00000000
01000000
00000000
00010000
00000000
00010000
00001000
,
00100000
00000000
00000000
00000000
00000000
00000000
00000000
00000000
00202000
00303000
00022000
00033000
00020200
00030300
00002200
00003300
,
00001000
00000000
00000010
00000000
00000100
00000010
00000100
00000000
00000001
00000000
00000010
00000000
00000001
00000000
00001000
00000000
,
00000100
00000000
00010000
00000000
00001000
00010000
00001000
00000000
00100000
00000000
00010000
00000000
01000000
00000000
00100000
00000000
,
10000000
00000000
01000000
00000000
00100000
01000000
00100000
00000000
00001000
00000000
00010000
00000000
00000100
00000000
00001000
00000000
,
00000010
00000100
00000000
00000000
00000100
00000001
00000000
00000000
00000001
00000010
00000000
00000000
00000010
00001000
00000000
00000000
,
00010000
00000000
00001000
00000000
00100000
00010000
00100000
00000000
01000000
00000000
10000000
00000000
00100000
00000000
01000000
00000000
,
00010000
00000000
00100000
00000000
00001000
00010000
00001000
00000000
00010000
00000000
00000100
00000000
00001000
00000000
00000010
00000000
,
00000100
00000000
00000001
00000000
00000010
00000001
00000010
00000000
00000100
00000000
00010000
00000000
00000010
00000000
00001000
00000000
,
00000001
00000100
00000000
00000000
00000100
00001000
00000000
00000000
00001000
00010000
00000000
00000000
00010000
00100000
00000000
00000000
,
01000000
00000000
00010000
00000000
10000000
00100000
10000000
00000000
01000000
00000000
00010000
00000000
00001000
00000000
00100000
00000000
,
00010000
00000000
00100000
00000000
00001000
00010000
00001000
00000000
00010000
00000000
00000100
00000000
00001000
00000000
00000010
00000000
,
00001000
00000000
00000100
00000000
00000010
00000001
00000010
00000000
00000001
00000000
00000100
00000000
00001000
00000000
00010000
00000000
,
00000010
00000000
00001000
00000000
00000010
00000100
00000010
00000000
00000100
00000000
00000001
00000000
00000010
00000000
00001000
00000000
,
00011000
00000000
00000000
00010000
00100000
00000000
00000000
00100000
10000000
00000000
00000000
10000000
01000000
00000000
00000000
01000000
,
00010000
00000000
00000000
00010000
00001000
00000000
00000000
00001000
00000010
00000000
00000000
00000010
00000001
00000000
00000000
00000001
,
00000100
00000000
00000010
00000000
00001000
00000010
00001000
00000000
00000100
00000000
00010000
00000000
00001000
00010000
00001000
00000000
,
00100000
00010000
00100000
00010000
00100000
00000000
01000000
00100000
01000000
00000000
10000000
01000000
10000000
00000000
00100000
00000000
,
20020000
00000000
00000000
00000000
,
30030000
00000000
00000000
00000000
;
