#VERSION:0.83;
#TITLE:ユミル;
#SUBTITLE:;
#ARTIST:MYTHOLOGIA by MLREC.;
#TITLETRANSLIT:Ymir;
#SUBTITLETRANSLIT:;
#ARTISTTRANSLIT:;
#GENRE:SYMPHONIC-TEK;
#CREDIT:;
#MUSIC:Ymir.ogg;
#BANNER:Ymir.png;
#BACKGROUND:Ymir-bg.png;
#CDTITLE:./CDTitles/bm IIDX 19 Lincle.png;
#SAMPLESTART:83.361;
#SAMPLELENGTH:15.000;
#SELECTABLE:YES;
#OFFSET:1.128;
#BPMS:0.000=164.000;
#STOPS:;
#TIMESIGNATURES:0.000=4=4;
#BGCHANGES:0.000=../BGAs/07tr.mp4=1.000=0=0=0=StretchNoLoop====,
99999.000=-nosongbg-=1.000=0=0=0=StretchNoLoop====
;
#FGCHANGES:;

//--------------- dance-single - forcednature ----------------
#NOTEDATA:;
#STEPSTYPE:dance-single;
#DESCRIPTION:forcednature;
#DIFFICULTY:Beginner;
#METER:4;
#RADARVALUES:0,0,0,0,0;
#CREDIT:forcednature;
#NOTES:
0000
0000
0000
0000
,
0000
0000
0000
0000
,
0000
0000
0000
0000
,
0000
0000
0000
0000
,
0000
0000
0000
0000
,
0000
0000
0000
0000
,
0000
0000
0000
0000
,
0000
0000
0000
0000
,
0000
0000
0000
0000
,
0000
0000
0000
0000
,
0001
0000
1000
0000
,
1001
0000
0000
0000
,
0100
0000
0010
0000
,
0110
0000
0000
0000
,
2002
0000
0000
0000
,
3003
0000
0000
0000
,
1000
0000
0001
0000
,
2002
0000
0000
3003
0000
0000
0000
0000
,
1001
0000
0000
0000
,
1000
0000
0100
0000
,
1000
1000
1000
0000
,
0010
0000
0100
0000
,
1001
0000
0000
0000
,
0001
0000
0100
0000
,
0001
0001
0001
0000
,
0010
0000
0100
0000
,
1001
0000
0000
0000
,
1000
0000
0001
0000
,
0010
0010
0010
0000
,
0100
0000
0010
0000
,
1001
0000
0000
0000
,
0001
0000
1000
0000
,
0010
0010
0010
0000
,
0100
0000
0010
0000
,
1001
0000
0000
0000
,
0110
0000
0000
0000
,
1001
0000
0000
0000
,
0110
0000
0000
0000
,
1000
1000
1000
0000
,
0001
0001
0001
0000
,
0100
0000
0010
0000
,
2002
0000
3003
0000
,
1000
0000
0000
0000
,
0100
0000
0100
0000
,
0010
0000
0000
0000
,
0001
0000
0001
0000
,
1000
0000
1000
0000
,
0010
0000
0010
0000
,
0100
0000
0100
0000
,
0001
0001
0001
0000
,
1001
0000
0000
0000
,
1000
0000
0100
0000
,
0010
0000
0001
0000
,
0100
0000
0010
0000
,
1001
0000
0000
0000
,
0001
0000
0100
0000
,
0010
0000
1000
0000
,
0200
0000
0300
0000
,
1001
0000
1000
0000
,
0100
0010
0100
0000
,
1000
0000
0010
0000
,
0100
0010
0100
0000
,
0001
0000
1000
0000
,
0010
0100
0010
0000
,
0100
0000
0100
0000
,
0001
0000
0010
0000
,
2002
0000
0000
0000
,
3003
0000
0000
0000
,
0200
0000
0300
0000
,
0020
0000
0030
0000
,
2002
0000
0000
0000
,
0000
0000
0000
3003
0000
0000
0000
0000
,
2000
3000
0002
0003
,
2002
0000
3003
0000
,
1001
0000
0000
0000
,
0110
0000
0000
0000
,
1001
0000
0000
0000
,
0110
0000
0000
0000
,
0001
0000
0001
0000
,
1000
0000
1000
0000
,
0100
0000
0010
0000
,
2002
0000
0000
0000
,
3003
0000
0000
0000
;

//--------------- dance-single - forcednature ----------------
#NOTEDATA:;
#STEPSTYPE:dance-single;
#DESCRIPTION:forcednature;
#DIFFICULTY:Easy;
#METER:9;
#RADARVALUES:0,0,0,0,0;
#CREDIT:forcednature;
#NOTES:
0000
0000
0000
0000
,
0000
0000
0000
0000
,
0000
0000
0000
0000
,
0000
0000
0000
0000
,
0000
0000
0000
0000
,
0000
0000
0000
0000
,
0000
0000
0000
0000
,
0000
0000
0000
0000
,
0000
0000
0000
0000
,
0000
0000
0000
1000
,
0002
0003
0200
0300
,
2002
0000
0000
3003
,
2000
3000
2002
3003
,
0020
0030
0220
0330
,
2002
3000
0100
0100
,
0100
0000
2000
3003
,
2200
3300
0202
0303
,
2002
0000
0000
3003
0000
0000
0000
0000
,
1001
0000
1000
0100
1000
0000
0010
0000
,
0100
0001
0010
0100
,
0010
0000
0001
1000
0001
0000
0100
0000
,
0010
1000
0100
0010
,
1001
0000
0001
0100
0001
0000
0010
0000
,
0100
1000
0010
0100
,
0010
0000
1000
0001
1000
0000
0100
0000
,
0010
0001
0100
0010
,
1001
0000
1000
0010
1000
0000
0001
0000
,
0100
0000
0010
0100
0010
0000
1000
0000
,
0100
0000
0010
0100
0010
0000
0001
0000
,
0100
0000
0001
0100
0001
0000
0010
0000
,
1001
0000
0001
0100
0001
0000
1000
0000
,
0100
0000
0010
0100
0010
0000
0001
0000
,
1000
0000
0010
1000
0010
0000
0100
0000
,
0001
0000
1000
0001
1000
0000
0010
0000
,
0101
0000
0001
0010
,
1100
0000
1000
0001
,
0101
0000
0001
1000
,
1100
0000
0010
0001
,
0101
1000
0100
1000
,
1010
0001
0100
0001
,
0011
0000
0000
1000
0000
0000
0100
0000
,
0220
0000
0000
0330
,
1001
0000
1000
0000
0100
1000
0100
0000
,
1000
0000
0010
0000
1000
0010
1000
0000
,
0010
0000
0100
0000
0010
0100
0010
0000
,
0100
0000
0001
0000
0100
0001
0100
0000
,
0001
0000
0010
0000
0100
0010
0100
0000
,
1000
0000
0010
0000
0100
0010
0100
0000
,
0002
0010
0010
1003
,
1001
0000
0001
0000
0100
0010
0100
0000
,
1001
1000
0010
0100
,
1001
0001
0010
0100
,
0110
0000
0010
0000
0001
0000
0100
0001
,
0100
0000
0001
0100
0001
0000
0010
0000
,
1001
1000
0100
0010
,
1001
0001
0100
0010
,
1001
0100
1001
0010
,
0220
0000
0000
0330
,
1000
0100
1000
0000
0001
0100
0001
0000
,
0020
0001
0001
0130
,
0001
0100
0001
0000
1000
0100
1000
0000
,
0020
1000
1000
0130
,
1000
0010
1000
0000
1010
0000
0001
0000
,
0100
0001
0100
0000
0101
0000
1000
0000
,
0100
0000
0100
0010
0000
0010
0100
0000
,
1000
0000
1000
0001
0000
0001
1000
0000
,
2002
0000
0003
0000
,
0020
0000
3030
0000
,
0002
0000
0203
0000
,
0020
0000
0330
0000
,
2002
0000
0000
0000
,
0000
0000
0000
3003
0000
0000
0000
0000
,
2200
3300
0202
0303
,
2002
0000
3003
0000
,
0001
0100
0001
0000
1000
0000
0010
0000
,
1000
0100
1000
0000
0001
0000
0010
0000
,
0100
1000
0100
0000
1000
0000
0010
0000
,
0100
0001
0100
0000
0001
0000
0010
0000
,
0110
0000
0100
1000
0100
0000
1000
0000
,
1010
0000
0010
0100
0010
0000
0100
0000
,
0001
0000
0001
0010
0000
0010
0100
0000
,
2002
0000
0000
0000
,
3003
0000
0000
0000
;

//--------------- dance-single - forcednature ----------------
#NOTEDATA:;
#STEPSTYPE:dance-single;
#DESCRIPTION:forcednature;
#DIFFICULTY:Medium;
#METER:12;
#RADARVALUES:0,0,0,0,0;
#CREDIT:forcednature;
#NOTES:
0000
0000
0000
0000
,
0000
0000
0000
0000
,
0000
0000
0000
0000
,
0000
0000
0000
0000
,
0000
0000
0000
0000
,
0000
0000
0000
0000
,
0000
0000
0000
0000
,
0000
0000
0000
0000
,
0000
0000
0000
0000
,
0000
0000
0000
0010
,
2002
3003
0220
0330
,
2002
0000
3003
1000
,
2200
0000
3300
0001
0020
0000
0030
0100
,
2000
0000
3000
0010
0100
0000
0110
0000
,
1001
0000
0001
0100
0001
0100
0010
1000
,
0002
0010
1003
1100
,
0021
0130
1200
0310
,
2002
0000
0000
3003
0000
0000
0110
0000
,
1001
0000
1000
0010
1000
0010
0100
0010
,
0001
0010
1000
0010
0100
0001
1000
0000
,
1001
0000
0001
0010
0001
0010
0100
0010
,
1000
0010
0001
0010
0100
1000
0001
0000
,
1001
0000
1000
0100
1000
0100
0001
0100
,
1000
0001
0010
0100
0010
0001
1000
0000
,
1001
0000
0001
0100
0010
0100
1000
0100
,
0002
0000
0013
0000
0001
1000
1001
0000
,
0110
0000
1000
0010
1000
0010
0001
0010
,
1000
0001
0100
0010
1000
0100
0010
0000
,
1001
0000
0001
0010
0001
0010
1000
0010
,
0001
0100
0010
1000
0100
0010
0001
0000
,
1001
0000
1000
0100
1000
0100
0001
0100
,
1000
0010
0100
0001
0010
0100
1000
0000
,
1002
0103
2001
3100
,
0001
0000
0010
0000
0100
0000
1000
0000
0010
0000
0100
0010
0200
0000
0000
0000
,
0301
0000
0000
0001
0000
0000
0010
0000
0000
1000
0000
0000
0010
0000
0000
0000
,
0011
0000
0000
0001
0000
0000
0100
0000
0000
1000
0000
0000
0100
0000
0000
0000
,
0110
0000
0000
0010
0000
0000
1000
0000
0000
0001
0000
0000
0010
0000
0000
0000
,
0110
0000
0000
0100
0000
0000
1000
0000
0000
0010
0000
0000
0001
0000
0000
0000
,
0010
0000
1000
0010
0000
1000
0010
0000
0100
0000
0001
0000
0010
0000
0000
0000
,
0100
0000
0010
0100
0000
0010
0100
0000
1000
0000
0001
0000
0100
0000
0000
0000
,
0010
0000
0010
0000
1000
0000
0001
0000
0100
0000
0010
0100
0010
0000
0000
0000
,
2002
0000
0000
3003
,
1000
0000
0000
0100
1000
0000
0000
0100
1000
0000
0010
0000
0100
0000
0000
0000
,
0001
0000
0000
0010
0001
0000
0000
0010
0001
0000
0100
0000
0010
0000
0000
0000
,
1000
0000
0000
0001
1000
0000
0000
0001
1000
0000
0010
0000
0100
0000
0000
0000
,
0001
0000
0010
0000
0100
0000
1000
0000
0010
0000
0100
0010
0100
0000
0000
0000
,
0001
0000
0000
1000
0001
0000
0010
0000
0001
0000
1000
0000
0010
0000
0000
0000
,
0100
0000
0000
0010
0100
0000
0001
0000
1000
0000
0100
0000
0010
0000
0000
0000
,
0100
1000
1000
0010
0010
0100
0100
0001
,
0010
0000
0100
0000
1000
0000
0001
0000
0100
0010
0100
0000
0010
0000
0000
0000
,
1001
0000
1000
0100
0010
0100
1000
0000
,
1100
0000
0001
0100
0010
0100
0001
0000
,
1001
0000
1000
0010
0100
0010
0001
0010
,
1000
0001
0100
1000
0001
0010
1000
0010
,
0100
0000
0001
1000
0100
0010
0100
0000
,
1001
0000
1000
0001
0100
0010
0100
0000
,
1001
0000
0000
0001
0010
0000
0000
0000
0110
0000
0000
1000
0010
0000
0000
0000
,
2002
0000
0000
3003
,
1000
0000
0000
0100
0010
0000
0000
0100
1000
0000
0000
0001
0010
0000
0000
0000
,
0100
0000
0010
0100
0010
0000
0001
0100
0001
0000
1000
0100
1000
0000
0000
0000
,
0010
0000
0000
0100
0001
0000
0000
0100
0010
0000
0000
1000
0001
0000
0000
0000
,
0010
0000
0001
0100
0001
0000
1000
0100
1000
0000
0010
0100
0010
0000
0000
0000
,
1000
0000
0000
0001
0010
0000
0000
0100
1000
0000
0000
0001
0100
0000
0000
0000
,
0010
0000
1000
0010
1000
0000
0001
0100
0001
0000
0010
0001
0010
0000
0000
0000
,
0001
0000
0001
0000
1000
0000
0100
1000
0100
0000
1000
0000
0001
0000
0100
0000
,
0010
0000
0010
0000
1000
0000
0010
0100
0010
0000
0100
0000
0001
0000
0000
0000
,
2002
3003
0220
0330
,
2002
0000
3003
1000
,
0200
0000
0310
0001
,
2000
0000
0000
3000
0000
0000
0010
0000
,
2002
0000
0000
0000
,
0000
0000
0000
3003
0000
0000
0010
0000
,
2002
3003
0220
0330
,
2002
0000
3003
0000
,
1010
0000
0000
0010
0000
0000
0100
0000
0000
1000
0000
0000
0100
0000
0001
0000
,
0101
0000
0000
0100
0000
0000
0010
0000
0000
1000
0000
0000
0001
0000
0010
0000
,
1001
0000
0000
0001
0000
0000
1000
0000
0000
0100
0000
0000
0010
0000
0100
0000
,
0110
0000
0000
1000
0000
0000
0001
0000
0000
0100
0000
0000
0010
0000
1000
0000
,
0001
1000
0000
0001
1000
0000
0100
0000
1000
0000
0001
0000
0100
0000
0000
0000
,
0010
0100
0000
0010
0100
0000
0001
0000
1000
0000
0100
0000
0010
0000
0000
0000
,
0001
0100
0000
0001
0100
0000
0010
1000
0000
0010
1000
0000
0100
0010
0100
0000
,
2002
0000
0000
0000
,
3003
0000
0000
0000
;

//--------------- dance-single - forcednature ----------------
#NOTEDATA:;
#STEPSTYPE:dance-single;
#DESCRIPTION:forcednature;
#DIFFICULTY:Hard;
#METER:16;
#RADARVALUES:0,0,0,0,0;
#CREDIT:forcednature;
#CREDIT:forcednature;
#NOTES:
0000
0000
0000
0000
,
0000
0000
0000
0000
,
0000
0000
0000
0000
,
0000
0000
0000
0000
,
0000
0000
0000
0000
,
0000
0000
0000
0000
,
0000
0000
0000
0000
,
0000
0000
0000
0000
,
0000
0000
0000
0000
,
0000
0000
0000
0000
0000
0000
0000
0000
0000
0000
0000
0000
1000
0100
0010
0001
,
2000
0000
0000
0000
3010
0000
0100
0001
0020
0000
0000
0000
0130
0000
0000
0000
,
1200
0000
0000
0000
0010
0000
0000
0000
0301
0000
0000
0000
0100
0000
0010
0100
,
2000
0000
0000
0000
3010
0000
0100
0001
2000
0000
0000
0000
3001
0000
1000
0100
,
0020
0000
0000
0000
0031
0000
0100
0010
2000
0000
0000
0000
3001
0000
1000
0001
,
0100
0000
0001
0000
0100
0000
0010
0100
0010
0000
1000
0000
0100
0000
1000
0001
,
1000
0000
0100
0000
0010
0000
0100
0010
0001
0000
1000
0000
0001
0100
0010
1000
,
0002
0000
0000
0000
0013
0000
0001
1000
0200
0000
0000
0000
0310
0000
0100
0000
,
2002
0000
0000
0000
0000
0000
3003
0000
0000
0000
0001
1000
0002
0000
0000
0000
,
0013
0000
0001
0100
0000
0100
0000
0010
0100
0000
0001
0000
1000
0000
0001
0000
,
0010
0000
0100
1000
0000
1000
0000
0100
0010
0000
0001
1000
0010
0000
0100
0000
,
0001
0000
1000
0100
0000
0100
0000
1000
0001
0000
0010
0000
0100
0000
0010
0000
,
0001
0000
1000
0010
0000
0010
0000
0100
0001
0000
1000
0001
1000
0000
0010
0000
,
0110
0000
0001
0100
0000
0100
0000
0010
1000
0000
0100
0000
1000
0000
0001
0000
,
0010
0000
0100
0010
0000
0010
0000
0001
1000
0000
0100
1000
0010
0000
0100
0000
,
0001
0000
1000
0100
0000
0100
0000
1000
0001
0000
0010
0000
0100
0000
0010
0000
,
0001
0100
0001
0100
0010
0100
0010
1000
0100
0010
0000
0000
,
1001
0000
1000
0010
0000
0010
0000
1000
0100
0000
0010
0000
0001
0000
0010
0000
,
0100
0000
1000
0010
0000
0010
0000
0100
0001
0000
0010
0001
1000
0000
0100
0000
,
1000
0000
0001
0100
0000
0100
0000
0010
1000
0000
0001
0000
0010
0000
0001
0000
,
0100
0000
0010
1000
0000
1000
0000
0010
0100
0000
0001
0010
0100
0000
0010
0000
,
0110
0000
1000
0100
0000
0100
0000
1000
0001
0000
0100
0000
1000
0000
0100
0000
,
0001
0000
0100
0010
0000
0010
0000
1000
0001
0000
0010
0001
1000
0000
0010
0000
,
0200
0000
0001
0000
0301
0000
0100
0010
2000
0000
0010
0000
3010
0000
1000
0001
,
0010
0000
0100
1000
0001
0000
0100
0001
1000
0100
1000
0001
0100
0000
0010
0000
,
1001
0000
0000
0101
0000
0000
1000
0000
0010
0100
0000
0001
0010
0000
0100
0000
,
1001
0000
0000
1100
0000
0000
0001
0000
0010
0100
0000
1000
0010
0000
0100
0000
,
1001
0000
0000
0011
0000
0000
1000
0000
0100
0010
0000
0001
0100
0000
0010
0000
,
1001
0000
0000
1010
0000
0000
0001
0000
0100
0010
0000
1000
0100
0000
1000
0000
,
0001
0100
0001
0100
0000
0010
0100
0000
0010
1000
0000
0001
0010
0000
0100
0000
,
1000
0100
1000
0100
0000
0010
0100
0000
0010
0001
0000
1000
0010
0000
0100
0000
,
0001
1000
0100
1000
0001
0000
1000
0001
0100
0001
1000
0000
0010
0100
0001
1000
,
0020
0000
0000
0030
,
0100
0001
0000
0001
0000
0000
0010
0001
0000
0010
0000
0100
1000
0000
0001
0000
,
1000
0010
0000
0010
0000
0000
0100
0010
0000
0100
0000
0001
1000
0000
0100
0000
,
0010
0001
0000
0001
0000
0000
1000
0010
0000
0100
0000
0001
1000
0000
0100
0000
,
0010
0100
0000
0100
0000
0000
1000
0000
0001
1000
0010
0100
0001
0000
0000
0000
,
1000
0010
1000
0010
0000
0100
0001
0000
0001
0010
0000
0010
0100
0000
1000
0000
,
0001
0100
0001
0100
0000
0010
1000
0000
1000
0100
0000
0010
0100
0000
0110
0000
,
2000
0010
0000
0010
3002
0010
0000
0010
,
1003
0010
1000
0001
0100
0000
0010
0000
1000
0100
0010
0001
0200
0000
0300
0000
,
1001
0000
0001
1000
0001
0000
1000
0000
0100
0000
0010
0001
1000
0000
0010
0000
,
1001
0000
1000
0001
1000
0000
0001
0000
0100
0000
0010
1000
0001
0000
0010
0000
,
0110
0000
0100
0010
0001
0000
1000
0000
0010
0000
0100
0000
1000
0000
0100
0010
,
0100
0000
0001
0000
0100
0010
0100
0000
1000
0000
0100
0010
0100
0000
0001
0000
,
0101
0000
0100
0010
1000
0000
0100
0000
0001
0000
0100
1000
0100
0000
0010
0000
,
0011
0000
0001
1000
0010
0000
0100
0000
1000
0000
0100
0001
0100
0000
0010
0000
,
1010
0000
1000
0000
0001
0010
0100
0000
0110
0000
0010
0100
1000
0000
0010
0000
,
1001
0000
1000
0100
0010
0000
0100
0010
0002
0000
0000
0000
0003
0000
0000
0000
,
1000
0010
0100
0010
1000
0000
0001
0000
0010
0100
1000
0100
0010
0000
0001
0000
,
0100
0010
0100
0010
1000
0001
1000
0001
0100
0010
1000
0001
0100
0000
0000
0000
,
0001
0100
0010
0100
0001
0000
1000
0000
0100
0010
0001
0010
0100
0000
1000
0000
,
0010
0100
0010
0100
0001
1000
0001
1000
0010
0100
0001
1000
0010
0000
0000
0000
,
1000
0001
0100
0001
1000
0000
0010
0000
1000
0001
0010
0001
1000
0000
0001
0000
,
0010
0100
0010
0100
1000
0001
1000
0001
0100
0010
1000
0010
0100
0000
0000
0000
,
0001
1000
0100
1000
0001
0000
1000
0001
0100
0001
1000
0000
0010
0000
0110
0000
,
0100
0001
0000
0010
0100
0000
1000
0000
0001
0100
0001
1000
0100
1000
0001
0100
,
0020
0000
2030
0000
,
3002
0000
0003
0010
,
0200
0000
0310
0001
,
2000
0000
0000
3000
0000
0000
0010
0000
,
0220
0000
0000
0000
,
0000
0000
0000
0330
0000
0000
0100
0000
,
2002
3003
0220
0330
,
2002
0000
3003
0000
,
0001
0100
0001
1000
0000
1000
0010
0000
0100
0001
0000
0010
0100
0000
0110
0000
,
1000
0100
1000
0001
0000
0001
0010
0000
0100
1000
0000
0010
0100
0000
0110
0000
,
0001
0100
0001
1000
0000
0100
1000
0000
0010
0100
0000
0100
0001
0000
1001
0000
,
1000
0100
1000
0001
0000
0100
0001
0000
0010
0100
0000
0100
1000
0000
1001
0000
,
0001
0100
0001
1000
0100
0000
1000
0001
0010
0000
0001
1000
0010
0000
0010
0000
,
1000
0100
1000
0001
0100
0000
0001
1000
0010
0000
1000
0001
0010
0000
0010
0000
,
0001
1000
0100
1000
0001
0000
1000
0001
0100
0001
1000
0000
0100
0010
0001
0000
,
2002
0000
0000
0000
,
3003
0000
0000
0000
;

//--------------- dance-double - forcednature ----------------
#NOTEDATA:;
#STEPSTYPE:dance-double;
#DESCRIPTION:forcednature;
#DIFFICULTY:Easy;
#METER:9;
#RADARVALUES:0,0,0,0,0;
#CREDIT:forcednature;
#NOTES:
00000000
00000000
00000000
00000000
,
00000000
00000000
00000000
00000000
,
00000000
00000000
00000000
00000000
,
00000000
00000000
00000000
00000000
,
00000000
00000000
00000000
00000000
,
00000000
00000000
00000000
00000000
,
00000000
00000000
00000000
00000000
,
00000000
00000000
00000000
00000000
,
00000000
00000000
00000000
00000000
,
00000000
00000000
00000000
00001000
,
00020000
00030000
00000200
00000300
,
00022000
00000000
00000000
00033000
,
00002000
00003000
02000000
03000000
,
00020000
00030000
00200000
00300000
,
20020000
30000000
01000000
01000000
,
01000000
00000000
00200000
00330000
,
00002000
00003000
00020000
00030000
,
00022000
00000000
00000000
00033000
00000000
00000000
00000000
00000000
,
00011000
00010000
00000100
00001000
,
00000010
00000010
00000100
00000001
,
00000010
00000100
00010000
00001000
,
00100000
00100000
00010000
01000000
,
10010000
10000000
00100000
01000000
,
00001000
00001000
00010000
00000010
,
00001000
00000100
00001000
00000010
,
00000100
00000001
00000010
00000100
,
00001001
00001000
00000100
00010000
,
00001000
00001000
01000000
00010000
,
10010000
10000000
01000000
00100000
,
00001000
00001000
00010000
00000100
,
00011000
00010000
00001000
01000000
,
00010000
00010000
00100000
00001000
,
00011000
00010000
00000010
00001000
,
00000001
00000010
00000100
00000110
,
00001001
00000000
00001000
00000100
,
00011000
00000000
01000000
00010000
,
10010000
00000000
00010000
00100000
,
00011000
00000000
00010000
00001000
,
00011000
00000100
00010000
00000100
,
00011000
01000000
00001000
01000000
,
00011000
00000000
00000000
00000010
00000000
00000000
00000100
00000000
,
00000220
00000000
00000000
00000330
,
00001001
00000000
00001000
00000000
00000100
00001000
00000100
00000000
,
00010000
00000000
00001000
00000000
00010000
00001000
00010000
00000000
,
00001000
00000000
01000000
00000000
00001000
01000000
00001000
00000000
,
01000000
00000000
00010000
00000000
01000000
00100000
01000000
00000000
,
00100000
00000000
10000000
00000000
01000000
10000000
01000000
00000000
,
00100000
00000000
00001000
00000000
00010000
00001000
00010000
00000000
,
00000200
00001000
00001000
00001300
,
00001001
00000000
00000001
00000000
00000100
00000001
00000100
00000000
,
00000110
00000010
00010000
00001000
,
00011000
00010000
00001000
00100000
,
01100000
00000000
01000000
00000000
10000000
00000000
00100000
10000000
,
00100000
00000000
01000000
00010000
01000000
00000000
00001000
00000000
,
00011000
00010000
00000100
00000010
,
00000110
00000100
00001000
00000001
,
00001001
00000100
00011000
00000100
,
00022000
00000000
00000000
00033000
,
00010000
00001000
00010000
00000000
00001000
00100000
00001000
00000000
,
00200000
00010000
00010000
01300000
,
10000000
01000000
10000000
00000000
00100000
10000000
00100000
00000000
,
02000000
00010000
00010000
03100000
,
01000000
00010000
01000000
00000000
10010000
00000000
00010000
00000000
,
00100000
00001000
00100000
00000000
00011000
00000000
00001000
00000000
,
00010000
00000000
00010000
00000100
00000000
00000100
00001000
00000000
,
00000001
00000000
00000001
00000100
00000000
00000100
00000010
00000000
,
00002002
00000000
00003000
00000000
,
00000200
00000000
00000303
00000000
,
00002000
00000000
00003020
00000000
,
00020000
00000000
00030030
00000000
,
00022000
00000000
00000000
00000000
,
00000000
00000000
00000000
00033000
00000000
00000000
00000000
00000000
,
00200000
00300000
02000000
03000000
,
20020000
00000000
30030000
00000000
,
00010000
01000000
00010000
00000000
00100000
00000000
00001000
00000000
,
00010000
00001000
00010000
00000000
00000100
00000000
00001000
00000000
,
00000010
00001000
00000010
00000000
00000100
00000000
00000001
00000000
,
00000010
00000001
00000010
00000000
00000100
00000000
00010000
00000000
,
00011000
00000000
00001000
00010000
00001000
00000000
00100000
00000000
,
00010000
00000000
01000000
00010000
01000000
00000000
00100000
00000000
,
10000000
00000000
10000000
01000000
00000000
01000000
00100000
00000000
,
20020000
00000000
00000000
00000000
,
30030000
00000000
00000000
00000000
;

//--------------- dance-double - forcednature ----------------
#NOTEDATA:;
#STEPSTYPE:dance-double;
#DESCRIPTION:forcednature;
#DIFFICULTY:Medium;
#METER:12;
#RADARVALUES:0,0,0,0,0;
#CREDIT:forcednature;
#NOTES:
00000000
00000000
00000000
00000000
,
00000000
00000000
00000000
00000000
,
00000000
00000000
00000000
00000000
,
00000000
00000000
00000000
00000000
,
00000000
00000000
00000000
00000000
,
00000000
00000000
00000000
00000000
,
00000000
00000000
00000000
00000000
,
00000000
00000000
00000000
00000000
,
00000000
00000000
00000000
00000000
,
00000000
00000000
00000000
00001000
,
00022000
00033000
00202000
00303000
,
00020200
00000000
00030300
00000100
,
00002020
00000000
00003030
00000001
00000200
00000000
00000300
00001000
,
00020000
00000000
00030000
00100000
10000000
00000000
10010000
00000000
,
01100000
00000000
00010000
00100000
00001000
00100000
00010000
00100000
,
02000000
10000000
03100000
00110000
,
00102000
00013000
00020010
00031000
,
00022000
00000000
00000000
00033000
00000000
00000000
00011000
00000000
,
00001000
00000010
00001000
00000010
00000001
00000010
00000001
00000010
,
00000100
00010000
00001000
00100000
00010000
01000000
00010000
00000000
,
10000000
00100000
10000000
00100000
00010000
00100000
00010000
00100000
,
10000000
01000000
00100000
00001000
00010000
00000010
00001000
00000000
,
00000001
00000100
00000001
00000100
00001000
00000100
00001000
00000100
,
00000001
00000010
00000100
00010000
00001000
01000000
00010000
00000000
,
10000000
00100000
10000000
00100000
00010000
00100000
00010000
00100000
,
10000000
00000000
01000000
00000000
00010000
00000000
00001000
00000000
00000000
00011000
00000000
00000000
,
00010000
00001000
00010000
00000010
00001000
00000100
00000010
00000001
,
00000100
00000001
00000010
00000100
00010000
00001000
00100000
00000000
,
00010000
01000000
10000000
01000000
00010000
00100000
00001000
00010000
,
01000000
00100000
01000000
00010000
00001000
00000100
00000010
00000000
,
00001000
00000001
00000100
00000001
00000010
00001000
00000010
00000100
,
00010000
00001000
00100000
01000000
00100000
00001000
00010000
00000000
,
00100000
10000000
01000000
10000000
00100000
00010000
00001000
00000010
,
00000001
00000001
00001000
00000001
00000100
00000000
00000110
00000000
,
00000010
00000000
00000000
00000100
00000000
00000000
00001000
00000000
00000000
00010000
00000000
00000000
01000000
00000000
00000000
00000000
,
00100000
00000000
00000000
01000000
00000000
00000000
00010000
00000000
00000000
00001000
00000000
00000000
00000100
00000000
00000000
00000000
,
00000010
00000000
00000000
00001000
00000000
00000000
00010000
00000000
00000000
01000000
00000000
00000000
00001000
00000000
00000000
00000000
,
00100000
00000000
00000000
00010000
00000000
00000000
00001000
00000000
00000000
00000100
00000000
00000000
00010000
00000000
00000000
00000000
,
00000010
00000000
00001000
00000010
00000000
00001000
00000010
00000000
00000100
00000000
00000001
00000000
00000010
00000000
00000000
00000000
,
00000100
00000000
00010000
00001000
00000000
00010000
00001000
00000000
00100000
00000000
00010000
00000000
01000000
00000000
00000000
00000000
,
00100000
00000000
00100000
00000000
10000000
00000000
01000000
00000000
00100000
00000000
00000000
00001000
00010000
00000000
00000000
00000000
,
00022000
00000000
00000000
00033000
,
00001000
00000000
00000010
00000000
00000001
00000000
00000010
00000000
00000100
00000000
00000010
00000100
00000010
00000000
00000000
00000000
,
00000100
00000000
00010000
00000000
00001000
00000000
00100000
00000000
00010000
00000000
00100000
00010000
00100000
00000000
00000000
00000000
,
01000000
00000000
10000000
00000000
00010000
00000000
01000000
00000000
00001000
00000000
00010000
00001000
00010000
00000000
00000000
00000000
,
00000100
00000000
00001000
00000000
00000010
00000000
00000100
00000000
00000001
00000000
00000010
00000001
00000010
00000000
00000000
00000000
,
00000100
00010000
00001000
00010000
00000010
00010000
00001000
00010000
,
01000000
00100000
01000000
10000000
01000000
00010000
00001000
00010000
,
00000010
00001000
00000000
00001000
00000100
00010000
00000000
00010000
,
00001000
00000000
00100000
00000000
00010000
00000000
01000000
00000000
00100000
01000000
00100000
00000000
10000000
00000000
00000000
00000000
,
10010000
00000000
00000000
00000000
10000000
00000000
01000000
00000000
00010000
00000000
00000000
00001000
00010000
00000000
00000000
00000000
,
00011000
00000000
00000000
00000000
00001000
00000000
00000100
00000000
00000001
00000000
00000000
00000010
00000100
00000000
00000000
00000000
,
00001001
00000000
00000000
00000000
00000001
00000000
00000100
00000000
00001000
00000000
00000000
00010000
00001000
00000000
00000000
00000000
,
00011000
00000000
00010000
00100000
00010000
00001000
00010000
00000000
,
00011000
00000000
00000000
00000000
00001000
00000000
00100000
00000000
01000000
00000000
00000000
10000000
00010000
00000000
00000000
00000000
,
01100000
00000000
00000000
00000000
10000000
00000000
01000000
00000000
00010000
00000000
00000000
00001000
00010000
00000000
00000000
00000000
,
00011000
00000000
00000010
00010000
00011000
00000000
00100000
00001000
,
00022000
00000000
00000000
00033000
,
00010000
00000100
00001000
00000010
00000100
00000001
00000010
00000100
,
00001000
00000000
00000100
00001000
00000100
00000000
00010000
00001000
00010000
00000000
00001000
00000000
00100000
00000000
00000000
00000000
,
00010000
01000000
00100000
10000000
01000000
00100000
00010000
01000000
,
00001000
00000000
00010000
00001000
00010000
00000000
00000100
00001000
00000100
00000000
00001000
00000000
00000010
00000000
00000000
00000000
,
00000100
00000001
00000010
00000100
00010000
00000010
00001000
00000100
,
00010000
00000000
00001000
00010000
00001000
00000000
01000000
00010000
01000000
00000000
00100000
00000000
10000000
00000000
00000000
00000000
,
01000000
00010000
00010000
00001000
00010000
00010000
00000010
00010000
,
00001000
00000000
00000000
00000010
00000000
00000000
00000001
00000000
00000000
00000100
00000000
00000000
00000110
00000000
00000000
00000000
,
00002002
00000003
00000200
00003300
,
00022000
00000000
00033000
00100000
,
00220000
00300000
01030000
00100000
,
20020000
00000000
30030000
01000000
,
00022000
00000000
00000000
00000000
,
00000000
00000000
00000000
00033000
00000000
00000000
00000100
00000000
,
00002002
00003003
00022000
00033000
,
20020000
00000000
30030000
00000000
,
10000000
00000000
00000000
01000000
00000000
00000000
00010000
00000000
00000000
00001000
00000000
00000000
00000010
00000000
00000000
00000000
,
00000001
00000000
00000000
00000100
00000000
00000000
00001000
00000000
00000000
00010000
00000000
00000000
00100000
00000000
00000000
00000000
,
10000000
00000000
00000000
00100000
00000000
00000000
00010000
00000000
00000000
00001000
00000000
00000000
00000010
00000000
00000000
00000000
,
00000001
00000000
00000000
00000010
00000000
00000000
00001000
00000000
00000000
00010000
00000000
00000000
00100000
00000000
00000000
00000000
,
10000000
00000000
00100000
10000000
00000000
00100000
10000000
00000000
01000000
00000000
00100000
00000000
00010000
00000000
00000000
00000000
,
01000000
00000000
00001000
00010000
00000000
00001000
00010000
00000000
00000100
00000000
00001000
00000000
00000010
00000000
00000000
00000000
,
00000100
00000001
00000000
00000100
00000001
00000000
00001000
00000010
00000000
00001000
00000010
00000000
00010000
00000000
00001000
00000000
,
00022000
00000000
00000000
00000000
,
00033000
00000000
00000000
00000000
;

//--------------- dance-double - forcednature ----------------
#NOTEDATA:;
#STEPSTYPE:dance-double;
#DESCRIPTION:forcednature;
#DIFFICULTY:Hard;
#METER:16;
#RADARVALUES:0,0,0,0,0;
#CREDIT:forcednature;
#NOTES:
00000000
00000000
00000000
00000000
,
00000000
00000000
00000000
00000000
,
00000000
00000000
00000000
00000000
,
00000000
00000000
00000000
00000000
,
00000000
00000000
00000000
00000000
,
00000000
00000000
00000000
00000000
,
00000000
00000000
00000000
00000000
,
00000000
00000000
00000000
00000000
,
00000000
00000000
00000000
00000000
,
00000000
00000000
00000000
00000000
00000000
00000000
00000000
00000000
00000000
00000000
00000000
00000000
00001000
00010000
00000100
00001000
,
00000020
00000000
00000000
00000000
00000130
00000000
00000001
00001000
00000200
00000000
00000000
00000000
00010300
00000000
00000000
00000000
,
00012000
00000000
00000000
00000000
00100000
00000000
00000000
00000000
00013000
00000000
00000000
00000000
01000000
00000000
00010000
01000000
,
00200000
00000000
00000000
00000000
10300000
00000000
01000000
00100000
00020000
00000000
00000000
00000000
01030000
00000000
00001000
00010000
,
00000020
00000000
00000000
00000000
00001030
00000000
00000100
00000010
00000002
00000000
00000000
00000000
00000103
00000000
00000010
00001000
,
00000001
00000000
00000010
00000000
00000100
00000000
00001000
00000100
00001000
00000000
00000100
00000000
00010000
00000000
00001000
00010000
,
00001000
00000000
01000000
00000000
00010000
00000000
00100000
00010000
10000000
00000000
01000000
00000000
10000000
00100000
01000000
00010000
,
00200000
00000000
00000000
00000000
00301000
00000000
00010000
00000100
00002000
00000000
00000000
00000000
00003010
00000000
00000000
00000000
,
00000220
00000000
00000000
00000000
00000000
00000000
00000330
00000000
00000000
00000000
00001000
00000001
00002000
00000000
00000000
00000000
,
00003001
00000000
00000100
00000010
00000000
00000010
00000000
00001000
00000010
00000000
00000100
00000000
00001000
00000000
00010000
00000000
,
00001000
00000000
00010000
00100000
00000000
00100000
00000000
10000000
00100000
00000000
01000000
00100000
10000000
00000000
01000000
00000000
,
00100000
00000000
01000000
00100000
00000000
00100000
00000000
00001000
00010000
00000000
00000100
00000000
00001000
00000000
00000010
00000000
,
00001000
00000000
00000100
00000010
00000000
00000010
00000000
00000001
00000100
00000000
00000010
00001000
00000100
00000000
00010000
00000000
,
00011000
00000000
00001000
01000000
00000000
01000000
00000000
00010000
10000000
00000000
01000000
00000000
00100000
00000000
01000000
00000000
,
10000000
00000000
00100000
01000000
00000000
01000000
00000000
00100000
00010000
00000000
00001000
00010000
00001000
00000000
00010000
00000000
,
00000100
00000000
00001000
00000010
00000000
00000010
00000000
00000100
00000001
00000000
00000010
00000000
00000100
00000000
00000010
00000000
,
00000001
00000100
00000001
00000100
00001000
00010000
00001000
01000000
00010000
00100000
00000000
00000000
,
10010000
00000000
10000000
00100000
00000000
00100000
00000000
10000000
01000000
00000000
00010000
00000000
00001000
00000000
00010000
00000000
,
00000100
00000000
00001000
00000010
00000000
00000010
00000000
00001000
00000100
00000000
00000010
00000001
00001000
00000000
00000010
00000000
,
00000100
00000000
00000001
00000100
00000000
00000100
00000000
00001000
00010000
00000000
00001000
00000000
00100000
00000000
00001000
00000000
,
00010000
00000000
01000000
00100000
00000000
00100000
00000000
01000000
10000000
00000000
00100000
01000000
00010000
00000000
00100000
00000000
,
00101000
00000000
00001000
00010000
00000000
00010000
00000000
00000100
00001000
00000000
00000001
00000000
00000100
00000000
00000001
00000000
,
00000010
00000000
00000100
00001000
00000000
00001000
00000000
00000010
00000100
00000000
00001000
00010000
00001000
00000000
00010000
00000000
,
00200000
00000000
01000000
00000000
01300000
00000000
00100000
10000000
00020000
00000000
01000000
00000000
01030000
00000000
00010000
00100000
,
00001000
00000000
00001000
00010000
00000100
00000000
00001000
00000010
00000100
00000010
00000100
00000001
00000010
00000000
00000000
00000000
,
00001001
00000000
00000000
00001000
00000000
00000000
00000100
00000000
00000000
00010000
00000000
00000000
00100000
00000000
01000000
00000000
,
10010000
00000000
00000000
00010000
00000000
00000000
01000000
00000000
00000000
00001000
00000000
00000000
00000010
00000000
00000100
00000000
,
00001001
00000000
00000000
00001000
00000000
00000000
00000010
00000000
00000000
00010000
00000000
00000000
01000000
00000000
00100000
00000000
,
10010000
00000000
00000000
00010000
00000000
00000000
00100000
00000000
00000000
00001000
00000000
00000000
00000100
00000000
00000010
00000000
,
00001001
00000000
00000000
00001000
00000100
00000000
00000010
00000000
00000100
00010000
00000000
00001000
00100000
00000000
01000000
00000000
,
10010000
00000000
00000000
00010000
01000000
00000000
00100000
00000000
01000000
00001000
00000000
00010000
00000010
00000000
00000100
00000000
,
00000001
00001000
00000100
00001000
00000001
00000000
00000100
00000010
00001000
00000010
00000100
00000000
00001000
00010000
00100000
00000000
,
02200000
00000000
00000000
03300000
,
10000000
00010000
00000000
00010000
00000000
00000000
00100000
01000000
00000000
00100000
00000000
00010000
01000000
00000000
00001000
00000000
,
00010000
00000100
00000000
00000100
00000000
00000000
00001000
00000010
00000000
00000100
00000000
00000010
00010000
00000000
00001000
00000000
,
00010000
00000100
00000000
00000100
00000000
00000000
00001000
00000001
00000000
00000100
00000000
00000010
00000100
00000000
00001000
00000000
,
00010000
00001000
00000000
00001000
00000000
00000000
00010000
00100000
00000000
00100000
00000000
10000000
01000000
00000000
00100000
00000000
,
00010000
01000000
00010000
01000000
00000000
00001000
00010000
00000000
00000010
00000100
00000000
00001000
00000100
00000000
00000001
00000000
,
00001000
00000100
00001000
00000100
00000000
00010000
00001000
00000000
00100000
01000000
00000000
00010000
01000000
00000000
10000000
00000000
,
00200000
00320000
00032000
00003200
,
00000301
00000100
00000010
00000100
00000001
00000000
00001000
00000000
00000010
00010000
00001000
00000000
00022000
00000000
00033000
00000000
,
00101000
00000000
00010000
00100000
01000000
00000000
00100000
00000000
00001000
00000000
00010000
00001000
01000000
00000000
00010000
00000000
,
10010000
00000000
10000000
01000000
00100000
00000000
01000000
00000000
00010000
00000000
00001000
00010000
00000100
00000000
00001000
00000000
,
00001001
00000000
00000001
00000100
00000010
00000000
00010000
00000000
00001000
00000000
00000010
00000000
00000100
00000000
00010000
00001000
,
00010000
00000000
00000010
00000000
00010000
00001000
00010000
00000000
00000100
00000000
00010000
00001000
00100000
00000000
01000000
00000000
,
01100000
00000000
00100000
00010000
01000000
00000000
00001000
00000000
00010000
00000000
00000100
00001000
00000001
00000000
00000100
00000000
,
00000110
00000000
00000010
00001000
00000100
00000000
00010000
00000000
00001000
00000000
01000000
00010000
00100000
00000000
01000000
00000000
,
01100000
00000000
00100000
00000000
00010000
01000000
00001000
00000000
00011000
00000000
00010000
00000100
00001000
00000000
00000010
00000000
,
00000110
00000000
00000100
00001000
00010000
00000000
00001000
00010000
00200000
00000000
00000000
00000000
00300000
00000000
00000000
00000000
,
01000000
00010000
10000000
00010000
01000000
00000000
00001000
00000000
00010000
00001000
00100000
00001000
00010000
00000000
00000100
00000000
,
00001000
00000010
00010000
00001000
00010000
00000100
00001000
00000100
00010000
00001000
00100000
00001000
00010000
00000000
00000000
00000000
,
00000010
00001000
00000001
00001000
00000010
00000000
00010000
00000000
00001000
00010000
00000100
00010000
00001000
00000000
01000000
00000000
,
00010000
00100000
00001000
00010000
00001000
01000000
00010000
01000000
00001000
00010000
00000010
00010000
00001000
00000000
00000000
00000000
,
00100000
00010000
10000000
00010000
00100000
00000000
01000000
00000000
10000000
00100000
01000000
00100000
10000000
00000000
01000000
00000000
,
00100000
00001000
00010000
00001000
00010000
00000100
00001000
00000100
00010000
00000010
00001000
00000010
00010000
00000000
00000000
00000000
,
00000100
00001000
00000100
00010000
00001000
00000000
00100000
00010000
00100000
00001000
00010000
00000000
00000010
00000000
00001000
00000000
,
00000001
00000010
00000000
00000100
00010000
00000000
00001000
00000000
00100000
00010000
01000000
00100000
10000000
01000000
00100000
00001000
,
00020000
00000000
00030200
00000000
,
00000320
00000000
00000030
00000001
,
00000200
00000000
00001300
00010000
,
00200000
00000000
00000000
00300000
00000000
00000000
01000000
00000000
,
20020000
00000000
00000000
00000000
,
00000000
00000000
00000000
30030000
00000000
00000000
00010000
00000000
,
02020000
03030000
00022000
00033000
,
00002020
00000000
00003030
00000000
,
00001001
00000000
00000000
00001000
00000000
00000100
00010000
00000000
00000000
00100000
00000000
01000000
00100000
00000000
01100000
00000000
,
10010000
00000000
00000000
00010000
00000000
01000000
00001000
00000000
00000000
00000010
00000000
00000100
00000010
00000000
00000110
00000000
,
00001001
00000000
00000000
00001000
00000000
00000010
00010000
00000000
00000000
01000000
00000000
00100000
01000000
00000000
01100000
00000000
,
10010000
00000000
00000000
00010000
00000000
00100000
00001000
00000000
00000000
00000100
00000000
00000010
00000100
00000000
00000110
00000000
,
00001001
00000000
00001000
00000100
00000000
00010000
00001000
00000000
00010000
00100000
00000000
10000000
00100000
00000000
01100000
00000000
,
10010000
00000000
00010000
01000000
00000000
00001000
00010000
00000000
00001000
00000010
00000000
00000001
00000010
00000000
00000110
00000000
,
00000100
00010000
00001000
00100000
00001000
00000000
00010000
00000010
00010000
00001000
01000000
00000000
00010000
00100000
01000000
00000000
,
20020000
00000000
00000000
00000000
,
30030000
00000000
00000000
00000000
;
