#VERSION:0.83;
#TITLE:Wolf 1061;
#SUBTITLE:;
#ARTIST:Xceon;
#TITLETRANSLIT:;
#SUBTITLETRANSLIT:;
#ARTISTTRANSLIT:;
#GENRE:PIANO TRANCE;
#CREDIT:;
#MUSIC:Wolf 1061.ogg;
#BANNER:Wolf 1061.png;
#BACKGROUND:Wolf 1061-bg.png;
#CDTITLE:./CDTitles/bm IIDX 26 Rootage.png;
#SAMPLESTART:37.074;
#SAMPLELENGTH:15.000;
#SELECTABLE:YES;
#OFFSET:0.375;
#BPMS:0.000=173.000;
#STOPS:;
#TIMESIGNATURES:0.000=4=4;
#BGCHANGES:4.000=Wolf 1061.mp4=1.000=0=0=0=StretchNoLoop====,
99999.000=-nosongbg-=1.000=0=0=0=StretchNoLoop====
;
#FGCHANGES:;

//--------------- dance-single - forcednature ----------------
#NOTEDATA:;
#STEPSTYPE:dance-single;
#DESCRIPTION:forcednature;
#DIFFICULTY:Beginner;
#METER:3;
#RADARVALUES:0,0,0,0,0;
#CREDIT:forcednature;
#NOTES:
0000
0000
0000
0000
,
0000
0000
0000
0000
,
0000
0000
0000
0000
,
0001
0000
0000
0000
,
0100
0000
0000
0000
,
0010
0000
0000
0000
,
0000
0000
0000
0000
,
1000
0000
0000
0000
,
0100
0000
0000
0000
,
0010
0000
0000
0000
,
0000
0000
0000
0000
,
0001
0000
0000
0000
,
1000
0000
0000
0000
,
0010
0000
0000
0000
,
1000
0000
0000
0000
,
0001
0000
0000
0000
,
0100
0000
0000
0000
,
0010
0000
0000
0000
,
1000
0000
0000
0000
,
1001
0000
0000
0000
,
0000
0000
0000
0000
,
0001
0000
0000
0000
,
0010
0000
0000
0000
,
0100
0000
0000
0000
,
0010
0000
0000
0000
,
0001
0000
0000
0000
,
1000
0000
0000
0000
,
1001
0000
0000
0000
,
0000
0000
0000
0000
,
1000
0000
0000
0000
,
0010
0000
0000
0000
,
0100
0000
0000
0000
,
0010
0000
0000
0000
,
1000
0000
0000
0000
,
0001
0000
0001
0000
,
0100
0000
0000
0000
,
0010
0000
0000
0000
,
1000
0000
0000
0000
,
0100
0000
0100
0000
,
0010
0000
0000
0000
,
1001
0000
0000
0000
,
1000
0000
0000
0000
,
0010
0000
0000
0000
,
0000
0000
0000
0000
,
0100
0000
0000
0000
,
0001
0000
0000
0000
,
0100
0000
0000
0000
,
0000
0000
0000
0000
,
0010
0000
0000
0000
,
1000
0000
0000
0000
,
0001
0000
0000
0000
,
0010
0000
0000
0000
,
0001
0000
0000
0000
,
1000
0000
0000
0000
,
0100
0000
0000
0000
,
1001
0000
0000
0000
,
0000
1000
0000
1000
,
0000
0010
0000
0000
,
0000
1000
0000
0100
,
0000
1000
0000
0000
,
0000
0001
0000
0001
,
0000
0010
0000
0000
,
0000
0001
0000
0100
,
0000
0001
0000
0000
,
0010
0000
0010
0000
,
0001
0000
0010
0000
,
0001
0000
0001
0000
,
0100
0000
0000
0000
,
0001
0000
1000
0000
,
1000
0000
0100
0000
,
1000
0000
1000
0000
,
0010
0000
0000
0000
,
1001
0000
0000
0000
,
0000
0000
0000
0000
,
1000
0000
0000
0000
,
0100
0000
0010
0000
,
0001
0000
0000
0000
,
0100
0000
0000
0000
,
0010
0000
0010
0000
,
1000
0001
1000
0000
,
2002
0000
0000
0000
,
0000
0000
0000
0000
,
0000
0000
0000
0000
,
0000
0000
0000
0000
,
0000
0000
0000
0000
,
0000
0000
0000
0000
,
3003
0000
0000
0000
;

//--------------- dance-single - forcednature ----------------
#NOTEDATA:;
#STEPSTYPE:dance-single;
#DESCRIPTION:forcednature;
#DIFFICULTY:Easy;
#METER:7;
#RADARVALUES:0,0,0,0,0;
#CREDIT:forcednature;
#NOTES:
0000
0000
0000
0000
,
0000
0000
0000
0000
,
0000
0000
0000
0000
,
1000
0001
0000
0001
,
0100
0001
0000
0001
,
0010
0100
0010
0000
,
0001
0010
0001
0000
,
0001
1000
0000
1000
,
0100
1000
0000
1000
,
0010
0100
0010
0000
,
1000
0010
1000
0000
,
0100
0010
0000
0010
,
0001
0100
0000
0100
,
0010
1000
0000
1000
,
0100
0001
0000
0001
,
0100
1000
0000
1000
,
0010
0001
0000
0001
,
0010
1000
0010
1000
,
0001
0100
0010
0000
,
1000
0100
1000
0100
,
0010
0001
0010
0001
,
1000
0010
1000
0010
,
0100
0001
0100
0001
,
0010
0100
0010
0100
,
1000
0100
1000
0100
,
0010
0001
0010
0001
,
1000
0010
0200
0000
,
0301
1000
0100
1000
,
0001
0010
0100
0010
,
0001
1000
0010
1000
,
0001
0100
0010
0100
,
0001
1000
0100
1000
,
0001
0100
0001
1000
,
0010
0010
0100
0010
,
1000
0001
0100
0010
,
2000
0000
0000
3100
,
0020
0000
0032
0000
,
0203
0000
0000
0010
0000
0010
0300
0000
,
1000
0001
0100
0001
,
0020
0000
0000
0030
,
0001
1000
0000
0100
,
1000
0010
0000
0100
,
0001
1000
0001
1000
,
0010
0100
0010
1000
,
0000
0100
0010
0001
,
0000
0100
0010
1000
,
0000
0001
0010
0001
,
0010
0100
0010
0001
,
1000
0010
0000
0100
,
0001
1000
0000
0100
,
1000
0001
0000
0100
,
0010
1000
0000
0100
,
0010
0001
0000
1000
,
0010
0100
0000
0001
,
0010
0100
0010
0100
,
2000
0000
3001
0001
,
0000
0100
0010
0110
,
0000
0001
1000
1001
,
0000
1000
0100
1001
,
0000
0001
0010
1001
,
0000
1000
0010
0110
,
0000
0001
0010
0110
,
0000
0001
1000
1001
,
0000
1000
0010
0010
,
0000
0100
0001
0100
,
0001
0010
0100
1000
,
0001
0100
0010
1000
,
0100
0010
0001
1000
,
0010
0010
0100
0010
,
1000
1000
0001
1000
,
0100
0001
0100
1000
,
0001
0010
0100
1000
,
0020
0000
0000
0030
,
0200
0000
0000
0300
,
0002
0000
0000
0003
,
2000
0000
3100
0010
,
0001
0100
0001
0100
,
0010
1000
0010
1000
,
0001
0010
1000
0010
,
0001
0001
1000
0100
,
2002
0000
0000
0000
0000
3003
0000
0000
,
2000
0000
0000
0000
0000
3000
0000
0000
,
0020
0000
0000
0000
0000
0030
0000
0000
,
0200
0000
0000
0000
0000
0300
0000
0000
,
0002
0000
0000
0000
0000
0003
0000
0000
,
0020
0000
0000
0000
0000
0030
0000
0000
,
2002
0000
0000
0000
,
0000
0000
0000
0000
,
0000
0000
0000
0000
,
3003
0000
0000
0000
;

//--------------- dance-single - forcednature ----------------
#NOTEDATA:;
#STEPSTYPE:dance-single;
#DESCRIPTION:forcednature;
#DIFFICULTY:Medium;
#METER:11;
#RADARVALUES:0,0,0,0,0;
#CREDIT:forcednature;
#NOTES:
0000
0000
0000
0000
,
0000
0000
0000
0000
,
0000
0000
0000
0010
,
1001
0000
1000
0000
0100
0010
0000
0020
,
0000
0030
0001
0000
1000
0010
0000
0020
,
0000
0030
0100
0000
0001
0000
1000
0000
,
0001
0000
0100
0000
0010
1000
0000
2000
,
0000
3000
0001
0000
0010
0100
0000
0200
,
0000
0300
1000
0000
0001
0100
0000
0020
,
0000
0030
1000
0000
0001
0000
0100
0000
,
0001
0000
1000
0000
0100
1000
0100
0000
,
0110
0000
0001
0000
1000
0010
0000
0020
,
0000
0030
0100
0000
0001
1000
0000
0200
,
0000
0300
1000
0000
0001
0010
0000
0200
,
0000
0300
0010
0000
0001
1000
0000
0020
,
0000
0030
0100
0000
0001
1000
0000
0020
,
0000
0030
0100
0000
0001
1000
0000
0200
,
0000
0300
1000
0001
1000
0000
0001
0000
,
0010
0001
0010
0000
0100
0000
0010
0000
,
0110
1100
0001
1000
,
1010
0011
0100
0001
,
0011
0101
1000
0010
,
0110
0000
0101
0000
1000
0010
1000
0000
,
0011
0000
0101
0000
1000
0001
1000
0000
,
1100
0000
1010
0000
0001
1000
0001
0000
,
0100
0001
0100
0000
0010
1000
0010
0000
,
1000
0100
1000
0000
0002
0000
0000
0003
,
0010
0000
0000
0100
0000
0000
0010
0000
0000
0001
0000
0000
1000
0000
0000
0000
,
0010
0000
0000
1000
0000
0000
0010
0000
0000
0100
0000
0000
0001
0000
0000
0000
,
1000
0000
0000
0100
0000
0000
1000
0000
0000
0001
0000
0000
0100
0000
0000
0000
,
0010
0000
0000
1000
0000
0000
0001
0000
0000
0100
0000
0000
0010
0000
0000
0000
,
1000
0000
0000
0100
0000
0000
0010
0000
0000
0100
0000
0000
1000
0000
0001
0000
,
0100
0000
0000
0010
0000
0000
0100
0000
0000
0001
0000
0000
1000
0000
0010
0000
,
0100
0001
0000
0001
0010
0001
0000
0001
,
0100
0000
0010
0000
1000
0001
1000
0000
,
1002
0000
0010
0000
0100
0000
0013
0001
,
2000
0100
3002
0103
,
2001
0000
0000
0010
0000
3010
0000
1000
,
0001
0100
0001
0100
0010
1000
0010
0000
,
2002
0000
0000
3003
,
0011
0000
1000
0000
0100
0010
0100
2000
,
0000
3000
0010
0000
1000
0001
1000
0200
,
0000
0300
0010
0000
0001
0000
0010
0100
,
0010
0000
0100
0000
1000
0001
0100
0002
,
0000
0003
1000
0000
0010
0100
0001
0200
,
0000
0300
0010
0000
1000
0001
0010
0200
,
0000
0300
0010
0000
0001
0000
1000
0000
,
0010
0000
1000
0000
0001
0100
0001
0000
,
1001
0000
1000
0000
0010
0100
0010
2000
,
0000
3000
0100
0000
1000
0001
1000
0020
,
0000
0030
0100
0000
0001
0010
0001
2000
,
0000
3000
0100
0000
0010
0001
1000
0020
,
0000
0030
0100
0000
0001
1000
0100
0020
,
0000
0030
0100
0000
1000
0001
0100
0020
,
0000
1030
0001
1000
0001
0010
0001
0000
,
2002
0000
0000
0000
3003
0000
0000
0000
1100
0000
0000
0001
0000
0000
0100
0000
,
0000
0000
0010
0000
0000
0010
0000
0000
1000
0000
0000
0001
0000
0000
0100
0001
,
0000
0000
0010
0000
0000
0010
0000
0000
0001
0000
0000
1000
0000
0000
0100
1000
,
0000
0000
0010
0000
0000
0010
0000
0000
0100
0000
0000
0001
0000
0000
1000
0100
,
0000
0000
0010
0000
0000
0010
0000
0000
0100
0000
0000
1000
0000
0000
0100
0001
,
0000
0000
0100
0000
0000
1000
0000
0000
0001
0000
0000
0010
0000
0000
0001
1000
,
0000
0000
0010
0000
0000
0100
0000
0000
0001
0000
0000
0100
0000
0000
0010
1000
,
0000
0000
0001
0000
0000
0010
0000
0000
0100
0000
0000
0010
0000
0000
0001
1000
,
0000
0000
0100
0000
0000
1000
0000
0000
0010
0000
0000
0110
0000
0000
1001
0000
,
0000
1000
0100
0010
0100
1000
0100
0000
,
0010
0001
1000
0000
0010
1000
0001
0000
,
0100
0010
0100
0001
0100
0010
1000
0000
,
0001
0010
0100
0000
1000
0010
0100
0000
,
0001
1000
0100
1000
0001
1000
0100
0000
,
1000
0001
0100
0001
1000
0001
0100
0000
,
0010
1000
0010
0000
0100
0001
0100
0000
,
0010
1000
0100
0010
0001
0100
0010
0000
,
2001
0100
0000
0100
,
3002
0010
0000
0010
,
2003
0010
0000
0010
,
3002
0000
0100
0000
1003
0010
0100
0001
,
1000
0000
0000
0100
0000
0000
0010
0000
0000
0100
0000
0000
1000
0000
0010
0000
,
0100
0000
0000
0001
0000
0000
0010
0000
0000
0001
0000
0000
0100
0000
0010
0000
,
1000
0001
1000
0001
0100
0010
0100
0010
,
1000
1000
0001
0001
0010
0100
0010
0000
,
2002
0000
0000
3003
0000
0100
0010
0002
,
0000
0000
0000
0003
0000
0100
0010
2000
,
0000
0000
0000
3000
0000
0100
1000
0002
,
0000
0000
0000
0003
0000
0100
0001
0020
,
0000
0000
0000
0030
0000
0100
1000
0020
,
0000
0000
0000
0030
0000
0100
0001
2000
,
0000
0000
0000
0000
,
0000
0000
0000
0000
,
0000
0000
0000
0000
,
3000
0000
0000
0000
;

//--------------- dance-single - forcednature ----------------
#NOTEDATA:;
#STEPSTYPE:dance-single;
#DESCRIPTION:forcednature;
#DIFFICULTY:Hard;
#METER:14;
#RADARVALUES:0,0,0,0,0;
#CREDIT:forcednature;
#NOTES:
0000
0000
0000
0000
,
0000
0000
0000
0000
,
0000
0000
0000
2000
,
3001
0010
0100
0010
0000
0100
1000
0002
,
0000
0103
0010
1000
0000
0001
0010
0200
,
0000
0310
0001
0010
0001
1000
0010
0100
,
0001
1000
0100
1000
0100
1000
0010
0002
,
0000
0013
0100
1000
0000
0100
0001
2000
,
0000
3010
0100
0001
0000
1000
0100
0002
,
0000
0103
1000
0100
1000
0010
0100
0001
,
0010
0001
1000
0001
1000
0010
0200
0000
,
0310
1000
0100
0001
0000
0100
1000
0020
,
0000
0130
0001
0010
0000
1000
0010
0002
,
0000
0103
0010
1000
0000
0001
0100
2000
,
0000
3100
0001
1000
0000
0010
1000
0200
,
0000
0301
0100
1000
0000
0001
0010
0200
,
0000
0301
0100
1000
0000
0001
0100
0020
,
0000
1030
0100
1000
0010
0100
0001
0010
,
0001
0100
0001
0100
0010
0010
2000
0000
,
3001
0000
0000
0010
0000
0000
0001
0000
0000
0001
0000
0000
0100
0000
0010
0000
,
1000
0000
0000
0100
0000
0000
1000
0000
0000
1000
0000
0000
0001
0000
0010
0000
,
0001
0000
0000
0100
0000
0000
0010
0000
0000
0010
0000
0000
1000
0000
0100
0000
,
0001
0000
0000
0100
0000
0000
1000
0000
0000
0000
0001
0000
0010
0000
0001
0000
,
0100
0000
0000
0010
0000
0000
1000
0000
0000
0100
0000
0000
1000
0000
0001
0000
,
0100
0000
0000
0010
0000
0000
1000
0000
0000
0001
0000
0000
0010
0000
0100
0000
,
1000
0000
0000
0010
0000
0000
0001
0000
0000
0010
0000
0000
1000
0000
0001
0000
,
0100
0000
0100
0000
0010
0000
1000
0000
0020
0000
0000
0000
0130
0001
0100
0000
,
0010
0000
0000
1000
0010
0000
1000
0000
0100
1000
0000
0000
0001
0000
0010
0000
,
0100
0000
0000
0010
0001
0000
0100
0000
0001
0100
0000
0000
0010
0000
1000
0000
,
0001
0000
0000
0010
0001
0000
0100
0000
0010
0100
0000
0000
0010
0000
1000
0000
,
0100
0000
0000
1000
0100
0000
1000
0000
0001
0000
0010
0000
0001
0000
0100
0000
,
0010
0000
0000
1000
0010
0000
1000
0000
0100
1000
0000
0000
0001
0000
0010
0000
,
0100
0000
0000
0010
0100
0000
0010
0000
0001
1000
0000
0000
0010
0000
0100
0000
,
0001
0000
0010
0000
0010
0000
0001
0000
0100
0000
0010
0100
0010
0000
1000
0000
,
0100
0000
0001
0000
0100
0000
1000
0000
0010
0000
0100
0010
0100
0000
0001
0000
,
0020
0000
0000
0000
0001
0000
0000
0000
0100
0000
0000
0000
0031
0000
0100
1000
,
0200
0010
2300
0001
,
3010
0100
0000
0110
0000
0001
0010
0000
,
0001
0000
1000
0000
1000
0000
0100
0000
1000
0000
0001
0000
0010
0100
0010
0100
,
2000
0000
0000
0000
0000
0000
3010
0100
,
0110
1000
0001
0100
0000
0001
0010
2000
,
0000
3010
0001
1000
0000
0100
1000
0020
,
0000
0031
0010
1000
0010
1000
0001
0100
,
0010
1000
0100
1000
0100
0001
0100
2000
,
0000
3001
0010
0100
0000
0010
0001
2000
,
0000
3010
0100
1000
0000
0100
0001
2000
,
0000
3010
0100
0010
0100
1000
0100
0001
,
0010
0000
0001
0000
0010
0000
0001
0000
1000
0000
0100
0000
0010
0000
0100
0010
,
0100
1000
0001
0100
0000
0010
1000
0002
,
0000
0013
0001
0100
0000
0001
0010
2000
,
0000
3010
0001
1000
0100
1000
0010
0002
,
0000
0013
1000
0001
0100
0001
0010
2000
,
0000
3010
0001
0100
0010
1000
0100
0002
,
0000
0103
1000
0010
0100
0001
0010
2000
,
0000
0000
3010
0000
0001
0000
0010
0000
0100
0000
0010
0100
0010
0000
0100
0000
,
2000
0000
0000
0000
3000
0000
0000
0000
0010
0000
0000
0110
0000
0000
0001
0000
,
1000
0000
0010
0000
0100
0001
0000
0100
0001
0000
0010
0001
0000
0001
0010
0000
,
0100
0000
1000
0000
0010
1000
0000
0010
1000
0000
0001
0100
0000
0100
0001
0000
,
0010
0000
0001
0000
0100
0010
0000
0100
0010
0000
1000
0100
0000
0100
1000
0000
,
0001
0000
0010
0000
0100
0010
0000
0100
0010
0000
0001
1000
0000
1000
0001
0000
,
0100
0000
0010
0000
1000
0010
0000
1000
0010
0000
0100
0001
0000
0001
0100
0000
,
0010
0000
1000
0000
0001
0010
0000
0001
0010
0000
0100
1000
0000
1000
0100
0000
,
0010
0000
0001
0000
1000
0010
0000
1000
0010
0000
1000
0001
0000
0001
1000
0000
,
0010
0000
0100
0000
0001
0100
0000
0001
0010
0000
0000
0110
0000
0000
1000
0001
,
1000
0000
0010
0000
0100
0000
0010
0000
0001
0000
0010
0000
0100
0010
0100
0000
,
0001
0000
1000
0000
0100
0000
0010
0000
0100
0000
0001
0000
0100
0010
0100
0000
,
1000
0000
0001
0000
0010
0000
0001
0000
1000
0000
0010
0000
0100
0010
0100
0000
,
0001
0000
0010
0000
1000
0000
0010
0000
0001
0000
1000
0000
0100
1000
0100
0000
,
1000
0000
1000
0000
0010
0000
0001
0000
0010
0000
1000
0010
0000
0010
0100
0000
,
0001
0000
0001
0000
0010
0000
1000
0000
0010
0000
0001
0010
0000
0010
0100
0000
,
1000
0001
0100
0010
0001
1000
0100
0001
,
1000
0000
0010
1000
0010
0000
0100
0010
0100
0000
0001
0100
0001
0000
0010
0000
,
0110
0000
0000
1000
0000
0000
0100
0000
0000
1000
0000
0000
0010
0000
1000
0000
,
0001
0000
0000
0100
0000
0000
0001
0000
0000
0010
0000
0000
0001
0000
1000
0000
,
0010
0000
0000
0100
0000
0000
0001
0000
0000
0100
0000
0000
0010
0000
1000
0000
,
0001
0000
0000
0010
0000
0000
0100
0000
0000
0000
0020
0000
0032
0000
2003
0000
,
3010
0000
0100
0001
0000
0100
0010
0000
0100
0001
0000
1000
0010
0000
0100
0000
,
0001
0000
1000
0100
0000
0010
0100
0000
1000
0001
0000
0010
0001
0000
0100
0000
,
0010
0000
1000
0010
1000
0000
0100
1000
0100
0000
0010
0001
0010
0000
0001
0000
,
0100
0000
0010
0000
0100
0000
0001
0000
0010
0000
0010
0000
0001
1000
0001
1000
,
0002
0000
0000
0003
0000
1000
0100
0020
,
0000
0000
0000
0030
0000
0100
1000
0002
,
0000
0000
0000
0003
0000
0100
0010
2000
,
0000
0000
0000
3000
0000
0001
0010
0200
,
0000
0000
0000
0300
0000
1000
0010
0200
,
0000
0000
0000
0300
0000
0001
1000
0020
,
0000
0000
0000
0000
,
0000
0000
0000
0000
,
0000
0000
0000
0000
,
0030
0000
0000
0000
;

//--------------- dance-double - forcednature ----------------
#NOTEDATA:;
#STEPSTYPE:dance-double;
#DESCRIPTION:forcednature;
#DIFFICULTY:Easy;
#METER:8;
#RADARVALUES:0,0,0,0,0;
#CREDIT:forcednature;
#NOTES:
00000000
00000000
00000000
00000000
,
00000000
00000000
00000000
00000000
,
00000000
00000000
00000000
00000000
,
00001000
00010000
00000000
00010000
,
00000100
00010000
00000000
00010000
,
00001000
00100000
00001000
00000000
,
00100000
00010000
00100000
00000000
,
01000000
10000000
00000000
10000000
,
00100000
10000000
00000000
10000000
,
01000000
00100000
01000000
00000000
,
00100000
00001000
00010000
00000000
,
00000100
00001000
00000000
00001000
,
00000010
00000100
00000000
00000100
,
00000001
00001000
00000000
00001000
,
00000100
00010000
00000000
00010000
,
00001000
00100000
00000000
00100000
,
00010000
01000000
00000000
01000000
,
00100000
10000000
00100000
10000000
,
00010000
01000000
00100000
00000000
,
10000000
01000000
10000000
01000000
,
00100000
00010000
00100000
00001000
,
00010000
00001000
00010000
00000100
,
00001000
00000100
00001000
00000010
,
00000100
00000001
00000100
00000001
,
00000010
00000100
00000010
00000100
,
00001000
00000010
00001000
00000010
,
00010000
00001000
00020000
00000000
,
00031000
00100000
00010000
00100000
,
00001000
01000000
00010000
01000000
,
00001000
00100000
00010000
00100000
,
00001000
00010000
00000100
00000000
,
00001000
00000010
00010000
00000010
,
00001000
00000100
00010000
00000100
,
00001000
00001000
00000001
00001000
,
00000010
00000100
00001000
00010000
,
00200000
00000000
00000000
00300000
,
20000000
00000000
30020000
00000000
,
00230000
00000000
00000000
01000000
00000000
01000000
00300000
00000000
,
00100000
00001000
00010000
00000100
,
00002000
00000000
00000000
00003000
,
00000001
00000100
00000000
00000001
,
00001000
00000001
00000000
00001000
,
00000100
00010000
00000100
00010000
,
00001000
00100000
00001000
00100000
,
00000000
00010000
01000000
00010000
,
00000000
01000000
00100000
10000000
,
00000000
01000000
00100000
01000000
,
00100000
00010000
00100000
00001000
,
00010000
00001000
00000000
00010000
,
00000100
00001000
00000000
00000010
,
00001000
00000001
00000000
00000010
,
00000001
00001000
00000000
00000100
,
00010000
00001000
00000000
01000000
,
00001000
00010000
00000000
00001000
,
00100000
00010000
00100000
00010000
,
20000000
00000000
30100000
00100000
,
00000000
01000000
00010000
10010000
,
00000000
00010000
00100000
00110000
,
00000000
00001000
00010000
00011000
,
00000000
00000100
00001000
00001001
,
00000000
00000001
00000100
00000110
,
00000000
00001000
00000100
00001100
,
00000000
00010000
00001000
00011000
,
00000000
01000000
00010000
00010000
,
00000000
00100000
00010000
00100000
,
00001000
00010000
00000100
00001000
,
00000100
00010000
00001000
00010000
,
00000010
00001000
00000001
00000100
,
00000010
00000010
00001000
00000100
,
00010000
00010000
00001000
01000000
,
00010000
00100000
01000000
10000000
,
01000000
00100000
00001000
00010000
,
00000200
00000000
00000000
00000300
,
00002000
00000000
00000000
00003000
,
00000002
00000000
00000000
00000003
,
00000200
00000000
00000310
00001000
,
00000100
00010000
00000100
00010000
,
00001000
00100000
00001000
00100000
,
00010000
01000000
00100000
10000000
,
01000000
01000000
00100000
00001000
,
00022000
00000000
00000000
00000000
00000000
00033000
00000000
00000000
,
00000200
00000000
00000000
00000000
00000000
00000300
00000000
00000000
,
00002000
00000000
00000000
00000000
00000000
00003000
00000000
00000000
,
00000020
00000000
00000000
00000000
00000000
00000030
00000000
00000000
,
00000200
00000000
00000000
00000000
00000000
00000300
00000000
00000000
,
00002000
00000000
00000000
00000000
00000000
00003000
00000000
00000000
,
00022000
00000000
00000000
00000000
,
00000000
00000000
00000000
00000000
,
00000000
00000000
00000000
00000000
,
00033000
00000000
00000000
00000000
;

//--------------- dance-double - forcednature ----------------
#NOTEDATA:;
#STEPSTYPE:dance-double;
#DESCRIPTION:forcednature;
#DIFFICULTY:Medium;
#METER:11;
#RADARVALUES:0,0,0,0,0;
#CREDIT:forcednature;
#NOTES:
00000000
00000000
00000000
00000000
,
00000000
00000000
00000000
00000000
,
00000000
00000000
00000000
00020000
,
00031000
00000000
01000000
00000000
00010000
00100000
00000000
00200000
,
00000000
00300000
01000000
00000000
10000000
00010000
00000000
00020000
,
00000000
00030000
00100000
00000000
00001000
00000000
00010000
00000000
,
00000100
00000000
00010000
00000000
00001000
00010000
00000000
00020000
,
00000000
00030000
00000100
00000000
00001000
00000010
00000000
00000020
,
00000000
00000030
00000100
00000000
00000001
00001000
00000000
00000200
,
00000000
00000300
00010000
00000000
00001000
00000000
00100000
00000000
,
00001000
00000000
00010000
00000000
00000100
00001000
00000100
00000000
,
00011000
00000000
01000000
00000000
00010000
10000000
00000000
20000000
,
00000000
30000000
00100000
00000000
01000000
00010000
00000000
00200000
,
00000000
00300000
00001000
00000000
00010000
00000100
00000000
00002000
,
00000000
00003000
00000010
00000000
00000100
00000001
00000000
00000020
,
00000000
00000030
00000100
00000000
00010000
00001000
00000000
00200000
,
00000000
00300000
00010000
00000000
01000000
00100000
00000000
20000000
,
00000000
30000000
01000000
10000000
01000000
00000000
00100000
01000000
,
00100000
00000000
00010000
00100000
00010000
00000000
00100000
00000000
,
00011000
00000100
00001000
00000010
,
00000110
00001000
00000100
00010000
,
00011000
01000000
00010000
00100000
,
01100000
00000000
01000000
00000000
10000000
00010000
10000000
00000000
,
00110000
00000000
00100000
00000000
00001000
00010000
00001000
00000000
,
00011000
00000000
00000100
00000000
00001000
00000010
00001000
00000000
,
00000010
00000100
00000010
00000000
00000100
00000001
00000100
00000000
,
00000001
00001000
00000001
00000000
00000020
00000000
00000000
00000030
,
00000100
00000000
00000000
00001000
00000000
00000000
00000100
00000000
00000000
00010000
00000000
00000000
00001000
00000000
00000000
00000000
,
01000000
00000000
00000000
00010000
00000000
00000000
01000000
00000000
00000000
00100000
00000000
00000000
10000000
00000000
00000000
00000000
,
01000000
00000000
00000000
00100000
00000000
00000000
00010000
00000000
00000000
00100000
00000000
00000000
00001000
00000000
00000000
00000000
,
00010000
00000000
00000000
00000100
00000000
00000000
00001000
00000000
00000000
00000100
00000000
00000000
00000010
00000000
00000000
00000000
,
00000100
00000000
00000000
00001000
00000000
00000000
00000001
00000000
00000000
00001000
00000000
00000000
00000010
00000000
00001000
00000000
,
00000010
00000000
00000000
00010000
00000000
00000000
00001000
00000000
00000000
00010000
00000000
00000000
00001000
00000000
01000000
00000000
,
00010000
00000000
00010000
00000000
10000000
00100000
01000000
00010000
,
10000000
00000000
01000000
00000000
00100000
01000000
00100000
00000000
,
00020000
00000000
00100000
00000000
10000000
00000000
01030000
00010000
,
00200000
00301000
00020000
00030100
,
00012000
00000000
00000000
00100000
00000000
00103000
00000000
00000000
,
00001000
00010000
00001000
00010000
00000100
00001000
00000010
00000000
,
00000220
00000000
00000000
00000330
,
00001001
00000000
00001000
00000000
00000100
00010000
00000000
00002000
,
00000000
00003000
00100000
00000000
00010000
01000000
00000000
00200000
,
00000000
00300000
10000000
00000000
01000000
00000000
10000000
00010000
,
10000000
00000000
00010000
00000000
00100000
00001000
00000000
00020000
,
00000000
00030000
00000100
00000000
00001000
00000010
00000000
00000200
,
00000000
00000300
00000001
00000000
00001000
00000100
00000000
00000020
,
00000000
00000030
00000001
00000000
00000100
00000000
00001000
00000000
,
00010000
01000000
10000000
00010000
,
10010000
00000000
10000000
00000000
00010000
00100000
00000000
00002000
,
00000000
00003000
00010000
00000000
00000100
00001000
00000000
00000020
,
00000000
00000030
00000100
00000000
00000001
00001000
00000000
00000200
,
00000000
00000300
00010000
00000000
00001000
00100000
00000000
00020000
,
00000000
00030000
01000000
00000000
00100000
10000000
00000000
02000000
,
00000000
03000000
00100000
00000000
00001000
00010000
00000000
00000200
,
00000000
00001300
00000001
00001000
00000001
00000100
00000001
00000000
,
00000220
00000000
00000000
00000000
00000330
00000000
00000000
00000000
00000001
00000000
00000000
00000100
00000000
00000000
00001000
00000000
,
00000000
00000000
00010000
00000000
00000000
00010000
00000000
00000000
00001000
00000000
00000000
00100000
00000000
00000000
00010000
00100000
,
00000000
00000000
01000000
00000000
00000000
00100000
00000000
00000000
01000000
00000000
00000000
10000000
00000000
00000000
01000000
10000000
,
00000000
00000000
00010000
00000000
00000000
01000000
00000000
00000000
00010000
00000000
00000000
00100000
00000000
00000000
00001000
00010000
,
00000000
00000000
00000100
00000000
00000000
00000100
00000000
00000000
00001000
00000000
00000000
00000010
00000000
00000000
00000100
00000001
,
00000000
00000000
00000010
00000000
00000000
00000001
00000000
00000000
00000010
00000000
00000000
00000100
00000000
00000000
00001000
00000100
,
00000000
00000000
00010000
00000000
00000000
00001000
00000000
00000000
00100000
00000000
00000000
00001000
00000000
00000000
00010000
00001000
,
00000000
00000000
01000000
00000000
00000000
00010000
00000000
00000000
01000000
00000000
00000000
00100000
00000000
00000000
10000000
00010000
,
00000000
00000000
00100000
00000000
00000000
00001000
00000000
00000000
00010000
00000000
00000000
00001000
00000000
00000000
00011000
00000000
,
00000000
00000100
00001000
00000010
00001000
00000100
00001000
00000000
,
00000010
00010000
00001000
00000000
00100000
00001000
00010000
00000000
,
00000100
00001000
00000100
00010000
00001000
00010000
00001000
00000000
,
00100000
00010000
01000000
00000000
00100000
10000000
01000000
00000000
,
00100000
00010000
00100000
00010000
00100000
00001000
00010000
00000000
,
00000010
00001000
00000010
00001000
00000010
00010000
00001000
00000000
,
01000000
00010000
01000000
00000000
00100000
10000000
00100000
00000000
,
10000000
01000000
00100000
00000000
00001000
00000000
00011000
00000000
,
00000200
00001000
00000000
00001300
,
00020000
00001000
00000000
00031000
,
00000020
00001000
00000000
00001030
,
00020000
00000000
00001000
00000000
00030100
00001000
00000100
00000010
,
00000000
00000000
00000000
00000001
00000000
00000000
00000100
00000000
00000000
00001000
00000000
00000000
00010000
00000000
00000000
00000000
,
00100000
00000000
00000000
01000000
00000000
00000000
00100000
00000000
00000000
10000000
00000000
00000000
00010000
00000000
00000000
00000000
,
00100000
00010000
00100000
00010000
01000000
00010000
01000000
00010000
,
00100000
00001000
00010000
00001000
00010000
00000100
00001000
00000000
,
00002002
00000000
00000000
00003003
00000000
00000001
00000100
00000020
,
00000000
00000000
00000000
00000030
00000000
00001000
00000100
00020000
,
00000000
00000000
00000000
00030000
00000000
00001000
01000000
00020000
,
00000000
00000000
00000000
00030000
00000000
01000000
00100000
20000000
,
00000000
00000000
00000000
30000000
00000000
01000000
00100000
00020000
,
00000000
00000000
00000000
00030000
00000000
01000000
00001000
00020000
,
00000000
00000000
00000000
00000000
,
00000000
00000000
00000000
00000000
,
00000000
00000000
00000000
00000000
,
00030000
00000000
00000000
00000000
;

//--------------- dance-double - forcednature ----------------
#NOTEDATA:;
#STEPSTYPE:dance-double;
#DESCRIPTION:forcednature;
#DIFFICULTY:Hard;
#METER:14;
#RADARVALUES:0,0,0,0,0;
#CREDIT:forcednature;
#NOTES:
00000000
00000000
00000000
00000000
,
00000000
00000000
00000000
00000000
,
00000000
00000000
00000000
00002000
,
00103000
00010000
00100000
01000000
00000000
10000000
00010000
02000000
,
00000000
03100000
10000000
00010000
00000000
00100000
00001000
00020000
,
00000000
00030100
00001000
00000100
00001000
00000010
00000100
00000001
,
00000010
00000100
00001000
00000100
00001000
00000010
00010000
00002000
,
00000000
00103000
00010000
01000000
00000000
00100000
10000000
00020000
,
00000000
00130000
01000000
00010000
00000000
00001000
00000010
00000002
,
00000000
00000103
00000010
00000100
00000010
00001000
00000100
00010000
,
00001000
01000000
00010000
01000000
00010000
10000000
00200000
00000000
,
10300000
01000000
00100000
01000000
00000000
00100000
00001000
00020000
,
00000000
00030100
00001000
00000010
00000000
00001000
00000100
00000002
,
00000000
00000103
00001000
00000010
00000000
00010000
00001000
00000020
,
00000000
00001030
00010000
00000100
00000000
00010000
00001000
02000000
,
00000000
03010000
00100000
01000000
00000000
00010000
01000000
20000000
,
00000000
30100000
01000000
00010000
00000000
00100000
00001000
00020000
,
00000000
00030010
00001000
00000100
00010000
00001000
00010000
00000010
,
00001000
00000001
00000010
00000001
00000100
00000100
00000020
00000000
,
00001030
00000000
00000000
00000100
00000000
00000000
00010000
00000000
00000000
00010000
00000000
00000000
00001000
00000000
01000000
00000000
,
00010000
00000000
00000000
00100000
00000000
00000000
01000000
00000000
00000000
01000000
00000000
00000000
00100000
00000000
00010000
00000000
,
10000000
00000000
00000000
00100000
00000000
00000000
01000000
00000000
00000000
01000000
00000000
00000000
10000000
00000000
01000000
00000000
,
00010000
00000000
00000000
00100000
00000000
00000000
00001000
00000000
00000000
00000000
00010000
00000000
00000100
00000000
00001000
00000000
,
00000010
00000000
00000000
00000100
00000000
00000000
00001000
00000000
00000000
00000100
00000000
00000000
00000001
00000000
00001000
00000000
,
00000010
00000000
00000000
00001000
00000000
00000000
00000100
00000000
00000000
00010000
00000000
00000000
00001000
00000000
00100000
00000000
,
00010000
00000000
00000000
01000000
00000000
00000000
10000000
00000000
00000000
01000000
00000000
00000000
00010000
00000000
00100000
00000000
,
00001000
00000000
00001000
00000000
00010000
00000000
00000100
00000000
00002000
00000000
00000000
00000000
00003010
00000100
00000010
00000000
,
00000100
00000000
00000000
00000001
00000100
00000000
00000001
00000000
00000010
00000001
00000000
00000000
00000010
00000000
00000100
00000000
,
00001000
00000000
00000000
00000100
00010000
00000000
00001000
00000000
00010000
00001000
00000000
00000000
00100000
00000000
00010000
00000000
,
01000000
00000000
00000000
00100000
10000000
00000000
01000000
00000000
10000000
01000000
00000000
00000000
00100000
00000000
00001000
00000000
,
00010000
00000000
00000000
00001000
00010000
00000000
00000100
00000000
00001000
00000000
00000010
00000000
00000100
00000000
00000001
00000000
,
00000010
00000000
00000000
00000001
00000010
00000000
00000100
00000000
00000010
00000100
00000000
00000000
00001000
00000000
00000100
00000000
,
00010000
00000000
00000000
00001000
00010000
00000000
00001000
00000000
00100000
00010000
00000000
00000000
01000000
00000000
00100000
00000000
,
10000000
00000000
01000000
00000000
01000000
00000000
10000000
00000000
00100000
00000000
01000000
00100000
01000000
00000000
00010000
00000000
,
00100000
00000000
01000000
00000000
00010000
00000000
00001000
00000000
00010000
00000000
00000100
00001000
00000100
00000000
00001000
00000000
,
00000020
00000000
00000000
00000000
00000100
00000000
00000000
00000000
00001000
00000000
00000000
00000000
00000130
00000000
00000001
00000100
,
00000002
00000010
00002003
00000010
,
00003100
00010000
00000000
00011000
00000000
00100000
00010000
00000000
,
01000000
00000000
00010000
00000000
00010000
00000000
01000000
00000000
00100000
00000000
10000000
00000000
00010000
10000000
00010000
10000000
,
00020000
00000000
00000000
00000000
00000000
00000000
00130000
01000000
,
01100000
10000000
00010000
01000000
00000000
00010000
00100000
02000000
,
00000000
03100000
00001000
00010000
00000000
00000010
00001000
00000200
,
00000000
00000310
00000001
00000010
00000001
00000100
00000010
00001000
,
00000100
00010000
00001000
00010000
00001000
01000000
00010000
00200000
,
00000000
01300000
10000000
00010000
00000000
01000000
00100000
20000000
,
00000000
31000000
00100000
00001000
00000000
00010000
00000100
00000020
,
00000000
00000130
00001000
00000100
00001000
00000010
00000100
00000001
,
00000010
00000000
00000100
00000000
00000010
00000000
00000100
00000000
00001000
00000000
00000100
00000000
00010000
00000000
00001000
00010000
,
00001000
01000000
00010000
01000000
00000000
00100000
10000000
00020000
,
00000000
00130000
01000000
10000000
00000000
01000000
00010000
00002000
,
00000000
00003010
00000100
00001000
00000010
00001000
00000001
00000020
,
00000000
00000031
00000100
00001000
00010000
00001000
00010000
00200000
,
00000000
10300000
00010000
01000000
00100000
10000000
01000000
00020000
,
00000000
00031000
00100000
00001000
00010000
00000100
00010000
00002000
,
00000000
00000000
00003010
00000000
00000100
00000000
00000010
00000000
00000001
00000000
00001000
00000001
00001000
00000000
00000010
00000000
,
00000200
00000000
00000000
00000000
00000300
00000000
00000000
00000000
00000010
00000000
00000000
00000110
00000000
00000000
00001000
00000001
,
00001000
00000000
00000100
00000000
00010000
00001000
00000000
00010000
00001000
00000000
00100000
00010000
00000000
00010000
00100000
00000000
,
01000000
00000000
10000000
00000000
00100000
10000000
00000000
00100000
10000000
00000000
00010000
01000000
00000000
01000000
00010000
00000000
,
00100000
00000000
00010000
00000000
01000000
00010000
00000000
01000000
00010000
00000000
00100000
00001000
00000000
00001000
00100000
00000000
,
00010000
00000000
01000000
00000000
00001000
00010000
00000000
00001000
00010000
00000000
00000100
00001000
00000000
00001000
00000100
00000000
,
00000010
00000000
00000001
00000000
00000100
00000001
00000000
00000100
00000001
00000000
00001000
00000010
00000000
00000010
00001000
00000000
,
00000100
00000000
00010000
00000000
00001000
00010000
00000000
00001000
00100000
00000000
00010000
00100000
00000000
00100000
00010000
00000000
,
01000000
00000000
00100000
00000000
10000000
01000000
00000000
10000000
01000000
00000000
10000000
00010000
00000000
00010000
10000000
00000000
,
00100000
00000000
01000000
00000000
00010000
00100000
00000000
00100000
00001000
00000000
00000000
00011000
00000000
00000000
00010000
00001000
,
00010000
00001000
00000010
00000100
00000010
00001000
00010000
00001000
,
00000100
00000010
00000100
00001000
00010000
00100000
01000000
00100000
,
10000000
01000000
00010000
00001000
00000100
00000001
00000010
00001000
,
00000010
00000001
00000100
00001000
00010000
01000000
10000000
00100000
,
10000000
00000000
10000000
00000000
01000000
00000000
01000000
00000000
10000000
00000000
10000000
00010000
00000000
00010000
00100000
00000000
,
00001000
00000000
00001000
00000000
00010000
00000000
00010000
00000000
00000100
00000000
00000100
00001000
00000000
00001000
00000010
00000000
,
00000100
00000001
00000010
00000001
00000100
00001000
00010000
01000000
,
10000000
00100000
00010000
00100000
10000000
01000000
00010000
00001000
,
00011000
00000000
00000000
00000100
00000000
00000000
00010000
00000000
00000000
00001000
00000000
00000000
00010000
00000000
00000010
00000000
,
00001000
00000000
00000000
00000001
00000000
00000000
00000100
00000000
00000000
00000001
00000000
00000000
00000010
00000000
00001000
00000000
,
00010000
00000000
00000000
00000100
00000000
00000000
00010000
00000000
00000000
00001000
00000000
00000000
00100000
00000000
00001000
00000000
,
00010000
00000000
00000000
01000000
00000000
00000000
10000000
00000000
00000000
00000000
00200000
00000000
02300000
00000000
03020000
00000000
,
00130000
00000000
00010000
00100000
00000000
00001000
00100000
00000000
00010000
00100000
00000000
00001000
00010000
00000000
00000100
00000000
,
00001000
00000000
00000010
00001000
00000000
00000010
00000100
00000000
00000010
00001000
00000000
00000001
00000100
00000000
00001000
00000000
,
00010000
00000000
00001000
00010000
00000000
00001000
00100000
00000000
00010000
00100000
00000000
01000000
00100000
00000000
01000000
00000000
,
10000000
00000000
10000000
00000000
00010000
00000000
01000000
00000000
00010000
00000000
00100000
00000000
00001000
00010000
00001000
00010000
,
00002000
00000000
00000000
00003000
00000000
00000010
00000100
00002000
,
00000000
00000000
00000000
00003000
00000000
00000001
00000100
00002000
,
00000000
00000000
00000000
00003000
00000000
00010000
00100000
20000000
,
00000000
00000000
00000000
30000000
00000000
01000000
00100000
00002000
,
00000000
00000000
00000000
00003000
00000000
00010000
00000100
00000020
,
00000000
00000000
00000000
00000030
00000000
00000100
00001000
00000002
,
00000000
00000000
00000000
00000000
,
00000000
00000000
00000000
00000000
,
00000000
00000000
00000000
00000000
,
00000003
00000000
00000000
00000000
;
