#VERSION:0.83;
#TITLE:Warrior;
#SUBTITLE:;
#ARTIST:DJ CHUCKY feat. Jonjo;
#TITLETRANSLIT:;
#SUBTITLETRANSLIT:;
#ARTISTTRANSLIT:;
#GENRE:MAINSTREAM HARDCORE;
#CREDIT:;
#MUSIC:Warrior.ogg;
#BANNER:Warrior.png;
#BACKGROUND:Warrior-bg.png;
#CDTITLE:./CDTitles/bm IIDX 24 SINOBUZ.png;
#SAMPLESTART:98.366;
#SAMPLELENGTH:15.000;
#SELECTABLE:YES;
#OFFSET:0.365;
#BPMS:0.000=175.000
,96.000=87.500
,129.000=175.000
;
#STOPS:255.000=0.686;
#TIMESIGNATURES:0.000=4=4,
96.000=2=4,
98.000=4=4,
126.000=5=4,
131.000=4=4,
255.000=2=4,
257.000=4=4
;
#BGCHANGES:-0.500=Warrior.mp4=1.000=0=0=0=StretchNoLoop====,
99999.000=-nosongbg-=1.000=0=0=0=StretchNoLoop====
;
#FGCHANGES:;

//--------------- dance-single - forcednature ----------------
#NOTEDATA:;
#STEPSTYPE:dance-single;
#DESCRIPTION:forcednature;
#CREDIT:forcednature;
#DIFFICULTY:Beginner;
#METER:4;
#RADARVALUES:0,0,0,0,0;
#NOTES:
0000
0000
0000
0000
,
0000
0000
0000
0000
,
0000
0000
0000
0000
,
0000
0000
0000
0000
,
0000
0000
0000
0000
,
0000
0000
0000
0000
,
0000
0000
0000
0000
,
0000
0000
0000
0000
,
0000
0000
0000
0000
,
0001
0000
0001
0000
,
0001
0000
0000
0000
,
1000
0000
1000
0000
,
0001
0000
1000
0000
,
0010
0000
0000
0000
,
0110
0000
0000
0000
,
1001
0000
1001
0000
,
0000
0000
0000
0000
,
0001
0000
0010
0000
,
0000
0001
0010
0000
,
0001
0000
0100
0000
,
0100
0000
0001
0000
,
1000
0000
0100
0000
,
0000
1000
0100
0000
,
0010
0010
0010
0010
,
0000
0000
0002
0000
,
0000
0000
0000
0000
,
0000
0003
2000
0000
,
0000
0000
0000
0000
,
0000
3000
0020
0000
,
0000
0000
0000
0000
,
0000
0030
0200
0000
,
0000
0000
0000
0000
,
0000
0300
0000
0001
,
0000
1000
0000
0001
,
0000
0000
0000
0010
,
0000
0100
0000
0010
,
0010
0001
0000
1000
,
0000
0001
0000
1000
,
0000
0000
0000
0010
,
0000
0100
0000
0010
,
0010
1000
0000
0001
,
0000
1000
0000
0001
,
0000
0000
0000
0100
,
0000
0010
0000
0100
,
0100
0001
0000
1000
,
0000
0001
0000
1000
,
0000
0000
0000
0100
,
0000
0010
0000
1001
,
0000
0000
0000
1000
,
0000
0100
0000
1000
,
0000
0100
0000
0010
,
0000
0001
0000
0010
,
0000
0001
0000
0100
,
0000
0010
0000
0100
,
0000
0010
0000
1000
,
0000
0001
0000
1000
,
0000
0001
0000
0000
,
1001
0000
0000
0000
,
0110
0000
0000
0000
,
1001
0000
0000
0000
,
0110
0000
0000
0000
,
1001
0000
0000
0000
,
0110
0000
0000
0000
,
1001
0000
0000
1001
,
0000
0001
0000
0001
,
0000
0100
0001
0100
,
0000
0010
0000
0010
,
0000
0100
0010
0100
,
0000
0010
0000
0010
,
0000
1000
0010
1000
,
0000
0001
0000
1000
,
0000
2002
0000
0000
,
3003
0000
1000
0100
,
0000
1000
0000
0010
,
0000
0100
0010
0100
,
0000
0001
0000
0100
,
0000
1001
0000
0110
,
0000
1001
0000
0110
,
0000
2002
0000
3003
,
0000
0220
0000
0330
,
0000
1001
0000
0000
;

//--------------- dance-single - forcednature ----------------
#NOTEDATA:;
#STEPSTYPE:dance-single;
#DESCRIPTION:forcednature;
#CREDIT:forcednature;
#DIFFICULTY:Easy;
#METER:7;
#RADARVALUES:0,0,0,0,0;
#NOTES:
0000
0000
0000
0000
,
0000
0000
0000
0000
,
0000
0000
0000
0000
,
0000
0000
0000
0000
,
0000
0000
0000
0000
,
0001
0000
1000
0000
,
0001
0000
1000
0000
,
0010
0000
0100
0000
,
0002
0000
0000
0003
,
1000
1000
0100
1000
,
0001
1000
0010
1000
,
0000
0001
0100
0001
,
1000
0001
0010
0001
,
1001
0000
0100
0000
,
1001
0000
0100
0000
,
1001
0000
0110
0000
,
2000
0000
0000
3000
,
0001
0100
0001
0010
,
0100
1000
0010
1000
,
0001
0100
0001
0010
,
0100
1000
0020
0030
,
1000
0100
1000
0010
,
0100
0001
0010
0001
,
1000
1000
0001
0001
,
0200
0000
0320
0000
,
0000
0030
2000
0000
,
0000
3000
0002
0000
,
0000
0003
0200
0000
,
0000
0300
0002
0000
,
0000
0003
0020
0000
,
0000
0030
0200
0000
,
0000
0300
2000
0000
,
0000
3000
0000
0001
,
0000
0001
0100
0001
,
1000
0010
0000
1000
,
0001
1000
0000
1001
,
0000
0110
0000
1000
,
0000
1000
0100
1000
,
0001
0010
0000
0001
,
1000
0001
0000
1001
,
0000
0110
0000
0001
,
0000
0001
0010
0001
,
1000
0100
0000
1000
,
0001
1000
0000
1001
,
0000
0110
0000
1000
,
0000
1000
0010
1000
,
0001
0100
0000
0010
,
0010
0010
0000
2002
,
0000
0000
3003
1000
,
0100
1000
0001
1000
,
0010
1000
0001
0010
,
0001
1000
0001
0100
,
0001
1000
0001
0010
,
0100
1000
0100
0010
,
0100
1000
0100
0010
,
0001
1000
0001
0010
,
0010
0020
0030
0001
,
0100
1000
0100
0001
,
0100
1000
0100
0001
,
1000
0010
0100
0001
,
1000
0010
0100
0001
,
1000
0010
0001
0010
,
1000
0010
0001
0010
,
1000
0100
1000
1001
,
0000
0001
0010
0100
,
0110
0010
0001
1000
,
0001
0100
0001
1000
,
1001
0001
0100
0010
,
1000
0100
1000
0010
,
0110
0100
0001
1000
,
0100
1000
0001
0010
,
0110
2002
0000
0000
,
3003
0000
1001
1000
,
0010
0110
0100
0001
,
0010
1001
0001
0100
,
0010
0110
1000
0100
,
0010
2002
3003
0220
,
0330
2002
3003
0220
,
0330
2002
3003
0010
,
0010
0220
0000
0000
,
0330
1001
0000
0000
;

//--------------- dance-single - forcednature ----------------
#NOTEDATA:;
#STEPSTYPE:dance-single;
#DESCRIPTION:forcednature;
#CREDIT:forcednature;
#DIFFICULTY:Medium;
#METER:10;
#RADARVALUES:0,0,0,0,0;
#NOTES:
0000
0000
0000
0000
,
0000
0000
0000
0000
,
0000
0000
0000
0000
,
0000
0000
0000
0000
,
0000
0000
0000
0000
,
1000
0001
1000
0001
,
0100
0010
0100
0010
,
1000
0001
1000
0001
,
0020
0100
0100
0130
,
0000
0010
0001
0000
0100
0000
0100
0000
,
0010
0100
0010
0000
1000
0010
1000
0000
,
0000
0100
1000
0000
0010
0000
0010
0000
,
0100
0010
0100
0000
0001
0100
0001
0000
,
1001
1000
0100
0010
,
1001
0001
0100
0010
,
1001
0100
1001
0010
,
0000
0001
1000
0001
1000
0000
0100
0000
,
0110
0000
1000
0000
0010
0000
0100
0010
,
0100
0000
0001
0000
0010
0000
0100
0010
,
0100
0000
1000
0000
0010
0000
0100
0010
,
0100
0000
0001
0001
1000
0000
0001
0000
,
1001
0000
1000
0000
0100
0000
0010
0100
,
0010
0000
0001
0000
1000
0000
0010
1000
,
0010
0110
0001
0110
,
2000
0000
3001
0010
,
0001
0100
0001
1000
,
0001
0100
0010
1000
,
0100
1000
0001
1000
,
0100
1000
0010
0100
,
0010
1000
0010
0001
,
0010
1000
0100
0010
,
0100
1000
0100
0001
,
0100
2000
0000
3001
,
0000
0100
0000
0000
0001
0000
0010
0000
,
0100
0010
0100
0010
0000
0000
0001
1000
,
0001
1000
0010
0100
,
0110
1001
0000
1000
,
0000
0100
0000
0000
1000
0000
0010
0000
,
0100
0010
0100
0010
0000
0000
1000
0001
,
1000
0001
0010
0110
,
1000
0001
1000
0000
0000
0000
0001
0000
,
0001
0100
0000
0100
0001
0000
0010
0000
,
0100
0010
0100
1000
0000
0000
0001
1000
,
0001
1000
0010
0100
,
0110
1001
0000
1000
,
1000
0100
0000
0100
1000
0000
0010
0000
,
0100
0010
0100
0001
0000
0000
1000
0001
,
1000
0001
0010
2002
,
0000
0000
3003
1001
,
0101
1000
0010
0110
,
0101
0001
1000
1100
,
1001
0001
0010
0110
,
1100
0000
1000
0001
1000
0000
1010
0000
,
0110
0100
0001
0011
,
1001
1000
0100
0110
,
1001
0001
0100
0110
,
1001
0220
0330
1001
,
2100
3001
1000
1001
,
0102
1003
0001
0011
,
2001
0010
3001
1010
,
1002
0010
1003
1100
,
2010
0100
3001
0101
,
0012
0100
1003
1010
,
0012
1000
0103
1001
,
0000
1100
1001
0011
,
1000
0001
1000
0000
0010
0100
0010
0000
,
1000
1100
0101
1100
,
0001
1000
0001
0000
0100
0001
0100
0000
,
0010
1010
1100
1010
,
0010
0100
0010
0000
0100
0001
1000
0000
,
0100
0110
0011
0110
,
1000
2002
0000
0003
,
3010
0000
0000
0100
0100
0000
0110
0000
,
0101
0000
1001
0000
1000
0100
0010
0000
,
0100
1000
0001
0000
0011
0000
1001
0000
,
1010
0000
1001
0000
0001
0010
0100
0000
,
1000
1002
0103
2001
,
3010
1002
0103
2001
,
3010
0000
0110
0000
0100
0001
0100
0001
,
1000
0220
0000
0000
,
0330
1001
0000
0000
;

//--------------- dance-single - forcednature ----------------
#NOTEDATA:;
#STEPSTYPE:dance-single;
#DESCRIPTION:forcednature;
#CREDIT:forcednature;
#DIFFICULTY:Hard;
#METER:15;
#RADARVALUES:0,0,0,0,0;
#NOTES:
0000
0000
0000
0000
,
0000
0000
0000
0000
,
0000
0000
0000
0000
,
0000
0000
0000
0000
,
0000
0000
0000
0000
,
0001
0001
1000
1000
,
0001
0001
1000
1000
,
0010
0010
0100
0100
,
1002
0000
0000
0000
0100
0000
0000
0000
1003
0000
0000
0001
1000
0000
0010
0000
,
0000
0100
0010
0100
0001
0100
1000
0100
,
0001
0100
0010
1000
0001
0010
0100
0110
,
0000
0010
0100
1000
0100
0010
0001
0100
,
1000
0000
0100
0000
0001
0000
0100
0000
0010
0100
0010
0000
1000
0000
0000
0000
,
1002
0000
0103
0010
0100
1000
0100
0001
,
2001
0000
3100
0010
0100
0001
0100
1000
,
1002
0000
0103
0010
2001
0000
3100
0010
,
0000
0001
0001
1000
0001
0000
1001
0000
,
1000
0000
0010
0000
0100
0010
0100
0000
0001
0000
0100
0000
0010
0000
1000
0000
,
0001
0000
0010
0000
0100
0010
0100
0000
1000
0000
0001
0000
0010
0000
0010
0000
,
0001
0000
1000
0000
0010
1000
0010
0000
0100
0000
0001
0000
0010
0000
0100
0000
,
1000
0000
0001
0000
0100
0001
0100
0001
0100
0000
0010
0100
0010
0000
1000
0000
,
0001
0000
0001
0000
1000
0001
1000
0000
0010
0000
0100
0000
0001
0000
0010
0000
,
0100
0000
1000
0000
0010
1000
0010
0000
1000
0001
0100
0000
0100
0000
1000
0000
,
0100
0101
0011
1010
,
2002
0000
0000
3003
1000
0100
0010
0100
,
1000
0100
0010
0100
1000
0001
0010
0001
,
1000
0001
0010
0001
1000
0010
0100
0010
,
1000
0010
0100
0010
1000
0001
0100
0001
,
1000
0001
0100
0001
0010
0100
1000
0100
,
0010
0100
1000
0100
0010
0001
1000
0001
,
0010
0001
1000
0001
0100
1000
0100
0001
,
0100
1000
0100
0001
0010
0100
1000
0100
,
0001
0100
0020
0000
0030
0000
1001
0000
,
0001
0010
0000
0001
0100
0000
0110
0000
,
0010
1000
0001
0100
0010
0000
1000
0100
,
0001
0100
1000
0001
0010
0000
1001
0000
,
0110
0000
1000
0001
0100
0000
1001
0000
,
1000
0010
0000
1000
0100
0000
0110
0000
,
0010
0001
1000
0100
0010
0000
0001
0100
,
1000
0100
0001
1000
0010
0000
1001
0000
,
1000
0100
0001
0100
1000
0000
1001
0000
,
0001
0010
0001
0000
0001
0001
1000
0000
,
0001
0100
0001
1000
0010
0000
1000
0100
,
0001
0100
1000
0001
0010
0000
1001
0000
,
0110
0000
1000
0001
0100
0000
0010
1000
,
0010
1000
0100
0010
0100
0010
0001
0100
,
0001
0000
0100
0000
0010
0000
1000
0000
0001
0000
0000
0000
1000
0001
1000
0000
,
0010
0000
0100
0000
0001
1000
0001
0000
0010
0000
0000
0000
0110
0000
0000
0000
,
0100
0100
0010
0200
0000
0300
1001
0001
,
0100
0010
0100
0000
0010
0000
1000
0000
0001
0000
0010
0000
0100
0000
0010
0000
,
0001
1000
0001
0000
0100
0000
0010
0000
1000
0000
0100
0000
0010
0000
0001
0000
,
0100
0010
1000
0000
0100
0000
1000
0000
0001
0000
0100
0000
0010
0000
1000
0000
,
0100
0010
0001
0000
0100
0001
0100
0000
0010
0000
0000
1000
0001
0000
0010
0000
,
0100
1000
0001
0000
0100
0000
0010
0000
1000
0000
0100
0000
0010
0000
0001
0000
,
1000
0010
0100
0000
0001
0000
1000
0000
0100
0000
0010
0100
0010
0000
0001
0000
,
1000
0010
0100
0000
0001
0000
0010
0000
0001
0000
0001
0000
1000
0001
1000
0000
,
0010
0010
0010
0000
0110
0000
1000
0001
,
0010
0100
0010
0000
0001
0010
0100
0000
1000
0000
0001
0000
0100
0000
0010
0000
,
1000
0010
1000
0000
0100
1000
0001
0000
0100
0000
0100
0000
0010
0000
1000
0000
,
0001
0010
0100
0000
0010
0001
0010
0000
0100
0000
1000
0000
0001
0000
0100
0000
,
0010
1000
0001
0000
0010
0100
0010
0000
0002
0000
0000
0000
1003
0000
0010
0000
,
0100
0010
1000
0000
0100
1000
0100
0000
0010
0000
0001
0000
1000
0000
0010
0000
,
0100
0001
1000
0000
0100
0010
0100
0000
1000
0000
1000
0000
0001
0000
0001
0000
,
0100
0010
1000
0000
0010
0100
0001
0000
0010
0000
0100
0000
1001
0000
0000
0000
,
0000
0000
0000
0000
1000
0100
1000
0100
1000
0000
0001
0010
0100
0000
0010
0000
,
0001
1000
0010
0000
0100
0000
0010
0100
0001
0000
1000
0000
0100
1000
0001
0000
,
0100
0000
0100
0000
0010
1000
0010
0000
0100
0000
0001
1000
0100
0000
0010
0000
,
0001
1000
0010
0000
0100
0000
0001
0010
0100
0000
1000
0100
1000
0000
0000
0010
,
0100
0000
0100
0000
0001
1000
0001
1000
0001
0000
0010
0100
1000
0000
0001
0000
,
0100
0010
1000
0000
0001
0000
0010
0100
0010
0000
0001
0000
1000
0010
0100
0000
,
0001
0100
0001
0000
1000
0100
0010
0000
0001
0000
0100
0001
1000
0000
0000
1000
,
0100
2001
3200
0001
,
0310
0000
0000
0000
0100
1000
0100
1000
0100
0000
0010
0001
1000
0000
0010
0000
,
0100
0001
1000
0000
0100
0000
0010
0001
1000
0000
0010
0000
0100
0001
0010
0000
,
0100
0000
0010
0001
1000
0000
0010
0100
0001
0000
1000
0000
0100
1000
0001
0000
,
0100
0000
0010
1000
0001
0000
0010
0000
0100
1000
0001
0000
0100
0010
0100
0000
,
0010
0000
0100
0001
2000
0000
0000
0000
3010
0000
0000
0000
0102
0000
0000
0000
,
0013
2100
3010
0102
,
0013
0000
0000
0000
0001
1000
0001
1000
0001
0000
0100
0000
0010
0000
1000
0000
,
0100
0010
0001
0000
2002
0000
0000
0000
0000
0000
0000
0000
0000
0000
0000
0000
,
3003
1001
0000
0000
;

//--------------- dance-double - forcednature ----------------
#NOTEDATA:;
#STEPSTYPE:dance-double;
#DESCRIPTION:forcednature;
#CREDIT:forcednature;
#DIFFICULTY:Easy;
#METER:8;
#RADARVALUES:0,0,0,0,0;
#NOTES:
00000000
00000000
00000000
00000000
,
00000000
00000000
00000000
00000000
,
00000000
00000000
00000000
00000000
,
00000000
00000000
00000000
00000000
,
00000000
00000000
00000000
00000000
,
00001000
00000000
00001000
00000000
,
00010000
00000000
00010000
00000000
,
00000100
00000000
00000100
00000000
,
00002000
00000000
00000000
00003000
,
00001001
00000000
00000001
00000000
,
00000100
00000001
00000100
00000000
,
00001000
00000000
00000100
00000000
,
00001000
00010000
00001000
00000000
,
00011000
00000000
00100000
00000000
,
10010000
00000000
01000000
00000000
,
01100000
00000000
10010000
00000000
,
00200000
00000000
00000000
00300000
,
10010000
00000000
10000000
00000000
,
01000000
00000000
10000000
00000000
,
00010000
00000000
00100000
00000000
,
00001000
00000000
00010000
00000000
,
00011000
00000000
00000100
00000000
,
00001001
00000000
00000010
00000000
,
00000100
00000100
00000001
00000100
,
00002000
00000000
00013000
00000000
,
00100000
00000000
10000000
00000000
,
00100000
00000000
01000000
00000000
,
00001000
00000000
00010000
00000000
,
00000100
00000000
00001000
00000000
,
00000001
00000000
00000010
00000000
,
00001000
00000000
00000010
00000000
,
00000001
00000000
00000100
00000000
,
00002000
00000000
00000000
00013000
,
00000000
00001000
00000000
00100000
,
00001000
00100000
00000000
00010000
,
01000000
00010000
00000000
01000000
,
00100000
01000000
00000000
00100000
,
00000000
10000000
00000000
01000000
,
10000000
01000000
00000000
00100000
,
00010000
00100000
00000000
00001000
,
00001000
00010000
00000000
00011000
,
00000000
00000100
00000000
00001000
,
00000010
00001000
00000000
00000001
,
00000010
00000001
00000000
00000100
,
00000001
00000100
00000000
00000110
,
00000000
00001000
00000000
00000100
,
00010000
00000100
00000000
00010000
,
00001000
00010000
00000000
00022000
,
00000000
00000000
00033000
00001000
,
00001000
00100000
00001000
00010000
,
00010000
00000100
00010000
00001000
,
00001000
01000000
00001000
00010000
,
00010000
00000010
00010000
00001000
,
00100000
00010000
00100000
00001000
,
01000000
00010000
01000000
00001000
,
00010000
00000100
00001000
00000100
,
00010000
00001000
00000010
00000000
,
00000110
00000100
00001000
00000001
,
00001001
00001000
00000010
00010000
,
00011000
00001000
01000000
00010000
,
10010000
10000000
01000000
00000000
,
01100000
00100000
00001000
00010000
,
00011000
00001000
00000010
00000100
,
00000110
00000010
00000001
00001001
,
00000000
00001000
00001000
00000010
,
00010000
00000000
00001000
00010000
00001000
00000000
01000000
00000000
,
00010000
00100000
00100000
00010000
,
10000000
00000000
00010000
10000000
00010000
00000000
01000000
00000000
,
00001000
00010000
00010000
00000100
,
00010000
00000000
00001000
00010000
00001000
00000000
00000010
00000000
,
00000100
00000010
00000010
00000001
,
00000100
00002002
00000000
00000000
,
00003003
00000000
00000000
00001000
00000001
00000000
00001000
00000000
,
00000100
00000000
00010000
00001000
00010000
00000000
00001000
00000000
,
00100000
00010000
01000000
00010000
,
00100000
00000000
01000000
00100000
01000000
00000000
10000000
00000000
,
00010000
10010000
00000000
01100000
,
00000000
00011000
00000000
00000110
,
00000000
00000000
00001001
00000000
00001000
00000000
00000001
00001000
,
00000001
00000020
00000100
00000130
,
00000000
00002002
00003003
00000000
;

//--------------- dance-double - forcednature ----------------
#NOTEDATA:;
#STEPSTYPE:dance-double;
#DESCRIPTION:forcednature;
#CREDIT:forcednature;
#DIFFICULTY:Medium;
#METER:11;
#RADARVALUES:0,0,0,0,0;
#NOTES:
00000000
00000000
00000000
00000000
,
00000000
00000000
00000000
00000000
,
00000000
00000000
00000000
00000000
,
00000000
00000000
00000000
00000000
,
00000000
00000000
00000000
00000000
,
00001000
00010000
00001000
00010000
,
00000010
00001000
00000010
00001000
,
00000001
00000100
00000001
00000100
,
00000020
00000000
00001000
00000000
00001000
00000000
00001030
00000001
,
00000000
00000001
00000010
00000000
00000100
00000000
00000010
00000000
,
00000100
00000000
00010000
00000000
00001000
00000000
00100000
00010000
,
00000000
00010000
00100000
00000000
01000000
00000000
10000000
00000000
,
00100000
00000000
01000000
00000000
00010000
10000000
00010000
00000000
,
10010000
10000000
01000000
00010000
,
00011000
00001000
00000100
00000001
,
00001001
00000100
00011000
01000000
,
00000000
00010000
10000000
00010000
10000000
00000000
01000000
00000000
,
01100000
00100000
00001000
00011000
,
00010100
00000100
00001000
00001010
,
00000101
00000001
00000010
00000110
,
00010100
00000000
00010000
00001000
00010000
00000000
00001000
00000000
,
00011000
01000000
01010000
00110000
,
10010000
00000000
10000000
00000000
01000000
10000000
01000000
00000000
,
01100000
00101000
00011000
00010100
,
00000220
00000000
00000000
00000330
00000001
00000000
00000100
00000000
,
00001000
00000100
00000001
00000010
,
00001000
00010000
00100000
10000000
,
01000000
00010000
01000000
10000000
,
00100000
00010000
00001000
00000010
,
00000001
00000100
00001000
00000100
,
00000001
00000010
00001000
00010000
,
00100000
10000000
01000000
00010000
,
01000000
20000000
00000000
30010000
,
00010000
00100000
00000000
01000000
00100000
00000000
00010000
00000000
,
01000000
00010000
01000000
00001000
00000000
00000000
00010000
00001000
,
00010000
00001000
00010000
00000100
00010000
00000000
00010100
00000000
,
00001100
00000000
00001000
00000010
00000000
00000000
00000110
00000000
,
00000100
00000001
00000000
00000010
00000001
00000000
00001000
00000000
,
00000010
00001000
00000010
00010000
00000000
00000000
00001000
00010000
,
00001000
00010000
00001000
00100000
00010000
00000000
01010000
00000000
,
01000000
00010000
01000000
00100000
00000000
00000000
10100000
00000000
,
10000000
00000000
01000000
00000000
00100000
00100000
01000000
00000000
,
00100000
00000000
00001000
00000000
00010000
00001000
00010000
00000000
,
00000100
00000000
00001000
00000000
00000010
00000010
00001000
00000000
,
00000010
00000100
00000001
00001001
,
00001000
00000100
00001000
00000100
00010000
00001000
00010000
00000000
,
00001000
01000000
00001000
01000000
00010000
01000000
00020000
00000000
,
00100000
10000000
01030000
20020000
,
00000000
00000000
30030000
11000000
,
10010000
00110000
00001000
00011000
,
00010010
00001010
00000100
00001001
,
00000011
00001100
00010000
00011000
,
01001000
00000000
01000000
00010000
01000000
00000000
01100000
00000000
,
10100000
11000000
00010000
00110000
,
00101000
00011000
00000010
00001010
,
00001100
00000000
00000110
00000000
00000001
00000000
00000100
00000001
,
00000100
00000000
00000110
00000000
00001000
00000000
00000000
00000100
,
00020000
00000000
00031000
00000000
00001000
00010000
00000000
00100000
,
02000000
00000000
03100000
00000000
00100000
10000000
00000000
01000000
,
20000000
00000000
31000000
00000000
01000000
00010000
00000000
00001000
,
00020000
00000000
00030100
00000000
00000100
00001000
00000010
00000000
,
00000110
00000000
00000101
00000000
00000001
00000010
00000100
00000000
,
00000110
00000000
00010100
00000000
00010000
00001000
00100000
00000000
,
00110000
01010000
01000000
10010000
,
00000000
00000000
10000000
01000000
10000000
00000000
00010000
00100000
,
01000000
00000000
00100000
00001000
00010000
00000000
00011000
00000000
,
00010100
00000000
00000100
00001000
00000010
00000000
00000100
00000001
,
00001000
00000000
00000100
00000010
00000001
00000000
00000101
00000000
,
00000110
00000000
00000010
00010000
00001000
00000000
01000000
00010000
,
00100000
00000000
01000000
10000000
00010000
00000000
01010000
00000000
,
00110000
00000000
00100000
00001000
00010000
00000000
00000010
00001000
,
00000100
00000220
00000000
00000000
,
00000330
00000000
00000000
00001000
00010000
00000000
00011000
00000000
,
00101000
00000000
01000000
00010000
00100000
00000000
01000000
10000000
,
00010000
01010000
00011000
00010100
,
00001000
00000000
00000010
00000100
00000001
00000000
00000010
00000100
,
00001000
00001010
00010000
00011000
,
00100000
00011000
00000010
00011000
,
01000000
00000000
00010000
00100000
00010000
00100000
01000000
10000000
,
01000000
00000000
01100000
00000000
00100000
00001000
00010000
00000100
,
00000000
00000220
00000330
00000000
;

//--------------- dance-double - forcednature ----------------
#NOTEDATA:;
#STEPSTYPE:dance-double;
#DESCRIPTION:forcednature;
#CREDIT:forcednature;
#DIFFICULTY:Hard;
#METER:15;
#RADARVALUES:0,0,0,0,0;
#NOTES:
00000000
00000000
00000000
00000000
,
00000000
00000000
00000000
00000000
,
00000000
00000000
00000000
00000000
,
00000000
00000000
00000000
00000000
,
00000000
00000000
00000000
00000000
,
00001000
00001000
00010000
00010000
,
00000100
00000100
00010000
00010000
,
00001000
00001000
00010000
00010000
,
00000020
00000000
00001000
00000000
00001000
00000000
00001030
00000001
,
00000000
00000100
00000001
00000100
00001000
00000100
00000001
00000010
,
00000100
00000010
00001000
00010000
00000100
00010000
00001000
00100000
,
00000000
01000000
00010000
00001000
00010000
01000000
00100000
01000000
,
10000000
00000000
00010000
00000000
01000000
00000000
00010000
00000000
00100000
01000000
00100000
00000000
01000000
00000000
00010000
00000000
,
00011000
00000000
00001000
00000010
00000001
00000010
00001000
00010000
,
00011000
00000000
00010000
00100000
10000000
00100000
00010000
00001000
,
00011000
00000000
00000100
00010000
00011000
00000000
01000000
00001000
,
00000000
00010000
00100000
10000000
01000000
00000000
01100000
00000000
,
00100000
00000000
00001000
00000000
00010000
00001000
00010000
00000000
00000100
00000000
00001000
00000000
00000001
00000000
00000100
00000000
,
00000010
00000000
00001000
00000000
00000100
00001000
00000100
00000000
00010000
00000000
00001000
00000000
01000000
00000000
01000000
00000000
,
00010000
00000000
00100000
00000000
01000000
00100000
01000000
00000000
10000000
00000000
00010000
00000000
01000000
00000000
00001000
00000000
,
00010000
00000000
00000010
00000000
00001000
00000010
00001000
00000000
00000010
00000000
00000100
00000001
00000010
00000000
00000100
00000000
,
00001000
00000000
00001000
00000000
00000010
00001000
00000010
00000000
00000100
00000000
00000001
00000000
00000010
00000000
00000100
00000000
,
00010000
00000000
00001000
00000000
00100000
00001000
00100000
00000000
00010000
01000000
00001000
00000000
00001000
00000000
00010000
00000000
,
00100000
01100000
01001000
00011000
,
00000220
00000000
00000000
00000330
00000001
00000100
00000010
00000100
,
00001000
00000100
00000001
00000100
00010000
00000100
00000010
00000100
,
00000001
00000100
00001000
00010000
01000000
00100000
01000000
10000000
,
01000000
00010000
01000000
00100000
01000000
10000000
01000000
00001000
,
01000000
00100000
00001000
00010000
00000010
00001000
00000010
00000100
,
00000010
00000001
00000010
00001000
00000010
00000100
00000010
00010000
,
00000010
00000100
00001000
00010000
01000000
00100000
01000000
10000000
,
01000000
00010000
01000000
00100000
01000000
00001000
01000000
10000000
,
00100000
00010000
00002000
00000000
00003000
00000000
00011000
00000000
,
00010000
00100000
00000000
10000000
00010000
00000000
10010000
00000000
,
10000000
01000000
00010000
00001000
01000000
00000000
00010000
00100000
,
01000000
00100000
00001000
00010000
00000100
00000000
00000110
00000000
,
00001001
00000000
00000001
00000100
00001000
00000000
00011000
00000000
,
00001000
00000010
00000000
00000001
00001000
00000000
00001001
00000000
,
00000001
00000100
00001000
00010000
00000100
00000000
00001000
00000010
,
00000100
00000010
00010000
00001000
01000000
00000000
01100000
00000000
,
00100000
00010000
00001000
00000100
00001000
00000000
00011000
00000000
,
00010000
01000000
10000000
00000000
10000000
00100000
00010000
00000000
,
00001000
00000100
00000001
00000000
00000001
00000010
00001000
00000000
,
00010000
01000000
10000000
00000000
10000000
00100000
00010000
00000000
,
00001000
00000100
00000001
00000000
00000001
00000010
00001000
00010000
,
00001000
00000010
00001000
00010000
00001000
00000010
00001000
00010000
,
00100000
00000000
00010000
00000000
00001000
00000000
00010000
00000000
00100000
00000000
00010000
00000000
00001000
00010000
00001000
00010000
,
00001000
00000000
01000000
00000000
00001000
00010000
00001000
00010000
00001000
00000000
00100000
00000000
02000000
00000000
00000000
00000000
,
03010000
00001000
00011000
00022000
00000000
00033000
00001000
00000010
,
00000001
00000010
00000001
00000000
00000100
00000000
00000010
00000000
00010000
00000000
00000100
00000000
00010000
00000000
00001000
00000000
,
00100000
00001000
00100000
00000000
00010000
00000000
01000000
00000000
00100000
00000000
10000000
00000000
01000000
00000000
00100000
00000000
,
00010000
01000000
00010000
00000000
01000000
00000000
00001000
00000000
00010000
00000000
00000010
00000000
00001000
00000000
00000100
00000000
,
00000010
00000100
00000010
00000000
00000001
00000010
00000100
00000000
00001000
00000000
00000100
00010000
00001000
00000000
00100000
00000000
,
00010000
01000000
00010000
00000000
01000000
00000000
00100000
00000000
10000000
00000000
01000000
00000000
00010000
00000000
00001000
00000000
,
00100000
00010000
00100000
00000000
00010000
00000000
01000000
00000000
00001000
00000000
00010000
00001000
00010000
00000000
00000010
00000000
,
00001000
00000100
00000010
00000000
00000001
00000000
00000100
00000000
00000010
00000000
00000110
00000000
00001000
00000001
00001000
00000000
,
00001001
00000001
00000101
00000000
00000010
00000000
00011000
00001000
,
00100000
00010000
10000000
00000000
01000000
00000000
00010000
00000000
01000000
00000000
10000000
00000000
00100000
00000000
01000000
00000000
,
00010000
00100000
00001000
00000000
00010000
00000000
00100000
00000000
00010000
00000000
00010000
00000000
00001000
00000000
00000010
00000000
,
00000100
00000010
00000001
00000000
00000100
00000000
00000010
00000000
00001000
00000000
00000100
00000000
00010000
00000000
00001000
00000000
,
01000000
00001000
00010000
00000000
00001000
00100000
00001000
00000000
02000000
00000000
00000000
00000000
03100000
00000000
10000000
00000000
,
01000000
00100000
00010000
00000000
01000000
00000000
00001000
00000000
00010000
00000000
00000100
00000000
00001000
00000000
00000010
00000000
,
00000100
00000001
00000010
00000000
00000100
00000000
00010000
00000000
00001000
00000000
00001000
00000000
01000000
00010000
01000000
00000000
,
00010000
00100000
01000000
00000000
10000000
00000000
01000000
00010000
01000000
00000000
00010000
00000000
00011000
00000000
00000000
00000000
,
00000000
00000000
00000000
00000000
00000100
00001000
00000100
00000010
00000100
00000000
00001000
00000000
00000001
00000000
00000010
00000001
,
00000100
00000000
00000010
00000000
00001000
00000100
00010000
00000000
00001000
00000000
00010000
00001000
00100000
00000000
00010000
01000000
,
00100000
00000000
00100000
00000000
10000000
00000000
01000000
10000000
00010000
00000000
00100000
00000000
00010000
00000000
01000000
00010000
,
00100000
00000000
00001000
00000000
00010000
00000000
00000010
00001000
00000100
00000000
00000010
00000100
00001000
00000000
00000000
00001000
,
00000001
00000000
00000001
00000000
00000100
00000000
00000010
00001000
00000100
00000000
00010000
00000000
00001000
00000000
00100000
00010000
,
01000000
00000000
00010000
00000000
10000000
00000000
01000000
00100000
01000000
00000000
10000000
00010000
01000000
00000000
00000000
00010000
,
00100000
00010000
00100000
00000000
00001000
00000000
00010000
00000000
00000100
00001000
00000001
00000000
00000100
00000000
00000100
00000010
,
00010000
00022000
00000000
00000000
,
00033000
00000000
00000000
00000000
00000000
00000000
01000000
00010000
00100000
00000000
01000000
00000000
10000000
00000000
00100000
01000000
,
00010000
00000000
00100000
00000000
00001000
00010000
00001000
00000000
00000010
00000000
00000100
00001000
00000010
00000000
00000100
00000000
,
00000001
00000000
00000001
00000010
00000100
00000000
00000010
00000000
00000001
00000100
00000010
00000000
00001000
00000000
00000100
00010000
,
00001000
00000000
01000000
00000000
00010000
00000000
00100000
01000000
10000000
00000000
00100000
01000000
00010000
01000000
00100000
00000000
,
10000000
00010000
10000000
00010000
01000000
00000000
00000000
00000000
00011000
00000000
00000000
00000000
00000100
00000000
00000000
00000000
,
00011000
00100000
00011000
00000010
,
00011000
00000000
00000000
00000000
00001000
00000010
00000001
00000000
00000100
00000000
00000001
00000000
00000010
00000000
00000010
00000000
,
00000100
00001000
00000010
00000000
00011000
00000000
00000000
00000000
01000000
00000000
00100000
00000000
00010000
00000000
00001000
00000000
,
00000100
00022000
00033000
00000000
;
