#VERSION:0.83;
#TITLE:Virus Funk;
#SUBTITLE:;
#ARTIST:Nhato;
#TITLETRANSLIT:;
#SUBTITLETRANSLIT:;
#ARTISTTRANSLIT:;
#GENRE:PROGRESSIVE DISCO;
#CREDIT:;
#MUSIC:Virus Funk.ogg;
#BANNER:Virus Funk.png;
#BACKGROUND:Virus Funk-bg.png;
#CDTITLE:./CDTitles/bm IIDX 27 HEROIC VERSE.png;
#SAMPLESTART:49.455;
#SAMPLELENGTH:15.000;
#SELECTABLE:YES;
#OFFSET:-0.384;
#BPMS:0.000=132.000;
#STOPS:;
#TIMESIGNATURES:0.000=4=4;
#BGCHANGES:0.000=Virus Funk.mp4=1.000=0=0=0=StretchNoLoop====,
99999.000=-nosongbg-=1.000=0=0=0=StretchNoLoop====
;
#FGCHANGES:;

//--------------- dance-single - forcednature ----------------
#NOTEDATA:;
#STEPSTYPE:dance-single;
#DESCRIPTION:forcednature;
#DIFFICULTY:Beginner;
#METER:1;
#RADARVALUES:0,0,0,0,0;
#CREDIT:forcednature;
#NOTES:
0000
0000
0000
0000
,
0000
0000
0000
0000
,
0000
0000
0000
0000
,
0000
0000
0000
0000
,
0000
0000
0000
0000
,
0001
0000
0000
0000
,
0000
0000
0000
0000
,
1000
0000
0000
0000
,
0000
0000
0000
0000
,
0010
0000
0000
0000
,
0000
0000
0000
0000
,
0000
0000
0000
0000
,
0000
0000
0000
0000
,
0100
0000
0000
0000
,
0000
0000
0000
0000
,
0000
0000
0000
0000
,
0000
0000
0000
0000
,
0000
0000
0000
0000
,
0001
0000
0000
0000
,
1000
0000
0000
0000
,
0000
0000
0000
0000
,
0100
0000
0000
0000
,
0000
0000
0000
0000
,
0010
0000
0000
0000
,
0000
0000
0000
0000
,
0001
0000
0000
0000
,
0000
0000
0000
0000
,
0100
0000
0000
0000
,
0000
0000
0000
0000
,
0010
0000
0000
0000
,
0000
0000
0000
0000
,
1000
0000
0000
0000
,
0000
0000
0000
0000
,
0001
0000
0000
0000
,
0010
0000
0000
0000
,
0000
0000
0000
0000
,
0100
0000
0000
0000
,
0000
0000
0000
0000
,
0000
0000
0000
0000
,
0000
0000
0000
0000
,
1000
0000
0000
0000
,
0000
0000
0000
0000
,
0000
0000
0000
0000
,
0000
0000
0000
0000
,
0001
0000
0000
0000
,
0000
0000
0000
0000
,
0000
0000
0000
0000
,
0000
0000
0000
0000
,
0100
0000
0000
0000
,
0000
0000
0000
0000
,
0010
0000
0000
0000
,
0000
0000
0000
0000
,
1000
0000
0000
0000
,
0000
0000
0000
0000
,
0001
0000
0000
0000
,
0000
0000
0000
0000
,
0010
0000
0000
0000
,
0000
0000
0000
0000
,
0100
0000
0000
0000
,
0000
0000
0000
0000
,
1000
0000
0000
0000
,
0000
0000
0000
0000
,
0001
0000
0000
0000
,
0000
0000
0000
0000
,
0000
0000
0000
0000
,
0100
0000
0000
0000
;

//--------------- dance-single - forcednature ----------------
#NOTEDATA:;
#STEPSTYPE:dance-single;
#DESCRIPTION:forcednature;
#DIFFICULTY:Easy;
#METER:6;
#RADARVALUES:0,0,0,0,0;
#CREDIT:forcednature;
#NOTES:
0000
0000
0000
0000
,
0000
0000
0000
0000
,
0000
0000
0000
0000
,
0000
0000
0000
0000
,
0000
0000
0000
0000
,
0001
0000
1000
0000
,
0010
0010
0000
0000
,
0100
0000
0001
0000
,
1000
1000
1000
0001
,
0000
0010
0000
0010
,
0000
0100
0000
0010
,
0000
0100
0000
0100
,
0000
0010
0000
0000
,
0000
0001
0000
0001
,
0000
1000
0000
0001
,
0000
1000
0000
1000
,
0010
0010
0010
0010
,
0100
0010
0100
0010
,
0220
0000
0330
0000
,
1001
0000
1000
1000
,
0100
0000
1000
0000
,
0010
0000
0100
0100
,
0001
0001
0100
0000
,
1001
0000
0001
0001
,
0010
0000
0001
0000
,
0100
0000
0010
0010
,
1000
1000
1000
1000
,
0100
0010
0000
0010
,
0000
0001
0000
0001
,
0000
0100
0000
0100
,
0000
0100
0010
0100
,
0000
0010
0000
0010
,
0000
1000
0000
1000
,
0001
0010
0001
1000
,
0100
0100
0100
0100
,
0000
0000
0000
0000
,
2000
0000
0000
0000
,
3000
0000
0000
0000
,
0020
0000
0030
0000
,
0200
0000
0300
0000
,
0002
0000
0000
0000
,
0003
0000
0000
0000
,
0020
0000
0030
0000
,
0200
0000
0300
0000
,
1000
1000
0001
0001
,
1000
0001
1000
0001
,
0100
0010
0100
0010
,
0220
0000
0330
0000
,
1001
0000
0001
0100
,
0001
1000
0010
0000
,
1000
0100
0010
0000
,
0001
0100
0010
0000
,
1001
0000
1000
0100
,
1000
0001
0010
0000
,
0001
0100
0010
0000
,
1000
1000
0000
0001
,
1001
0000
1000
0100
,
0010
0100
0010
0001
,
1000
0000
0001
0100
,
0010
0100
0010
1000
,
0001
0000
0010
0100
,
1000
0001
0100
0010
,
1000
1000
0001
0001
,
0020
0030
0200
0300
,
1000
0001
0100
0010
,
2002
0000
0000
0000
,
3003
0000
0000
0000
;

//--------------- dance-single - forcednature ----------------
#NOTEDATA:;
#STEPSTYPE:dance-single;
#DESCRIPTION:forcednature;
#DIFFICULTY:Medium;
#METER:10;
#RADARVALUES:0,0,0,0,0;
#CREDIT:forcednature;
#NOTES:
0000
0000
0000
0000
,
0000
0000
0000
0000
,
0000
0000
0000
0000
,
0000
0000
0000
0000
,
0000
0000
0000
0000
,
0001
0010
0000
0000
0100
1000
0000
0000
,
0001
0000
0000
0000
0100
0000
0000
0010
0000
0000
1000
0000
0001
0000
0000
0000
,
0010
0100
0000
0000
1000
0001
0000
0000
,
0101
0101
1010
1010
,
0000
0001
0010
0200
0000
0310
0000
0001
,
0000
1000
0010
0200
0000
0310
0000
1000
,
0000
0001
0010
0200
0000
1300
0010
0200
,
0000
0301
0010
0100
2000
0000
3010
0000
,
0000
1000
0100
0020
0000
0031
0000
0100
,
0000
0010
1000
0002
0000
0013
0000
0000
,
0200
0000
0000
2300
0000
0000
3002
0000
0000
0000
0103
0000
0010
0000
0000
0000
,
1010
1010
0101
0101
,
0001
0010
0001
0010
0100
1000
0001
0010
,
0200
0000
1000
0000
0310
0001
0011
0000
,
1001
0000
1000
0010
0100
0010
1000
0010
,
0100
0000
0000
0001
0000
0000
0010
0000
0000
0100
0000
0000
1000
0000
0000
0000
,
1001
0000
0001
0010
0100
0010
0001
0100
,
0010
0100
0001
0010
0100
1000
0010
0000
,
0110
0000
1000
0100
1000
0001
0100
0001
,
0010
0000
0000
0100
0000
0000
1000
0000
0000
0010
0000
0000
0100
0000
0000
0000
,
1001
0000
0001
0010
0001
1000
0010
1000
,
0100
1100
0011
0011
,
0000
0001
0100
2000
0000
3100
0001
1000
,
0010
1000
0100
0002
0000
0103
1000
0001
,
0010
0001
0100
2000
0000
3100
0001
2000
,
0000
3001
0100
1000
0100
0000
1001
0000
,
0000
1000
0100
0002
0000
0103
1000
0001
,
0010
0001
0100
2000
0000
3100
0001
1000
,
0020
0000
0000
0230
0000
0000
0302
0000
0000
0000
0013
0000
0100
0000
1000
0000
,
1010
1010
0101
0101
,
0010
0010
0000
0110
,
2002
0000
0000
0000
,
0003
0000
0000
0000
0000
0000
3000
0000
0000
0000
0020
0000
0000
0230
0000
0000
,
0302
0000
0000
0000
,
0023
0000
0000
0000
0000
0000
0230
0000
2300
0000
0000
3002
0000
0000
0203
0000
,
0000
0000
0000
0000
,
0000
0300
0000
0020
0000
2030
3002
0023
,
0032
0000
2003
0000
,
0010
0010
0001
3001
,
0101
0101
1010
1010
,
0001
0010
0001
0010
0100
1000
0100
1000
,
0010
0100
0100
0010
1000
0001
0100
0010
,
0000
1000
1000
0001
0010
0100
0110
0000
,
1001
0000
0001
0010
0100
0001
0100
0001
,
0100
0000
0000
1000
0000
0000
0010
0000
0000
0100
0000
0000
0001
0000
0000
0000
,
0010
0001
0100
0010
1000
0100
1000
0001
,
0100
0000
0000
0010
0100
0000
0000
0010
0100
0000
0001
0000
1000
0000
0000
0000
,
1020
0000
0130
0001
0010
1000
0010
1000
,
0010
0000
0000
0001
0000
0000
0100
0000
0000
0010
0000
0000
1000
0000
0000
0000
,
0100
1000
0010
0000
0100
0001
1000
0020
,
0100
0000
0000
0130
0000
0000
0010
0000
1000
0000
0001
0000
0010
0000
0000
0000
,
0110
0000
1000
0100
1000
0001
1000
0010
,
0100
0000
0000
1000
0000
0000
0100
0000
0000
0001
0000
0000
1000
0000
0000
0000
,
0110
0000
0001
0010
0001
1000
0001
0100
,
0010
1000
0001
0100
0010
0010
1000
0000
,
1001
0000
0001
0010
0100
0010
0001
1000
,
0100
0000
0001
0100
1000
0001
0010
0000
,
0001
0100
0001
0100
0010
0010
1000
0001
,
0020
0000
0100
0000
0031
1000
0010
0100
,
0001
0010
0010
0001
0100
0010
1000
0000
,
2002
0000
0000
0000
,
3003
0000
0000
0000
;

//--------------- dance-single - forcednature assist by extraordiberry ----------------
#NOTEDATA:;
#STEPSTYPE:dance-single;
#DESCRIPTION:forcednature assist by extraordiberry;
#DIFFICULTY:Hard;
#METER:15;
#RADARVALUES:0,0,0,0,0;
#CREDIT:forcednature assist by extraordiberry;
#NOTES:
0000
0000
0000
0000
,
0000
0000
0000
0000
,
0000
0000
0000
0000
,
0000
0000
0000
0000
,
0000
0000
0000
0000
,
0101
0101
0000
0000
1010
1010
0000
0000
,
1100
0000
0000
0000
0012
0000
0000
0103
0000
0000
0010
1000
0001
0100
0001
0100
,
0010
1010
0000
0000
1100
1100
0000
0000
,
0011
0000
0000
0001
0100
0000
0000
0100
1000
0000
0000
1000
0010
0000
0000
0000
,
0110
1000
0001
0020
0000
0130
0100
0100
,
0000
0001
1000
0020
0000
0130
0100
0100
,
0000
0001
1000
0200
0000
1300
0001
0020
,
0000
0031
1000
0020
0100
0130
1001
0000
,
1000
0001
0100
0020
0000
0031
0001
0001
,
0000
1000
0100
0020
0000
1030
1000
1000
,
0110
0000
0000
0000
0001
0000
1000
0000
0110
0000
0000
0001
0100
0000
0001
0000
,
0010
0000
0100
1000
0010
0000
0100
0001
0010
0000
0100
1000
0010
0000
0100
0001
,
0010
0110
1000
1001
0100
0110
0001
1001
,
0220
0000
0000
0000
0000
0000
0330
0000
0001
1000
0010
0100
0001
0000
0000
0000
,
2001
0000
0000
0000
3100
0000
0001
0000
0100
1000
0100
1000
0001
0010
0001
0010
,
0001
0100
0000
0010
0100
0000
0001
1000
0000
0010
1000
0000
1002
0000
0000
0000
,
0013
0000
0000
0000
0210
0000
0000
0000
1300
0001
0100
0001
1000
0010
0100
0010
,
1000
0001
0010
0001
1000
0100
0010
0100
1000
0001
1000
0001
0010
0000
0000
0000
,
0210
0000
0000
0000
1300
0000
0001
0000
0100
0010
1000
0010
0100
0001
1000
0001
,
0100
0010
0000
1000
0100
0000
0010
0001
0000
0100
0010
0000
2010
0000
0000
0000
,
3100
0000
1000
0000
0002
0000
0000
0000
0013
0100
1000
0100
0010
0001
0010
0100
,
2000
0000
3020
0000
0032
0000
0203
0300
,
1001
0000
1000
0001
0010
0000
1000
0000
0010
0000
0001
0000
1000
0000
0100
0000
,
1000
0000
0001
1000
0010
0000
0001
0000
0010
0000
1000
0001
1000
0000
0100
0000
,
0010
0000
0001
1000
0100
0000
0001
0000
0100
0000
1000
0001
0100
0000
1000
0000
,
0100
0000
0001
1000
0010
0000
1000
0001
0010
0100
0010
0100
1000
0000
0000
0000
,
0110
0000
0001
0100
0010
0000
0110
0000
1000
0000
0001
0010
0100
0000
0010
0000
,
0001
0000
1000
0100
0010
0000
0110
0000
1000
0000
0001
0100
0010
0000
1000
0000
,
0001
0010
0000
0100
1000
0000
0010
0100
0000
0010
1000
0010
1000
0001
0100
0010
,
1000
0000
0000
1000
0100
0000
0000
0100
0001
0000
0000
0001
0010
0000
0000
0000
,
0110
0000
0000
0000
0110
0000
0001
0000
1000
0010
1000
0010
0100
0000
0001
0000
,
2000
0000
0000
0000
,
0000
0000
0000
0000
0000
0000
3000
0000
0000
0000
0200
0000
0000
0320
0000
0000
,
0032
0000
0000
0000
,
0203
0000
0000
0000
0000
0000
0320
0000
2030
0000
0000
3002
0000
0000
0023
0000
,
0000
0000
0000
0000
,
0000
0000
0030
0000
0000
0000
0100
2000
0000
0000
3020
0000
0230
0000
0302
0000
,
2003
0010
3002
0010
,
0100
0100
1000
1000
0010
0010
1003
0001
,
1001
0000
0000
1000
0100
0000
0000
0010
0001
0000
0000
0100
0010
0000
0000
0000
,
1000
1100
0001
0101
1000
1010
0001
0011
,
1000
0001
1000
0001
1000
0001
1000
0001
0010
0100
0010
0100
0010
0100
0010
0100
,
1000
0000
1001
0000
0001
0000
0110
0000
1000
0001
0010
0100
0001
0000
0000
0000
,
0110
0000
0000
0000
1000
0001
0100
0001
1000
0000
0010
0100
0001
0000
0010
0100
,
1000
0000
0010
0100
0000
1000
0100
0000
0001
1000
0000
0010
0100
0000
0001
0010
,
0000
0100
0010
0100
1000
0000
0010
0100
0000
0001
0010
0001
1000
0000
0010
0100
,
0001
0000
0010
0100
1000
0000
0010
0100
0001
1000
0001
0010
0100
0000
0000
0000
,
2001
0000
0000
0000
3010
0100
0001
0010
0100
1000
0001
1000
0100
1000
0001
0010
,
0100
0000
0010
0001
0000
0100
0001
0000
1000
0100
1000
0010
0100
0001
0010
0001
,
0000
0100
0010
1000
0100
0000
0010
0001
1000
0010
0100
0010
1000
0001
0100
1000
,
0100
0000
0000
0000
0000
0000
0000
0000
0000
0110
0000
0000
0000
0000
0000
0000
0000
0000
0010
0000
1000
0000
0010
0000
1000
0000
0000
0000
0000
0000
0001
0000
0010
0000
0100
0000
1000
0000
0000
0000
0000
0000
0000
0000
0000
0000
0000
0000
,
1001
0000
0000
0000
0001
0010
0100
0010
0001
1000
0010
1000
0001
0100
0010
0100
,
0001
0000
0010
0100
0000
1000
0010
0000
0100
0001
0000
0010
0001
0000
1000
0010
,
0100
0000
1000
0100
0001
1000
0010
1000
0001
0100
0010
0100
0001
1000
0010
1000
,
0001
0010
0100
0010
0001
1000
0100
1000
0010
0100
0001
1000
0010
0000
0000
0000
,
0110
0000
0000
0000
1000
0100
0010
0100
1000
0001
0010
0001
1000
0001
0100
0001
,
0010
0000
0100
1000
0010
0000
0100
0001
0010
0000
0100
1000
0010
0000
0110
0000
,
0100
0001
0100
0001
1000
0010
1000
0010
1000
0100
0010
0001
0100
0010
1000
0001
,
0020
0000
0000
0000
0100
0000
0000
0000
0031
0000
0000
0001
1000
0000
0010
0000
,
0100
0000
0001
0010
0001
0000
0100
0000
0001
0010
0001
1000
0010
0100
0001
1000
,
0200
0000
0000
0000
,
0300
0000
0000
0000
;

//--------------- dance-double - forcednature ----------------
#NOTEDATA:;
#STEPSTYPE:dance-double;
#DESCRIPTION:forcednature;
#DIFFICULTY:Easy;
#METER:6;
#RADARVALUES:0,0,0,0,0;
#CREDIT:forcednature;
#NOTES:
00000000
00000000
00000000
00000000
,
00000000
00000000
00000000
00000000
,
00000000
00000000
00000000
00000000
,
00000000
00000000
00000000
00000000
,
00000000
00000000
00000000
00000000
,
00010000
00000000
00001000
00000000
,
00100000
00100000
00000000
00000000
,
00010000
00000000
01000000
00000000
,
00100000
00100000
00100000
10000000
,
00000000
00010000
00000000
00010000
,
00000000
00100000
00000000
00001000
,
00000000
00010000
00000000
00010000
,
00000000
00000100
00000000
00000000
,
00000000
00001000
00000000
00001000
,
00000000
00000010
00000000
00000100
,
00000000
00000001
00000000
00000001
,
00000010
00000010
00000010
00000010
,
00000100
00000010
00000100
00000000
,
00000220
00000000
00000330
00000000
,
00001001
00000000
00001000
00001000
,
00000100
00000000
00010000
00000000
,
00001000
00000000
00100000
00100000
,
00010000
00010000
01000000
00000000
,
10010000
00000000
00010000
00010000
,
00100000
00000000
00001000
00000000
,
00010000
00000000
00000100
00000100
,
00001000
00001000
00001000
00000000
,
00000010
00000100
00000000
00000100
,
00000000
00000001
00000000
00000001
,
00000000
00001000
00000000
00000100
,
00000000
00010000
00001000
00010000
,
00000000
00001000
00000000
00001000
,
00000000
00100000
00000000
00100000
,
00010000
01000000
00010000
01000000
,
00100000
00100000
00100000
00100000
,
00000000
00000000
00000000
00000000
,
20000000
00000000
00000000
00000000
,
30000000
00000000
00000000
00000000
,
02000000
00000000
03000000
00000000
,
00200000
00000000
00300000
00000000
,
00002000
00000000
00000000
00000000
,
00003000
00000000
00000000
00000000
,
00020000
00000000
00030000
00000000
,
00000200
00000000
00000300
00000000
,
00001000
00001000
00000001
00000001
,
00001000
00000001
00001000
00000001
,
00000100
00000010
00000100
00000000
,
00000220
00000000
00000330
00000000
,
00001001
00000000
00001000
00000100
,
00010000
00001000
00100000
00000000
,
00010000
01000000
00100000
00000000
,
10000000
01000000
00100000
00000000
,
10010000
00000000
00010000
00100000
,
00001000
00010000
00000100
00000000
,
00001000
00000010
00000100
00000000
,
00000001
00000001
00000010
00000100
,
00000000
00001001
00000000
00001000
,
00000100
00010000
00001000
00100000
,
00000000
10010000
00000000
00010000
,
01000000
00001000
00010000
00000010
,
00000000
00001001
00000000
00001000
,
00000100
00010000
00001000
01000000
,
00010000
00010000
10000000
10000000
,
00200000
00300000
02000000
03000000
,
00010000
00100000
00001000
00010000
,
00022000
00000000
00000000
00000000
,
00033000
00000000
00000000
00000000
;

//--------------- dance-double - forcednature ----------------
#NOTEDATA:;
#STEPSTYPE:dance-double;
#DESCRIPTION:forcednature;
#DIFFICULTY:Medium;
#METER:11;
#RADARVALUES:0,0,0,0,0;
#CREDIT:forcednature;
#NOTES:
00000000
00000000
00000000
00000000
,
00000000
00000000
00000000
00000000
,
00000000
00000000
00000000
00000000
,
00000000
00000000
00000000
00000000
,
00000000
00000000
00000000
00000000
,
00001000
00010000
00000000
00000000
00000100
00001000
00000000
00000000
,
00000010
00000000
00000000
00000000
00000100
00000000
00000000
00000001
00000000
00000000
00000010
00000000
00000100
00000000
00000000
00000000
,
00010000
00001000
00000000
00000000
00100000
00010000
00000000
00000000
,
01010000
01010000
10100000
10100000
,
00000000
00010000
00100000
00002000
00000000
00013000
00000000
00000100
,
00000000
00001000
00000010
00000200
00000000
00000301
00000000
00000010
,
00000000
00000100
00010000
00002000
00000000
00103000
00001000
00020000
,
00000000
00030010
00010000
00001000
02000000
00000000
03010000
00000000
,
00000000
10000000
01000000
00200000
00000000
00310000
00000000
01000000
,
00000000
00001000
00010000
00000020
00000000
00001030
00000000
00000000
,
00000002
00000000
00000000
00000203
00000000
00000000
00002300
00000000
00000000
00000000
00013000
00000000
00100000
00000000
00000000
00000000
,
10100000
10100000
01010000
01010000
,
00010000
00100000
00010000
00100000
01000000
00010000
00001000
00000010
,
00000002
00000000
00000100
00000000
00001003
00000010
00000110
00000000
,
00001001
00000000
00001000
00000100
00010000
00001000
01000000
00010000
,
10000000
00000000
00000000
00100000
00000000
00000000
10000000
00000000
00000000
01000000
00000000
00000000
00010000
00000000
00000000
00000000
,
00011000
00000000
00000100
00001000
00000100
00001000
00000001
00000010
,
00000001
00000010
00000100
00010000
00001000
00100000
00010000
00000000
,
10010000
00000000
10000000
01000000
10000000
00010000
01000000
00010000
,
00100000
00000000
00000000
00001000
00000000
00000000
00010000
00000000
00000000
00000100
00000000
00000000
00000010
00000000
00000000
00000000
,
00001001
00000000
00002000
00000000
00003100
00010000
00000100
00010000
,
00001000
00101000
00010100
00010100
,
00000000
00010000
00001000
00000020
00000000
00000130
00000100
00000010
,
00000000
00001000
00010000
00200000
00000000
01300000
01000000
00100000
,
00000000
00010000
00001000
00000020
00000000
00001030
00010000
00200000
,
00000000
00310000
00001000
00000010
00000100
00000000
00000110
00000000
,
00000000
00001000
00000100
00000002
00000000
00000103
00010000
00001000
,
00100000
00010000
01000000
20000000
00000000
31000000
00010000
00100000
,
00002000
00000000
00000000
00023000
00000000
00000000
00030200
00000000
00000000
00000000
00001300
00000000
00000010
00000000
00010000
00000000
,
00010010
00010010
01001000
01001000
,
00100000
00100000
00000000
01100000
,
20020000
00000000
00000000
00000000
,
00030000
00000000
00000000
00000000
00000000
00000000
30000000
00000000
00000000
00000000
02000000
00000000
00000000
03020000
00000000
00000000
,
00032000
00000000
00000000
00000000
,
00003020
00000000
00000000
00000000
00000000
00000000
00000230
00000000
00002300
00000000
00000000
00003002
00000000
00000000
00000203
00000000
,
00000000
00000000
00000000
00000000
,
00000000
00000300
00000000
00002000
00000000
00023000
00230000
00320000
,
00230000
00000000
20300000
00000000
,
01000000
01000000
00010000
30010000
,
00101000
00101000
00010100
00010100
,
00000100
00001000
00000100
00001000
00000010
00000100
00000010
00000100
,
00000001
00000010
00000010
00000001
00000100
00000010
00001000
00000100
,
00000000
00010000
00010000
00001000
00100000
00000000
01100000
00000000
,
10010000
00000000
00010000
00100000
01000000
00010000
01000000
00010000
,
01000000
00000000
00000000
10000000
00000000
00000000
00010000
00000000
00000000
00100000
00000000
00000000
00010000
00000000
00000000
00000000
,
01000000
00100000
00010000
00001000
00010000
00000100
00001000
00000010
,
00000100
00000000
00000000
00000001
00001000
00000000
00000000
00000001
00001000
00000000
00000010
00000000
00000100
00000000
00000000
00000000
,
00002001
00000000
00003100
00010000
00001000
00100000
00001000
00100000
,
00010000
00000000
00000000
01000000
00000000
00000000
10000000
00000000
00000000
01000000
00000000
00000000
00010000
00000000
00000000
00000000
,
00100000
00001000
00010000
00000000
00000010
00010000
00001000
00000000
,
00000010
00000000
00000000
00000010
00000000
00000000
00000100
00000000
00001000
00000000
00000001
00000000
00000100
00000000
00000000
00000000
,
00000110
00000000
00001000
00000100
00010000
00001000
00010000
00001000
,
00100000
00000000
00000000
00010000
00000000
00000000
01000000
00000000
00000000
10000000
00000000
00000000
01000000
00000000
00000000
00000000
,
00010000
00000000
00100000
00001000
00010000
00000100
00010000
00000100
,
00001000
00000010
00000100
00000001
00000100
00000100
00000010
00000000
,
00001001
00000000
00001000
00000010
00010000
00001000
01000000
00010000
,
00100000
00000000
00100000
01000000
10000000
00000000
10000000
01000000
,
00010000
00000000
00001000
00010000
00000100
00000100
00001000
00000001
,
00000020
00000000
00000100
00000000
00000031
00001000
00000100
00010000
,
00001000
00100000
00100000
00010000
01000000
00100000
10000000
00000000
,
20020000
00000000
00000000
00000000
,
30030000
00000000
00000000
00000000
;

//--------------- dance-double - forcednature assist by extraordiberry ----------------
#NOTEDATA:;
#STEPSTYPE:dance-double;
#DESCRIPTION:forcednature assist by extraordiberry;
#DIFFICULTY:Hard;
#METER:15;
#RADARVALUES:0,0,0,0,0;
#CREDIT:forcednature assist by extraordiberry;
#NOTES:
00000000
00000000
00000000
00000000
,
00000000
00000000
00000000
00000000
,
00000000
00000000
00000000
00000000
,
00000000
00000000
00000000
00000000
,
00000000
00000000
00000000
00000000
,
00101000
00101000
00000000
00000000
00010010
00010010
00000000
00000000
,
00011000
00000000
00000000
00000000
00201000
00000000
00000000
00310000
00000000
00000000
00100000
01000000
10000000
01000000
10000000
00000000
,
00010000
00110000
00000000
00000000
00011000
00011000
00000000
00000000
,
00001010
00000000
00000000
00000010
00000100
00000000
00000000
00000100
00000001
00000000
00000000
00000001
00001000
00000000
00000000
00000000
,
00000100
00010000
00001000
00200000
00000000
00301000
00010000
00000100
,
00000000
00010000
00001000
02000000
00000000
03001000
00010000
00000010
,
00000000
00010000
00001000
00200000
00000000
00301000
00010000
00000020
,
00000000
00010030
00001000
00200000
00010000
00310000
10010000
00000000
,
10000000
00010000
01000000
00200000
00000000
00310000
00001000
00010000
,
00000000
00001000
00000100
00000020
00000000
00010030
00001000
00010000
,
00000100
00000000
00000000
00001000
00000000
00000000
00000020
00000000
00000000
00000000
00000130
00000001
00000100
00000000
00000000
00000000
,
00001000
00000000
00010000
00001000
00100000
00000000
00001000
00010000
00000010
00000000
00010000
00001000
00100000
00000000
00001000
00010000
,
00000010
00001000
00000100
00000001
00000100
00010000
00001000
00100000
,
02200000
00000000
00000000
00000000
00000000
00000000
03300000
00000000
01000000
10000000
00100000
01000000
00010000
00000000
00000000
00000000
,
00101000
00000000
00000000
00000000
00000100
00000000
00010000
00000000
00000010
00001000
00000010
00001000
00000001
00000100
00000001
00000100
,
00000010
00000000
00001000
00000100
00000000
00010000
00001000
00000000
00100000
00010000
00000000
01000000
00200000
00000000
00000000
00000000
,
10300000
00000000
00000000
00000000
01020000
00000000
00000000
00000000
00130000
00001000
00100000
00001000
00010000
00000100
00010000
00000100
,
00001000
00000001
00001000
00000001
00000100
00000010
00000100
00000010
00001000
00000001
00000100
00000010
00001000
00000000
00000000
00000000
,
00001100
00000000
00000100
00000000
00011000
00000000
00000000
00000000
00100000
00010000
00100000
00010000
01000000
00100000
01000000
00100000
,
10000000
00000000
01000000
00100000
00000000
00010000
00100000
00000000
00001000
00010000
00000000
00000010
00002000
00000000
00000000
00000000
,
00003100
00000000
00000000
00000000
00001002
00000000
00000000
00000000
00000103
00000010
00000100
00000010
00001000
00000100
00001000
00000100
,
00010000
00000000
00000000
00010000
00001000
00000000
00000000
00001000
00100000
00000000
00000000
00100000
01000000
00000000
00000000
00000000
,
01100000
00000000
10000000
00010000
00100000
00000000
01000000
00000000
00100000
00000000
00001000
00000000
00010000
00000000
00000100
00000000
,
00001000
00000000
00000010
00000100
00000001
00000000
00000010
00000000
00000100
00000000
00010000
00000000
00000010
00000000
00001000
00000000
,
00000001
00000000
00000010
00000100
00010000
00000000
00001000
00000000
00100000
00000000
00001000
01000000
00100000
00000000
10000000
00000000
,
01000000
00000000
00100000
00001000
00010000
00000000
00000100
00010000
00001000
00000000
00000010
00000000
00000110
00000000
00000000
00000000
,
00001100
00000000
00000001
00000010
00000100
00000000
00010000
00000000
00000010
00000000
00001000
00000000
00000001
00000000
00000100
00000000
,
00001000
00000000
00010000
00001000
00100000
00000000
00010000
00000000
01000000
00000000
10000000
00000000
01000000
00000000
00010000
00000000
,
00100000
00000000
01000000
00100000
00000000
00010000
00100000
00000000
00001000
00010000
00001000
00010000
00000100
00001000
00000100
00001000
,
00000010
00000000
00000000
00000010
00000100
00000000
00000000
00001000
00010000
00000000
00000000
00100000
01000000
00000000
00000000
00000000
,
01100000
00000000
00000000
00000000
01100000
00000000
00010000
00000000
10000000
00000000
10000000
01000000
00000000
01000000
00010000
00000000
,
00002000
00000000
00000000
00000000
,
00000000
00000000
00000000
00000000
00000000
00000000
00003000
00000000
00000000
00000000
00000020
00000000
00000000
00000032
00000000
00000000
,
00000203
00000000
00000000
00000000
,
00002300
00000000
00000000
00000000
00000000
00000000
00023000
00000000
00230000
00000000
00000000
20300000
00000000
00000000
32000000
00000000
,
00000000
00000000
00000000
00000000
,
00000000
00000000
03000000
00000000
00000000
00000000
00100000
00020000
00000000
00000000
02030000
00000000
03002000
00000000
00023000
00000000
,
00030020
00001000
00000230
00000001
,
00000010
00000010
00001000
00001000
00000010
00000010
00000301
00001000
,
00001001
00000000
00000000
00000001
00000100
00000000
00000000
00001000
00010000
00000000
00000000
00100000
10000000
00000000
00000000
00000000
,
01000000
01000000
00010000
00010000
00001000
00001000
00000010
00000010
,
00000001
00001000
00000001
00001000
00000001
00001000
00000001
00001000
00000010
00000100
00000010
00000100
00000010
00000100
00000010
00000100
,
00001000
00000000
00010000
00000000
00100000
00000000
01000000
00000000
00010000
10000000
01000000
00100000
00001000
00000000
00000000
00000000
,
00011000
00000000
00000000
00000000
00000100
00001000
00000001
00001000
00000100
00000000
00000010
00000001
00000100
00000000
00000010
00001000
,
00000100
00000000
00010000
00001000
00000000
00100000
00010000
00000000
10000000
00100000
00000000
01000000
00010000
00000000
00100000
00001000
,
00000000
00000000
00010000
00001000
00010000
00000000
00000100
00001000
00000000
00000010
00000100
00000001
00000100
00000000
00000010
00001000
,
00000001
00000000
00000010
00000001
00001000
00000000
00000100
00010000
00001000
00100000
00010000
10000000
01000000
00000000
00100000
01000000
,
00020000
00000000
00000000
00000000
00031000
00000000
00000010
00000001
00001000
00000100
00001000
00000001
00000010
00000100
00000010
00000001
,
00001000
00000000
00000010
00010000
00000000
00001000
00010000
00000000
00001000
01000000
00010000
00100000
01000000
10000000
00100000
01000000
,
00000000
00010000
00100000
00010000
00100000
00000000
00001000
00010000
00000000
00000100
00001000
00000010
00000100
00000001
00001000
00000100
,
00000010
00000000
00000000
00000000
00000000
00000000
00000000
00000000
00000000
00000110
00000000
00000000
00000000
00000000
00000000
00000000
00000000
00000000
00000100
00000000
00001000
00000000
00000100
00000000
00010000
00000000
00000000
00000000
00000000
00000000
00001000
00000000
00100000
00000000
00010000
00000000
00100000
00000000
00000000
00000000
00000000
00000000
00000000
00000000
00000000
00000000
00000000
00000000
,
10010000
00000000
00000000
00000000
00010000
01000000
00010000
01000000
00001000
00010000
00001000
00010000
00000010
00001000
00000010
00000100
,
00000001
00000000
00001000
00000100
00000000
00010000
00001000
00000000
00100000
01000000
00000000
00010000
00002000
00000000
00000000
00000000
,
00103000
00000000
00010000
01000000
00100000
00000000
10000000
01000000
00100000
00010000
00100000
00001000
00010000
00000100
00001000
00000100
,
00000010
00000001
00000010
00000001
00000100
00000010
00000100
00000010
00001000
00000100
00010000
00001000
01000000
00000000
00000000
00000000
,
01100000
00000000
00000000
00000000
00100000
10000000
00100000
10000000
00010000
01000000
00001000
00010000
00000010
00001000
00000010
00000100
,
00000001
00000000
00000010
00000100
00001000
00000000
00000010
00000100
00000001
00000000
00000010
00000100
00020000
00000000
00000000
00000000
,
00031000
00100000
00010000
00100000
00001000
00010000
00000010
00001000
00000010
00010000
00001000
01000000
00010000
10000000
00100000
01000000
,
00020000
00000000
00000000
00000000
00100000
00000000
00000000
00000000
10030000
00000000
00000000
10000000
01000000
00000000
00010000
00000000
,
00001000
00000000
00100000
00010000
01000000
00000000
00001000
00000000
01000000
00010000
00100000
00001000
00010000
00000010
00001000
00000100
,
00000020
00000000
00000000
00000000
,
00000030
00000000
00000000
00000000
;
