#VERSION:0.83;
#TITLE:Vector;
#SUBTITLE:;
#ARTIST:VOLTA;
#TITLETRANSLIT:;
#SUBTITLETRANSLIT:;
#ARTISTTRANSLIT:;
#GENRE:TECH CORE;
#CREDIT:;
#MUSIC:Vector.ogg;
#BANNER:Vector.png;
#BACKGROUND:Vector-bg.png;
#CDTITLE:./CDTitles/bm IIDX INFINITAS.png;
#SAMPLESTART:30.207;
#SAMPLELENGTH:15.000;
#SELECTABLE:YES;
#OFFSET:-0.051;
#BPMS:0.000=175.000;
#STOPS:199.000=0.343
,262.000=0.343
;
#TIMESIGNATURES:0.000=4=4,
200.000=3=4,
203.000=4=4,
263.000=3=4,
266.000=4=4
;
#BGCHANGES:0.000=../BGAs/29cy.mp4=1.000=0=0=0=StretchNoLoop====,
99999.000=-nosongbg-=1.000=0=0=0=StretchNoLoop====
;
#FGCHANGES:;

//--------------- dance-single - forcednature ----------------
#NOTEDATA:;
#STEPSTYPE:dance-single;
#DESCRIPTION:forcednature;
#CREDIT:forcednature;
#DIFFICULTY:Beginner;
#METER:3;
#RADARVALUES:0,0,0,0,0;
#NOTES:
0000
0000
0000
0000
,
0000
0000
0000
0000
,
0000
0000
0000
0000
,
0000
0000
0000
0000
,
0000
0000
0000
0000
,
0000
0000
0000
0000
,
0000
0000
0000
0000
,
0000
0000
0000
0000
,
0000
0000
0000
0000
,
0000
0000
0000
0000
,
1001
0000
0000
0000
,
0000
0000
1000
0000
,
0100
0000
0000
0000
,
0000
0000
1000
0000
,
0010
0000
0000
0000
,
0000
0000
1000
0000
,
0001
0000
0000
0000
,
0010
0000
0000
0000
,
0000
0000
0100
0000
,
0100
0000
1000
0000
,
0000
0000
0010
0000
,
0010
0000
1000
0000
,
0002
0000
0000
0000
,
0000
0003
0100
0000
,
0010
0000
1000
0010
,
1000
0000
0000
0000
,
1001
0000
0000
0000
,
0001
0000
0010
0000
,
0100
0000
0000
0000
,
0010
0000
0001
0000
,
1000
0000
0000
0000
,
0010
0000
0100
0000
,
0001
0000
0000
0000
,
0100
0000
0010
0000
,
1001
0000
0000
0000
,
0000
0000
0000
0000
,
0110
0000
0001
0000
,
0001
0000
1000
0000
,
0110
0000
1000
0000
,
1000
0000
0001
0000
,
1001
0000
0000
0000
,
0100
0000
0000
0010
,
0010
0000
1000
0000
,
0001
0000
0000
0000
,
0100
0000
0001
0000
,
0010
0000
0001
0000
,
1000
0000
0001
0000
,
1000
0000
0000
0000
,
0010
0000
0100
0000
,
0001
0000
1000
1000
,
0000
1001
0000
0000
,
0000
0001
0000
0010
,
0000
0100
0000
0000
,
0000
0010
0000
0001
,
0000
1000
0000
0000
,
0000
0010
0000
0100
,
0000
0001
0000
1000
,
0000
0100
0100
0000
,
0000
1000
0000
1000
,
0000
0010
0000
0000
,
0000
0100
0000
0001
,
0000
1000
0000
0000
,
0000
0010
0000
0100
,
0000
0001
0000
0000
,
0000
0010
0000
0001
,
0000
1000
1000
0000
,
0010
0000
0100
0000
,
0001
0000
0000
0000
,
0010
0000
0001
0000
,
1000
0000
0000
0000
,
0100
0000
0010
0000
,
0001
0000
0000
0000
,
1000
0000
0010
0000
,
0100
0100
0002
0000
,
0000
0000
0000
0000
,
0003
0000
2000
0000
,
0000
0000
0000
0000
,
3000
0000
0200
0000
,
0000
0000
0000
0000
,
0300
0000
0020
0000
,
0000
0000
0000
0000
,
0030
0000
0000
0000
;

//--------------- dance-single - forcednature ----------------
#NOTEDATA:;
#STEPSTYPE:dance-single;
#DESCRIPTION:forcednature;
#CREDIT:forcednature;
#DIFFICULTY:Easy;
#METER:7;
#RADARVALUES:0,0,0,0,0;
#NOTES:
0000
0000
0000
0000
,
0000
0000
0000
0000
,
0000
0000
0000
0000
,
0000
0000
0000
0000
,
0000
0000
0000
0000
,
0000
0000
0000
0000
,
0000
0000
0000
0000
,
0000
0000
0000
0000
,
0000
0000
0000
0000
,
0000
0000
0000
0000
,
1001
0000
0001
0000
,
0100
0010
1000
0001
,
0100
0000
1001
0000
,
1000
0100
0010
0001
,
1000
0000
0110
0000
,
0001
0000
1000
0000
0010
0000
0000
0220
,
0000
0000
0000
0000
0000
0330
0000
2002
,
0000
0000
0000
3003
,
1000
0100
1000
1000
,
0000
0010
0100
0001
,
0010
0001
0100
0100
,
0000
0001
1000
0100
,
0010
0001
0010
0001
,
0100
0010
0100
0010
,
1000
0100
0010
0001
,
0200
0000
0000
0300
,
1001
0000
1000
0100
,
1000
0010
1000
0000
,
1001
0000
0001
0100
,
0001
0010
0001
0000
,
0110
0000
0100
1000
,
0001
0100
0010
0000
,
0110
0000
0100
0001
,
1000
0100
0010
0000
,
2002
0000
0000
0000
,
0000
0000
0000
3003
,
0110
0000
0001
0100
,
1000
0100
0001
0100
,
1000
0000
0100
0001
,
0010
1000
0010
0001
,
0010
0000
0100
1000
,
0010
1000
0100
0010
,
0110
0000
1000
0001
,
0100
0001
0010
0010
,
0001
0000
1000
0010
,
1000
0001
0100
0010
,
0110
0000
0001
1000
,
0100
1000
0001
0010
,
0100
0000
1000
0001
,
0100
0001
1001
1001
,
1000
0010
1000
0001
,
0010
0001
0100
0010
,
0000
1000
0100
1000
,
0001
0100
0010
1000
,
0000
0001
0010
0100
,
0010
0001
1000
0100
,
0000
0000
1000
0000
0000
0010
0000
0000
,
0100
0001
0001
0000
,
1000
0100
1000
0010
,
0100
0001
0010
0000
,
0100
1000
0001
0100
,
0001
1000
0100
0000
,
0010
0001
1000
0010
,
1000
0001
0010
0000
,
0100
1000
0010
0100
,
0001
1001
1001
1000
,
0010
1000
0001
0010
,
0100
0010
0000
0001
,
1000
0100
1000
0001
,
0100
0010
0000
1000
,
0100
1000
0001
0100
,
0001
0010
0000
0100
,
0010
0000
0000
0001
0000
0000
1000
0000
,
0010
0010
0200
0000
,
0000
0000
0000
0300
,
0001
0000
2000
0000
,
0000
0000
3010
0000
,
0100
0000
0002
0000
,
0000
0000
0000
0003
,
0010
0000
0200
0000
,
0000
0000
1300
0000
,
0001
0000
0000
0000
;

//--------------- dance-single - forcednature ----------------
#NOTEDATA:;
#STEPSTYPE:dance-single;
#DESCRIPTION:forcednature;
#CREDIT:forcednature;
#DIFFICULTY:Medium;
#METER:11;
#RADARVALUES:0,0,0,0,0;
#NOTES:
0000
0000
0000
0000
,
0000
0000
0000
0000
,
0000
0000
0000
0000
,
0000
0000
0000
0000
,
0000
0000
0000
0000
,
0000
0000
0000
0000
,
0000
0000
0000
0000
,
0000
0000
0000
0000
,
0000
0000
0000
0000
,
0000
0000
0000
0000
,
1001
0001
0100
0010
,
1000
0000
0100
1000
0100
0000
0010
0000
,
0001
1000
0010
0100
,
0001
0000
0010
0001
0010
0000
0100
0000
,
1000
0010
0100
0001
,
0010
0000
0100
0010
0100
0000
0000
2002
,
0000
0000
0000
0000
0000
3003
0000
0220
,
0000
0000
0330
0000
1000
0001
1000
0000
,
1010
0000
0001
0000
0100
0010
0000
0010
,
0000
1000
0001
0000
0010
0000
0100
0000
,
0010
0000
0001
0000
1000
0100
0000
0100
,
0000
1000
0010
0000
0100
0000
0001
0000
,
0010
0001
0010
0001
0010
0100
0010
0100
,
1000
0010
1000
0010
0100
0010
0100
0010
,
2000
3002
0203
0320
,
1030
0000
1000
0000
1000
0001
0010
0000
,
1001
0000
0000
0000
0001
0000
0000
0010
0000
0000
0010
0000
0001
0000
0000
1000
,
0000
0000
1000
0000
0100
0000
0000
0010
0000
0000
0100
0000
1000
0000
0000
0000
,
1001
0000
0000
0000
1000
0000
0000
0010
0000
0000
1000
0000
0001
0000
0000
0100
,
0000
0000
0001
0000
0010
0000
0000
0100
0000
0000
1000
0000
0010
0000
0000
0000
,
0110
0000
0000
0000
0001
0000
0000
1000
0000
0000
0100
0000
1000
0000
0000
0001
,
0000
0000
0010
0000
0100
0000
0000
0010
0000
0000
0001
0000
1000
0000
0000
0000
,
1010
0000
0000
0000
0001
0000
0000
0001
0000
0000
0100
0000
0010
0000
0000
1000
,
0000
0000
1000
0000
0100
0000
0000
0010
0000
0000
0001
0000
0100
0000
0000
0000
,
2001
0001
0100
0100
,
0001
0001
3010
0110
,
1001
0000
1000
0100
1000
0010
0000
0010
,
1000
0001
0000
0001
1000
0100
0010
0000
,
0110
0000
0001
0010
0001
1000
0000
1000
,
0001
0100
0000
0100
0010
1000
0100
0000
,
0110
0000
0000
0000
0010
0000
0000
0010
0000
0000
0001
0000
1000
0000
0000
2002
,
0000
0000
0000
0000
3003
0000
0010
0100
,
0110
0000
0000
0000
1001
0000
0000
0000
1000
0000
0000
0100
1000
0000
0000
0000
,
0010
0100
0001
0000
0100
0010
1000
0000
,
0001
0000
0000
0000
0011
0000
0000
0000
1000
0000
0000
0100
0010
0000
0000
0000
,
0100
1000
0001
0000
0100
0010
0100
0000
,
0001
0000
0000
0000
1010
0000
0000
0000
0001
0000
0000
0010
0100
0000
0000
0000
,
1000
0001
0100
0000
0001
1000
0100
0000
,
0010
0000
0000
0000
0011
0000
0000
0000
1000
0000
0000
0100
1000
0000
0010
0000
,
0000
0100
0001
0000
0011
0000
0022
0033
,
1100
0000
0000
0000
0001
0000
0000
0001
0100
0000
0000
0000
0010
0000
1000
0000
,
0001
0000
0010
0001
0100
0000
0010
0000
,
0110
0000
0000
0000
1000
0000
0000
0100
1000
0000
0000
0000
0001
0000
0010
0000
,
0100
0000
0010
0001
1000
0000
0010
0000
,
0110
0000
0000
0000
0001
0000
0000
1000
0100
0000
0000
0000
1000
0000
0001
0000
,
0100
0000
0001
1000
0010
0000
0100
0000
,
0101
0000
1001
0000
1000
0100
0000
1000
,
0010
0100
0001
0000
0100
0010
0100
0000
,
0001
0000
0011
0000
1100
0000
0001
0010
,
0100
0000
0010
0001
1000
0000
0010
0000
,
0100
0000
0110
0000
1010
0000
0001
1000
,
0100
0000
1000
0001
0100
0000
0010
0000
,
1000
0000
1100
0000
1010
0000
0010
0100
,
0001
0000
0010
0001
1000
0000
0010
0000
,
0100
0000
0101
0000
0001
0010
0000
0001
,
1000
0000
1100
0000
2200
3300
0011
0000
,
0001
0100
0010
0100
0001
1000
0010
0000
,
1000
0100
0001
0000
0100
0000
1100
0000
,
1000
0010
0100
0010
1000
0001
0100
0000
,
1000
0100
0001
0000
0010
0000
0011
0000
,
0001
1000
0010
1000
0001
0010
0100
0000
,
0001
0100
1000
0000
0010
0000
1010
0000
,
0001
0000
0001
0100
0000
0010
1000
0000
,
1100
1001
0002
0000
,
0010
0000
0000
0010
0000
0000
0013
0000
,
0001
0000
0000
1000
0000
0000
0001
0000
2000
0000
0000
0000
0000
0000
0000
0000
,
0010
0000
0000
0010
0000
0000
3010
0000
,
1000
0000
0000
0001
0000
0000
1000
0000
0002
0000
0000
0000
0000
0000
0000
0000
,
0100
0000
0000
0100
0000
0000
0103
0000
,
0001
0000
0000
1000
0000
0000
0001
0000
2000
0000
0000
0000
0000
0000
0000
0000
,
0100
0000
0000
0000
0000
0000
0000
0000
3001
0000
0000
0010
0000
0000
0100
0000
,
1000
0000
0000
0001
0000
0000
0100
0000
0000
0000
0000
0000
0000
0000
0000
0000
;

//--------------- dance-single - forcednature ----------------
#NOTEDATA:;
#STEPSTYPE:dance-single;
#DESCRIPTION:forcednature;
#CREDIT:forcednature;
#DIFFICULTY:Hard;
#METER:15;
#RADARVALUES:0,0,0,0,0;
#NOTES:
0000
0000
0000
0000
,
0000
0000
0000
0000
,
0000
0000
0000
0000
,
0000
0000
0000
0000
,
0000
0000
0000
0000
,
0000
0000
0000
0000
,
0000
0000
0000
0000
,
0000
0000
0000
0000
,
0000
0000
0000
0000
,
0000
0000
0000
0000
,
2000
0000
3100
0001
0100
1000
0001
0000
,
0010
0100
1000
0010
0100
0001
0010
0000
,
0002
0000
0103
1000
0100
0001
1000
0000
,
0010
0100
0001
0010
0100
1000
0010
0000
,
2000
0000
3001
0010
1000
0010
0001
1000
,
0100
0000
1000
0000
0001
0000
0100
0000
0220
0000
0000
0330
0000
0000
2002
0000
,
0000
0000
0000
0000
0000
3003
0000
2200
,
0000
0300
0000
0000
3001
0000
0010
0000
0001
1000
0001
1000
0001
0000
0000
0000
,
0100
0000
0010
0000
1000
0000
0010
0000
0100
0000
0000
0100
0001
0000
1000
0000
,
0010
0000
0100
0000
0001
0000
1000
0000
0100
0000
0000
1000
0001
0000
0010
0000
,
0001
0000
0100
0000
0001
0000
1000
0000
0010
0000
0000
0010
0100
0000
0001
0000
,
1000
0000
0100
0000
1000
0000
0001
0000
0010
0000
0000
0001
0100
0000
0010
0000
,
1000
1000
0100
0100
0010
0010
0001
0001
,
1000
1000
0010
0010
0100
0100
0001
0001
,
0010
0100
0010
0100
0010
0100
0010
0100
1000
0001
1000
0001
1000
0001
1000
0001
,
0010
0000
0010
0000
0010
0100
0110
0000
,
1001
0000
0000
0000
1000
0000
0000
0100
0000
0000
0001
0000
0100
0000
0000
1000
,
0000
0000
0010
0000
0001
0000
0000
0010
0000
0000
1000
0000
1100
0000
0000
0000
,
0011
0000
0000
0000
0001
0000
0000
0100
0000
0000
1000
0000
0001
0000
0000
0010
,
0000
0000
1000
0000
0001
0000
0000
0010
0000
0000
0100
0000
0110
0000
0000
0000
,
1001
0000
0000
0000
1000
0000
0000
1100
0000
0000
0001
0000
0010
0000
0000
0110
,
0000
0000
1000
0000
0010
0000
0000
0101
0000
0000
0001
0000
0010
0000
0000
0000
,
1001
0000
0000
0000
0001
0000
0000
0010
0000
0000
1000
0000
0001
0000
0000
0110
,
0000
0000
1000
0000
0010
0000
0000
0001
0000
0000
1000
0000
0100
0000
0000
0000
,
0120
0000
0000
0000
0100
0000
0000
0000
0100
0000
0000
0000
1000
0000
0000
0100
,
0000
0000
0031
0000
0010
0000
0000
1000
0000
0100
1000
0001
1000
0000
0000
0000
,
0021
0000
0000
0000
0130
0000
0010
0001
0100
0000
0010
0000
0100
0000
0010
1000
,
0100
0000
0010
0000
0100
0000
0010
0001
0100
0000
0010
0000
1001
0000
0000
0000
,
1000
0000
0100
1000
0010
0000
0100
0000
0010
0000
0100
0001
0010
0000
0100
0000
,
0010
0000
0100
1000
0010
0000
0100
0000
0010
0000
0100
0001
1000
0000
0000
0000
,
1001
0000
1000
0000
0100
0000
1000
0010
0000
0100
0010
0000
0100
0000
0001
0020
,
0000
0000
0031
0000
0100
0010
0100
0010
1000
0001
1000
0001
0100
0010
1000
0001
,
0100
0000
0000
0000
0110
0000
0000
0000
0010
0000
0000
1000
0100
0000
1000
0000
,
0001
0000
0010
0000
1000
0000
0010
0000
0001
0000
0000
0100
0010
0000
1000
0000
,
0100
0000
0000
0000
0110
0000
0000
0000
0010
0000
0000
0001
0100
0000
0001
0000
,
1000
0000
0010
0000
0001
0000
0000
0000
0010
0000
1000
0010
1000
0000
0001
0100
,
0010
0000
0000
0000
0110
0000
0000
0000
0100
0000
0000
0001
0010
0000
1000
0000
,
0010
0000
0001
0000
1000
0000
0000
0000
0100
0000
0010
0100
0010
0000
0001
1000
,
0010
0000
0000
0000
0110
0000
0000
0000
0100
0000
0000
0001
0010
0000
1000
0000
,
0000
0010
0001
0100
0101
0000
2020
3030
,
0110
0000
0001
0000
1000
0000
0000
0100
0001
0000
0100
0000
1000
0000
0001
0010
,
0100
0000
0010
0000
0001
0000
1000
0100
0010
0000
0001
0000
0100
0000
0000
0000
,
0110
0000
1000
0000
0001
0000
0000
0100
1000
0000
0100
0000
0001
0000
1000
0010
,
0100
0000
0001
0000
0010
0000
0100
1000
0010
0000
0100
0001
0010
0000
0000
0000
,
0110
0000
0001
0000
1000
0000
0000
0100
0010
0000
1000
0000
0010
0000
0001
1000
,
0100
0000
1000
0000
0001
0000
0010
0100
1000
0000
0010
0100
0001
0000
0000
0000
,
0110
0000
1000
0000
1001
0000
0000
0001
0010
0000
0210
0000
0000
0000
1300
0000
,
0010
0001
1000
0100
0001
0000
1001
0000
,
1000
0000
0100
0000
0010
0000
0100
1000
0010
0000
0100
0000
0001
0000
0010
0000
,
0100
0000
0010
0000
0001
0000
1000
0100
0010
0000
0100
1000
0001
0000
0100
0000
,
0010
0000
1000
0000
0001
0000
0010
0001
0100
0000
0010
0000
1000
0000
0001
0000
,
0100
0000
1000
0000
0100
0000
0001
0010
0100
0000
1000
0010
0100
0000
0001
0000
,
1000
0000
0100
0000
0001
0000
0100
1000
0001
0000
0010
0000
0100
0000
1000
0000
,
0010
0000
0100
0000
0001
0000
0010
0100
1000
0000
0010
0100
0001
0000
1000
0000
,
0100
0000
0010
0000
1000
0000
0010
0001
1000
0000
0100
0000
1000
0000
0001
0000
,
1001
0000
1100
0000
0022
0033
0110
1000
,
0010
0000
0100
0001
1000
0000
0100
0010
0001
0000
1000
0000
0010
0000
0001
0000
,
0010
0000
1000
0001
0100
0000
0010
1000
0100
0000
0010
0000
1000
0000
0010
0000
,
0001
0000
1000
0100
0010
0000
0001
0100
0010
0000
1000
0000
0001
0000
0010
0000
,
0100
0000
1000
0001
0100
0000
0010
1000
0100
0000
0010
0000
0001
0000
1000
0000
,
0010
0000
1000
0100
0001
0000
0100
1000
0001
0000
0010
0000
0100
0000
1000
0000
,
0010
0000
0100
0001
0010
0000
0100
1000
0001
0000
0100
0000
0010
0000
1000
0000
,
0001
0000
0010
0100
1000
0000
0020
0000
0000
0000
0130
0000
0101
0000
0000
0000
,
0011
1010
2001
0000
,
0100
0000
0000
3020
0000
0000
0100
0000
,
1030
0000
0000
0001
0000
0000
0010
0000
0200
0000
0000
0000
0000
0000
0000
0000
,
0010
0000
0000
0000
2300
0000
0000
0000
0010
0000
0000
0001
0000
0000
0001
0000
,
3200
0000
0000
0010
0000
0000
0010
0000
2300
0000
0000
0000
0000
0000
0000
0000
,
0001
0000
0000
3020
0000
0000
0100
0000
,
1030
0000
0000
0100
0000
0000
0010
0000
0002
0000
0000
0000
0000
0000
0000
0000
,
0100
0000
0000
0000
0023
0000
0000
0000
0130
0000
0000
1000
0000
0000
0001
0000
,
0100
0010
0000
1000
0000
0000
0001
0000
0000
0000
0000
0000
0000
0000
0000
0000
;

//--------------- dance-double - forcednature ----------------
#NOTEDATA:;
#STEPSTYPE:dance-double;
#DESCRIPTION:forcednature;
#CREDIT:forcednature;
#DIFFICULTY:Easy;
#METER:7;
#RADARVALUES:0,0,0,0,0;
#NOTES:
00000000
00000000
00000000
00000000
,
00000000
00000000
00000000
00000000
,
00000000
00000000
00000000
00000000
,
00000000
00000000
00000000
00000000
,
00000000
00000000
00000000
00000000
,
00000000
00000000
00000000
00000000
,
00000000
00000000
00000000
00000000
,
00000000
00000000
00000000
00000000
,
00000000
00000000
00000000
00000000
,
00000000
00000000
00000000
00000000
,
00011000
00000000
00010000
00000000
,
00001000
00100000
00010000
00100000
,
01000000
00000000
10010000
00000000
,
10000000
01000000
00100000
00010000
,
00100000
00000000
00011000
00000000
,
00000010
00000000
00001000
00000000
00000001
00000000
00000000
00002002
,
00000000
00000000
00000000
00000000
00000000
00003003
00000000
00000220
,
00000000
00000000
00000000
00000330
,
00000001
00001000
00000001
00000001
,
00000000
00000010
00000100
00001000
,
00000100
00010000
00001000
00001000
,
00000000
01000000
00010000
01000000
,
00100000
10000000
00100000
10000000
,
01000000
10000000
01000000
10000000
,
00010000
00100000
00001000
00010000
,
00002000
00000000
00000000
00003000
,
00011000
00000000
00000100
00001000
,
00000100
00000010
00000001
00000000
,
00001001
00000000
00001000
00000010
,
00010000
00001000
00010000
00000000
,
00011000
00000000
00100000
00010000
,
00100000
01000000
10000000
00000000
,
10010000
00000000
00010000
01000000
,
00001000
00010000
00001000
00000000
,
00022000
00000000
00000000
00000000
,
00000000
00000000
00000000
00033000
,
00011000
00000000
00001000
00000010
,
00000001
00000010
00001000
00010000
,
00001000
00000000
00010000
00100000
,
10000000
00100000
00010000
00001000
,
00010000
00000000
00001000
00000100
,
00000001
00000100
00001000
00010000
,
00011000
00000000
01000000
00010000
,
00100000
00010000
10000000
10000000
,
00010000
00000000
00100000
00001000
,
00010000
00000100
00010000
00001000
,
00011000
00000000
00000010
00001000
,
00000100
00001000
00000001
00000100
,
00000001
00000000
00000010
00000100
,
00010000
00001000
00011000
00011000
,
01000000
00010000
00100000
00010000
,
10000000
00100000
10000000
01000000
,
00000000
00100000
00010000
00100000
,
00001000
00010000
00000100
00010000
,
00000000
00001000
00010000
00000010
,
00001000
00000010
00000100
00000001
,
00000000
00000000
00000010
00000000
00000000
00000100
00000000
00000000
,
00010000
00001000
00001000
00000000
,
01000000
00010000
01000000
00100000
,
10000000
01000000
10000000
00000000
,
00010000
00100000
00001000
00010000
,
00000100
00010000
00001000
00000000
,
00010000
00000010
00001000
00000010
,
00000100
00000001
00000010
00000000
,
00000100
00001000
00000100
00010000
,
00001000
00011000
00011000
01000000
,
00010000
01000000
00100000
10000000
,
00100000
01000000
00000000
00010000
,
00100000
00001000
00010000
00000100
,
00001000
00000010
00000000
00000100
,
00000001
00001000
00000100
00001000
,
00000001
00000010
00000000
00000100
,
00010000
00000000
00000000
00010000
00000000
00000000
00001000
00000000
,
00100000
00100000
00020000
00000000
,
00000000
00000000
00000000
00030000
,
01000000
00000000
00200000
00000000
,
00000000
00000000
10300000
00000000
,
00100000
00000000
02000000
00000000
,
00000000
00000000
00000000
03000000
,
00001000
00000000
00020000
00000000
,
00000000
00000000
00030100
00000000
,
00010000
00000000
00000000
00000000
;

//--------------- dance-double - forcednature ----------------
#NOTEDATA:;
#STEPSTYPE:dance-double;
#DESCRIPTION:forcednature;
#CREDIT:forcednature;
#DIFFICULTY:Medium;
#METER:11;
#RADARVALUES:0,0,0,0,0;
#NOTES:
00000000
00000000
00000000
00000000
,
00000000
00000000
00000000
00000000
,
00000000
00000000
00000000
00000000
,
00000000
00000000
00000000
00000000
,
00000000
00000000
00000000
00000000
,
00000000
00000000
00000000
00000000
,
00000000
00000000
00000000
00000000
,
00000000
00000000
00000000
00000000
,
00000000
00000000
00000000
00000000
,
00000000
00000000
00000000
00000000
,
00011000
00010000
00001000
00000010
,
00000100
00000000
00000010
00000100
00000010
00000000
00000001
00000000
,
00000100
00000010
00000100
00001000
,
00010000
00000000
00001000
00010000
00001000
00000000
00100000
00000000
,
00010000
01000000
10000000
00010000
,
00100000
00000000
00010000
00100000
00001000
00000000
00000000
00022000
,
00000000
00000000
00000000
00000000
00000000
00033000
00000000
00020200
,
00000000
00000000
00030300
00000000
00000100
00001000
00000100
00000000
,
00001100
00000000
00000001
00000000
00000010
00000100
00000000
00000100
,
00000000
00000010
00000001
00000000
00000100
00000000
00001000
00000000
,
00010000
00000000
00001000
00000000
00100000
00010000
00000000
00010000
,
00000000
01000000
00100000
00000000
10000000
00000000
01000000
00000000
,
00100000
00010000
00100000
00000000
00001000
00010000
00001000
00000000
,
00010000
00000100
00010000
00000000
00000100
00001000
00000100
00000000
,
00000020
00000032
00000203
00002300
,
00013000
00000000
00010000
00000000
00010000
00001000
00010000
00000000
,
00011000
00000000
00000000
00000000
00100000
00000000
00000000
00010000
00000000
00000000
00010000
00000000
01000000
00000000
00000000
00100000
,
00000000
00000000
00100000
00000000
10000000
00000000
00000000
01000000
00000000
00000000
00100000
00000000
00010000
00000000
00000000
00000000
,
10010000
00000000
00000000
00000000
10000000
00000000
00000000
00100000
00000000
00000000
10000000
00000000
00010000
00000000
00000000
00100000
,
00000000
00000000
00010000
00000000
00100000
00000000
00000000
00001000
00000000
00000000
00010000
00000000
00001000
00000000
00000000
00000000
,
00011000
00000000
00000000
00000000
00010000
00000000
00000000
00000100
00000000
00000000
00001000
00000000
00000100
00000000
00000000
00000010
,
00000000
00000000
00000001
00000000
00000100
00000000
00000000
00000001
00000000
00000000
00000100
00000000
00000010
00000000
00000000
00000000
,
00001001
00000000
00000000
00000000
00001000
00000000
00000000
00001000
00000000
00000000
00000100
00000000
00010000
00000000
00000000
00001000
,
00000000
00000000
00001000
00000000
01000000
00000000
00000000
00010000
00000000
00000000
01000000
00000000
00100000
00000000
00000000
00000000
,
20010000
00010000
01000000
01000000
,
00010000
00010000
30100000
01100000
,
10010000
00000000
10000000
01000000
00000000
01000000
00100000
00010000
,
00000000
00010000
01000000
00001000
00000000
00001000
00010000
00000000
,
00011000
00000000
00010000
00001000
00000000
00001000
00010000
00000100
,
00000000
00000100
00001000
00000010
00000000
00000010
00000100
00000000
,
00001001
00000000
00000000
00000000
00000001
00000000
00000000
00000010
00000000
00000000
00000010
00000000
00001000
00000000
00000000
00022000
,
00000000
00000000
00033000
00100000
,
01100000
00000000
00000000
00000000
10010000
00000000
00000000
00000000
10000000
00000000
00000000
01000000
00000000
00000000
00100000
00000000
,
00000000
01000000
00010000
00000000
00001000
00010000
00001000
00000000
,
00010000
00000000
00000000
00000000
00011000
00000000
00000000
00000000
00001000
00000000
00000000
00000010
00000000
00000000
00000100
00000000
,
00000000
00000010
00000001
00000000
00000100
00000010
00001000
00000000
,
00000100
00000000
00000000
00000000
00011000
00000000
00000000
00000000
00100000
00000000
00000000
00010000
00000000
00000000
01000000
00000000
,
00000000
00100000
10000000
00000000
01000000
00100000
00010000
00000000
,
01000000
00000000
00000000
00000000
00011000
00000000
00000000
00000000
00000100
00000000
00000000
00001000
00000000
00000000
00000010
00000000
,
00000000
00000100
00000001
00000000
00000011
00000000
00000022
00000033
,
00001001
00000000
00000000
00000000
00001000
00000000
00000000
00001000
00000100
00000000
00000000
00000000
00010000
00000000
00001000
00000000
,
00100000
00000000
00010000
01000000
00010000
00000000
01000000
00000000
,
01100000
00000000
00000000
00000000
00100000
00000000
00000000
00100000
10000000
00000000
00000000
00000000
01000000
00000000
10000000
00000000
,
00010000
00000000
00100000
00010000
00100000
00000000
00001000
00000000
,
00011000
00000000
00000000
00000000
00010000
00000000
00000000
00001000
00010000
00000000
00000000
00000000
00000100
00000000
00001000
00000000
,
00000100
00000000
00000010
00000100
00000010
00000000
00000001
00000000
,
00000101
00000000
00001001
00000000
00001000
00000100
00000000
00000100
,
00010000
00000000
00011000
00000000
00001000
00010000
00001000
00000000
,
00100000
00000000
00110000
00000000
10010000
00000000
10000000
00100000
,
01000000
00000000
00100000
01000000
00010000
00000000
00100000
00000000
,
00001000
00000000
00011000
00000000
00010100
00000000
00000100
00001000
,
00000010
00000000
00000100
00000001
00001000
00000000
00000100
00000000
,
00010000
00000000
00011000
00000000
00101000
00000000
00100000
00010000
,
01000000
00000000
00100000
10000000
00010000
00000000
00100000
00000000
,
00001000
00000000
00011000
00000000
00010000
00001000
00000000
00010000
,
00000100
00000000
00001100
00000000
00002200
00003300
00001001
00000000
,
00000001
00000100
00000010
00000000
00001000
00000100
00010000
00000000
,
00001000
01000000
00010000
00000000
00100000
00000000
00110000
00000000
,
00010000
10000000
00100000
00000000
01000000
00010000
00100000
00000000
,
00001000
00010000
00000100
00000000
00001000
00000000
00001010
00000000
,
00000001
00000100
00000010
00000000
00001000
00000100
00010000
00000000
,
00001000
01000000
00010000
00000000
00100000
00000000
01100000
00000000
,
01000000
00000000
01000000
10000000
00000000
10000000
00100000
00000000
,
01100000
10010000
00020000
00000000
,
00100000
00000000
00000000
00100000
00000000
00000000
00130000
00000000
,
00001000
00000000
00000000
00010000
00000000
00000000
00001000
00000000
00020000
00000000
00000000
00000000
00000000
00000000
00000000
00000000
,
00000100
00000000
00000000
00000100
00000000
00000000
00030100
00000000
,
00010000
00000000
00000000
00001000
00000000
00000000
00010000
00000000
00000020
00000000
00000000
00000000
00000000
00000000
00000000
00000000
,
00001000
00000000
00000000
00001000
00000000
00000000
00001030
00000000
,
00000010
00000000
00000000
00000100
00000000
00000000
00000010
00000000
00000200
00000000
00000000
00000000
00000000
00000000
00000000
00000000
,
00000001
00000000
00000000
00000000
00000000
00000000
00000000
00000000
00000310
00000000
00000000
00001000
00000000
00000000
00000010
00000000
,
00010000
00000000
00000000
00001000
00000000
00000000
00010000
00000000
00000000
00000000
00000000
00000000
00000000
00000000
00000000
00000000
;

//--------------- dance-double - forcednature ----------------
#NOTEDATA:;
#STEPSTYPE:dance-double;
#DESCRIPTION:forcednature;
#CREDIT:forcednature;
#DIFFICULTY:Hard;
#METER:15;
#RADARVALUES:0,0,0,0,0;
#NOTES:
00000000
00000000
00000000
00000000
,
00000000
00000000
00000000
00000000
,
00000000
00000000
00000000
00000000
,
00000000
00000000
00000000
00000000
,
00000000
00000000
00000000
00000000
,
00000000
00000000
00000000
00000000
,
00000000
00000000
00000000
00000000
,
00000000
00000000
00000000
00000000
,
00000000
00000000
00000000
00000000
,
00000000
00000000
00000000
00000000
,
00002000
00000000
00103000
00010000
00100000
00001000
00010000
00000000
,
00000010
00001000
00000100
00000010
00000001
00000100
00000010
00000000
,
00002000
00000000
00003100
00010000
00001000
00010000
00001000
00000000
,
00100000
00010000
01000000
00100000
10000000
01000000
00100000
00000000
,
00020000
00000000
01030000
00001000
00010000
00001000
00010000
00000100
,
00001000
00000000
00000010
00000000
00000100
00000000
00000010
00000000
00000220
00000000
00000000
00000330
00000000
00000000
00002002
00000000
,
00000000
00000000
00000000
00000000
00000000
00003003
00000000
00000202
,
00000000
00000300
00000000
00000000
00000013
00000000
00000001
00000000
00001000
00000001
00001000
00000001
00001000
00000000
00000000
00000000
,
00000100
00000000
00010000
00000000
00001000
00000000
00010000
00000000
00001000
00000000
00000000
00001000
00100000
00000000
00000000
00000000
,
00010000
00000000
01000000
00000000
00010000
00000000
10000000
00000000
00100000
00000000
00000000
01000000
00100000
00000000
00000000
00000000
,
10000000
00000000
01000000
00000000
10000000
00000000
00010000
00000000
00100000
00000000
00000000
00100000
00001000
00000000
00000000
00000000
,
00010000
00000000
00001000
00000000
00010000
00000000
00000100
00000000
00001000
00000000
00000000
00000010
00001000
00000000
00000000
00000000
,
00000100
00000010
00000100
00000010
00000001
00000100
00000001
00000100
,
00001000
00010000
00001000
00010000
00100000
10000000
00100000
10000000
,
00010000
10000000
00010000
00000000
10000000
00010000
10000000
00000000
00010000
10000000
00010000
00000000
10000000
00010000
10000000
00000000
,
00100000
00000000
00100000
00000000
00100000
01000000
01100000
00000000
,
10010000
00000000
00000000
00000000
10000000
00000000
00000000
01000000
00000000
00000000
00010000
00000000
00001000
00000000
00000000
00010000
,
00000000
00000000
00001000
00000000
00000010
00000000
00000000
00000001
00000000
00000000
00000100
00000000
00000110
00000000
00000000
00000000
,
00001001
00000000
00000000
00000000
00000001
00000000
00000000
00000100
00000000
00000000
00001000
00000000
00010000
00000000
00000000
01000000
,
00000000
00000000
10000000
00000000
00100000
00000000
00000000
00010000
00000000
00000000
00100000
00000000
10000000
00000000
00000000
00000000
,
10010000
00000000
00000000
00000000
10000000
00000000
00000000
01000000
00000000
00000000
00100000
00000000
00001000
00000000
00000000
00010000
,
00000000
00000000
00000100
00000000
00001000
00000000
00000000
00000010
00000000
00000000
00000001
00000000
00000010
00000000
00000000
00000000
,
00000110
00000000
00000000
00000000
00000100
00000000
00000000
00000001
00000000
00000000
00000010
00000000
00001000
00000000
00000000
00011000
,
00000000
00000000
00010000
00000000
00100000
00000000
00000000
10000000
00000000
00000000
01000000
00000000
10000000
00000000
00000000
00000000
,
10020000
00000000
00000000
00000000
10000000
00000000
00000000
00000000
10000000
00000000
00000000
00000000
00100000
00000000
00000000
10000000
,
00030000
00000000
00010000
00000000
00100000
00000000
00000000
00001000
00000000
00010000
00001000
00010000
00001000
00000000
00000000
00000000
,
00011000
00000000
00001000
00000010
00000001
00000100
00001000
00010000
,
00001000
00000100
00000001
00000010
00001000
00010000
01000000
00000000
,
00011000
00000000
00010000
00100000
10000000
01000000
00010000
00001000
,
00010000
01000000
10000000
00100000
00010000
00001000
00000100
00000000
,
00011000
00000000
00000000
00000000
00010000
00000000
00000000
00001000
00000000
00000000
00000010
00000000
00000100
00000000
00000000
00000110
,
00000000
00000000
00000000
00000000
00000001
00001000
00000001
00000000
00001000
00000001
00001000
00000000
00000100
00000000
00000000
00000000
,
00000110
00000000
00000000
00000000
00001001
00000000
00000000
00000000
00000001
00000000
00000000
00000100
00000010
00000000
00001000
00000000
,
00000000
00000000
00000100
00000000
00000010
00000000
00000100
00000000
00010000
00000000
00000000
00001000
00010000
00000000
00001000
00000000
,
00100000
00000000
00000000
00000000
00110000
00000000
00000000
00000000
00010000
00000000
00000000
10000000
00100000
00000000
01000000
00000000
,
00000000
00000000
10000000
00000000
01000000
00000000
00010000
00000000
00100000
00000000
00010000
00100000
00010000
00000000
00100000
00000000
,
00001000
00000000
00000000
00000000
00011000
00000000
00000000
00000000
00010000
00000000
00000000
00000100
00001000
00000000
00000010
00000000
,
00000000
00000000
00000100
00000000
00000001
00000000
00000010
00000000
00000110
00000000
00000000
00001000
00000100
00000000
00010000
00001000
,
00010000
00000000
00000000
00000000
00011000
00000000
00000000
00000000
00001000
00000000
00000000
00100000
00010000
00000000
00100000
00000000
,
00000000
01000000
10000000
00100000
01100000
00000000
20020000
30030000
,
10000000
00000000
01000000
00000000
00100000
00000000
00000000
00010000
00100000
00000000
00001000
00000000
00010000
00000000
00000100
00000000
,
00010000
00000000
00001000
00000000
00000010
00000000
00000000
00000100
00000010
00000000
00000001
00000000
00000100
00000000
00000000
00000000
,
00000110
00000000
00000000
00000000
00000010
00000000
00000000
00001000
00000100
00000000
00010000
00000000
00001000
00000000
01000000
00000000
,
00010000
00000000
00100000
00000000
01000000
00000000
10000000
01000000
10000000
00000000
00010000
00000000
00100000
00000000
00000000
00000000
,
00011000
00000000
00000000
00000000
00001000
00000000
00000000
00010000
00000100
00000000
00001000
00000000
00000010
00000000
00001000
00000000
,
00000100
00000000
00000010
00000000
00000001
00000000
00000000
00000100
00000010
00000000
00001000
00000000
00000100
00000000
00000000
00000000
,
00011000
00000000
00110000
00000000
00010000
01010000
00000000
10000000
,
00100000
00010000
00100000
10000000
01000000
00000000
01100000
00000000
,
00100000
00000000
00010000
00000000
00100000
00000000
00000000
00001000
00010000
00000000
00000010
00000000
00001000
00000000
00000010
00000000
,
00000100
00000000
00000001
00000000
00000010
00000000
00000000
00000100
00000010
00000000
00000100
00001000
00000100
00000000
00001000
00000000
,
00000010
00000000
00010000
00000000
00001000
00000000
00000000
00100000
00001000
00000000
00010000
00000000
00001000
00000000
01000000
00000000
,
00010000
00000000
01000000
00000000
00100000
00000000
00000000
10000000
00100000
00000000
10000000
00010000
10000000
00000000
01000000
00000000
,
00100000
00000000
01000000
00000000
00100000
00000000
00000000
00001000
00010000
00000000
00000100
00000000
00001000
00000000
00000100
00000000
,
00000010
00000000
00000001
00000000
00000100
00000000
00000000
00000010
00000100
00000000
00000010
00001000
00000010
00000000
00001000
00000000
,
00000100
00000000
00010000
00000000
00001000
00000000
00000000
00010000
00001000
00000000
00100000
00000000
00000000
00000000
00010000
00000000
,
01000000
00000000
01100000
00000000
20020000
30030000
00010000
00100000
,
01000000
00000000
00000000
00100000
00010000
00000000
10000000
00010000
10000000
00000000
00100000
00000000
01000000
00000000
00010000
00000000
,
00100000
00000000
00000000
00010000
00100000
00000000
00001000
00010000
00001000
00000000
00010000
00000000
00000100
00000000
00001000
00000000
,
00000100
00000000
00000000
00001000
00000010
00000000
00000100
00000010
00000100
00000000
00000001
00000000
00000010
00000000
00000001
00000000
,
00001000
00000000
00000000
00000100
00001000
00000000
00000100
00010000
00000100
00000000
00010000
00000000
00001000
00000000
01000000
00000000
,
00010000
00000000
00000000
01000000
00100000
00000000
10000000
00100000
10000000
00000000
01000000
00000000
10000000
00000000
00010000
00000000
,
00100000
00000000
00000000
00010000
00100000
00000000
00001000
00010000
00001000
00000000
00010000
00000000
00000100
00000000
00001000
00000000
,
00000010
00000000
00000000
00000100
00000010
00000000
00000100
00000000
00000000
00000000
00000001
00000000
00000011
00000000
00000000
00000000
,
00000110
00010100
00012000
00000000
,
01000000
00000000
00000000
00203000
00000000
00000000
00010000
00000000
,
01300000
00000000
00000000
10000000
00000000
00000000
00100000
00000000
02000000
00000000
00000000
00000000
00000000
00000000
00000000
00000000
,
00010000
00000000
00000000
00000000
03002000
00000000
00000000
00000000
00100000
00000000
00000000
00010000
00000000
00000000
00010000
00000000
,
00023000
00000000
00000000
00001000
00000000
00000000
00001000
00000000
00030200
00000000
00000000
00000000
00000000
00000000
00000000
00000000
,
00001000
00000000
00000000
00000320
00000000
00000000
00000001
00000000
,
00000130
00000000
00000000
00010000
00000000
00000000
00001000
00000000
00200000
00000000
00000000
00000000
00000000
00000000
00000000
00000000
,
00010000
00000000
00000000
00000000
02300000
00000000
00000000
00000000
13000000
00000000
00000000
00100000
00000000
00000000
00010000
00000000
,
00001000
00000000
00000000
00000010
00000000
00000000
00000001
00000000
00000000
00000000
00000000
00000000
00000000
00000000
00000000
00000000
;
