#VERSION:0.83;
#TITLE:ヴァンパイア;
#SUBTITLE:;
#ARTIST:DECO*27 feat.初音ミク;
#TITLETRANSLIT:Vampire;
#SUBTITLETRANSLIT:;
#ARTISTTRANSLIT:DECO*27 feat. Hatsune Miku;
#GENRE:;
#CREDIT:video/audio extraordiberry;
#MUSIC:Vampire.ogg;
#BANNER:Vampire.png;
#BACKGROUND:Vampire-bg.png;
#CDTITLE:;
#SAMPLESTART:57.610;
#SAMPLELENGTH:15.000;
#SELECTABLE:YES;
#OFFSET:-0.003;
#BPMS:0.000=164.000;
#STOPS:;
#TIMESIGNATURES:0.000=4=4;
#BGCHANGES:4.000=Vampire.mp4=1.000=0=0=0=StretchNoLoop====,
99999.000=-nosongbg-=1.000=0=0=0=StretchNoLoop====
;
#FGCHANGES:;

//--------------- dance-single - forcednature ----------------
#NOTEDATA:;
#STEPSTYPE:dance-single;
#DESCRIPTION:forcednature;
#CREDIT:forcednature;
#DIFFICULTY:Beginner;
#METER:2;
#RADARVALUES:0,0,0,0,0;
#NOTES:
0000
0000
0000
0000
,
0000
0000
0000
0000
,
0000
0000
0000
0000
,
0000
0000
0000
0000
,
0000
0000
0000
0000
,
0000
0000
0000
0000
,
0001
0000
0000
0000
,
0000
0000
0000
0000
,
1000
0000
0000
0000
,
0000
0000
0000
0000
,
1001
0000
0000
0000
,
0000
0000
0000
0000
,
0001
0000
0000
0000
,
0010
0000
0000
0000
,
0001
0000
0000
0000
,
0000
0000
0000
0000
,
0100
0000
0000
0000
,
0010
0000
0000
0000
,
1000
0000
0000
0000
,
0000
0000
0000
0000
,
0100
0000
0000
0000
,
0000
0000
0000
0000
,
0010
0000
0000
0000
,
0000
0000
0000
0000
,
0001
0000
0000
0000
,
0100
0000
0000
0000
,
0010
0000
0000
0000
,
0010
0000
0000
0000
,
0100
0000
0000
0000
,
0010
0000
0000
0000
,
1000
0000
0000
0000
,
1000
0000
0000
0000
,
0001
0000
0000
0000
,
1000
0000
0000
0000
,
0100
0000
0000
0000
,
0100
0000
0000
0000
,
0010
0000
0000
0000
,
0100
0000
0000
0000
,
2000
0000
0000
0000
,
3000
0000
0000
0000
,
1001
0000
0000
0000
,
0001
0000
0000
0000
,
0100
0000
0000
0000
,
0001
0000
0000
0000
,
1001
0000
0000
0000
,
1000
0000
0000
0000
,
0100
0000
0000
0000
,
1000
0000
0000
0000
,
0010
0000
0000
0000
,
0010
0000
0000
0000
,
0100
0000
0000
0000
,
0010
0000
0000
0000
,
0110
0000
0000
0000
,
0001
0000
0000
0000
,
1000
0000
0000
0000
,
0100
0000
0000
0000
,
0010
0000
0010
0000
,
0000
0000
0100
0000
,
0110
0000
0000
0000
,
0001
0000
0000
0000
,
1000
0000
0000
0000
,
0100
0000
0000
0000
,
1000
0000
0000
0000
,
0010
0000
0000
0000
,
1000
0000
0000
0000
,
0001
0000
0001
0000
;

//--------------- dance-single - forcednature ----------------
#NOTEDATA:;
#STEPSTYPE:dance-single;
#DESCRIPTION:forcednature;
#CREDIT:forcednature;
#DIFFICULTY:Easy;
#METER:6;
#RADARVALUES:0,0,0,0,0;
#NOTES:
0000
0000
0000
0000
,
0000
0000
0000
0000
,
0000
0000
0000
0000
,
0000
0000
0000
0000
,
0000
0000
0000
0000
,
0000
0000
0000
0000
,
1000
0001
0000
0001
,
1000
0000
0010
0000
,
0100
0000
0002
0000
,
0000
1000
2003
3000
,
1001
0000
0001
0010
,
0100
0010
0001
0000
,
1001
0000
1000
0010
,
0100
0010
1000
0000
,
1001
0000
0001
0100
,
0001
0010
0100
0000
,
1000
1000
0001
1000
,
0010
0100
0010
0000
,
0110
0000
0001
0001
,
0000
0100
0001
0000
,
1000
0010
1000
0000
,
0001
0010
0001
0000
,
1001
0000
1000
0100
,
0000
1000
1000
0000
,
0010
1000
0010
0000
,
0100
0000
0110
0000
,
0001
1000
1001
0000
,
1000
0001
1001
0000
,
0001
0010
0100
1000
,
0100
0010
0001
0000
,
0100
0010
0110
0000
,
0010
0100
0110
0000
,
0001
1000
0010
0100
,
0010
1000
0001
0000
,
2000
0000
3100
0000
,
2000
0000
3010
0000
,
2000
0000
3001
0000
,
1000
1000
0100
0010
,
0002
0000
1003
1000
,
0000
0001
1001
0000
,
0110
0000
0001
1000
,
0000
1000
0001
0000
,
0010
0100
1000
0100
,
0010
0100
1000
0000
,
1001
0000
1000
0001
,
0000
0001
1000
0000
,
0010
0100
0001
0100
,
0000
0010
0010
0000
,
1000
1000
0001
1000
,
0100
1000
0001
0000
,
0010
0010
0001
1000
,
0010
1000
0001
0000
,
1001
0000
0001
0100
,
0000
0100
0001
0000
,
0010
0100
0010
0010
,
0000
0001
1000
0000
,
1001
0000
0100
0010
,
0000
0010
0100
0000
,
0110
0000
0001
1000
,
0100
1000
0001
1000
,
0100
0000
1000
0001
,
0100
0001
1000
0001
,
0100
0000
0001
1000
,
0010
1000
0001
1000
,
0010
0000
0100
0001
,
0000
0001
0100
0200
,
0300
0000
0000
0000
;

//--------------- dance-single - forcednature ----------------
#NOTEDATA:;
#STEPSTYPE:dance-single;
#DESCRIPTION:forcednature;
#CREDIT:forcednature;
#DIFFICULTY:Medium;
#METER:10;
#RADARVALUES:0,0,0,0,0;
#NOTES:
0000
0000
0000
0000
,
0000
0000
0000
0000
,
0000
0000
0000
0000
,
0000
0000
0000
0000
,
0000
0000
0000
0000
,
0000
0000
0000
0000
,
0001
0000
1000
0000
0000
0010
0000
0100
,
0000
0010
1000
0000
0001
0000
0010
0000
,
0001
0001
0000
0000
1000
1000
0000
0000
,
0000
0010
0000
0010
0200
0000
0300
0000
,
0001
1000
0001
0000
1000
0100
1000
0000
,
0010
0000
0100
0001
0010
0000
0100
0000
,
0010
0001
0010
0000
0001
0100
0001
0000
,
0100
0000
0010
1000
0100
1000
1000
0000
,
0010
0100
0010
0000
0100
0001
0100
0000
,
0001
0000
0010
0100
1000
0000
0010
0000
,
0100
0001
0100
0000
0001
0010
0001
0000
,
1000
0000
0100
0010
0002
0000
0000
0003
,
0100
0000
0000
0000
0010
0000
0000
0000
1000
0000
0000
1000
0000
0000
0010
0000
,
0000
1000
0001
0000
1000
0100
1000
0100
,
0000
0010
0100
0000
0010
0000
0001
0010
,
0000
0001
1000
0001
2000
0000
3000
0000
,
0010
0000
0000
0000
0100
0000
0000
0000
0001
0000
0000
0001
0000
0000
1000
0000
,
0000
0100
1000
0000
0001
1000
0001
0000
,
0010
0000
0001
0100
0001
0000
0100
0000
,
0020
1000
0130
0000
,
1001
1100
0011
0000
,
1001
0101
1010
0000
,
0001
0010
1000
0010
,
0001
1000
0001
0000
1000
0000
0000
0000
,
0101
1100
1010
0000
,
1100
0101
0011
0000
,
0001
1000
0001
0000
1000
0000
0010
0000
,
0100
0010
0100
0000
0002
0000
2003
0000
,
3010
0000
0000
0010
0000
0000
0100
0000
0010
0000
0000
0000
0000
0000
0000
0000
,
1000
0000
0000
1000
0000
0000
0001
0000
1000
0000
0000
0000
0000
0000
0000
0000
,
0100
0000
0000
0100
0000
0000
0010
0000
0100
0000
0000
0000
0010
0000
0000
0000
,
0001
1000
0001
0000
1010
0000
0010
0000
,
0210
0000
0010
0000
0301
1000
0000
0001
,
0000
0010
0001
0000
0220
0000
0330
0000
,
1001
0000
0000
0000
0110
0000
0000
0000
0001
0000
0000
0001
0000
0000
1000
0000
,
0000
0000
0010
0000
0000
0000
1000
0000
0001
0000
0000
0001
0000
0000
0010
0000
,
0000
0000
0100
0000
0010
0000
0100
0000
0010
0000
0000
0010
0000
0000
0001
0000
,
0000
1000
0010
1000
0010
0000
0100
0000
,
0110
0000
1001
0000
0000
1100
0000
0101
,
0000
0001
1000
0000
0010
0000
0110
0000
,
0001
0000
1000
0000
0100
1000
0100
1000
,
0000
0010
0100
0000
0002
0000
0000
0003
,
1000
0100
1000
0000
0001
0010
0100
0000
,
0010
0001
0010
0000
0001
0000
1000
0000
,
0010
1000
0010
0000
0100
0001
0100
0000
,
0010
1000
0001
0000
0100
0000
0010
0000
,
0110
0000
1001
0000
0000
1000
0000
0100
,
0000
0010
0100
0010
0001
0000
1000
0000
,
0010
0000
0110
0000
0001
0100
0001
0100
,
0000
0001
1000
0000
0100
0000
0010
0000
,
0001
0001
0000
0000
1000
1000
0000
0000
,
0000
0010
0100
0010
0220
0000
0330
0000
,
0100
0000
1001
0000
0001
0010
0000
1000
,
0000
0010
0001
0010
0001
0000
0000
0000
,
0010
0000
1001
0000
1000
0010
0000
0001
,
0000
0010
1000
0010
1000
0000
0000
0000
,
0100
0000
1001
0000
0001
0100
0000
1000
,
0000
0100
0001
0100
0001
0000
0000
0000
,
0010
0000
0110
0000
1000
0001
1000
0002
,
0000
0103
0010
0000
0110
0000
2002
0000
,
3003
0000
0000
0000
;

//--------------- dance-single - forcednature ----------------
#NOTEDATA:;
#STEPSTYPE:dance-single;
#DESCRIPTION:forcednature;
#CREDIT:forcednature;
#DIFFICULTY:Hard;
#METER:14;
#RADARVALUES:0,0,0,0,0;
#NOTES:
0000
0000
0000
0000
,
0000
0000
0000
0000
,
0000
0000
0000
0000
,
0000
0000
0000
0000
,
0000
0000
0000
0000
,
0000
0000
0000
0000
,
1100
0000
0001
0010
0000
0100
0000
2000
,
0000
3010
0100
0001
0020
0000
0130
1000
,
0001
0101
0000
0000
1000
1100
0000
0000
,
0000
0010
0100
0010
0220
0000
0330
0000
,
1000
0001
0100
0001
1000
0010
0100
1000
,
0100
0001
1000
0010
1000
0001
0010
0100
,
1000
0010
1000
0010
0001
0010
0001
0020
,
0000
1030
0001
0010
0100
1000
1100
0000
,
0001
0010
0100
0001
0001
0100
1000
0001
,
0100
0010
1000
0001
0010
0100
1000
0100
,
0010
1000
0010
1000
0010
0001
0010
0002
,
0000
0103
0010
1000
0001
0001
0010
0000
,
0011
0000
0000
0000
1000
0000
0000
0000
0100
0000
0000
0100
0000
0000
0010
0000
,
0000
0001
1000
0010
1000
0001
0010
0100
,
0000
0010
0001
0100
0010
1000
0100
0002
,
0000
0103
1000
0001
0020
0000
0030
0000
,
0101
0000
0000
0000
1000
0000
0000
0000
0010
0000
0000
0010
0000
0000
0100
0000
,
0000
0001
0010
0001
1000
0010
0100
0001
,
0000
1000
0100
1000
0100
0001
0100
2000
,
0000
3010
0100
0001
0011
0000
1100
0001
,
1000
0000
0010
0000
0001
0000
0010
0000
1000
0000
1100
0000
0000
0000
0001
1000
,
0001
0000
0010
0000
1000
0000
0010
0000
0001
0000
0101
0000
0000
0000
1000
0001
,
1000
0010
0100
0010
0001
0010
1000
0010
,
0100
0001
0001
1000
0010
0100
0110
0000
,
1000
0000
0010
0000
0100
0000
1000
0000
0100
0000
0101
0000
0000
0000
0001
1000
,
0001
0000
0010
0000
0100
0000
0001
0000
0100
0000
1100
0000
0000
0000
0001
1000
,
0001
0010
0100
0010
0001
0010
1000
0010
,
0001
1000
1000
0001
0100
0010
0110
0000
,
1001
0000
0000
1000
0000
0000
0100
1000
0100
0000
0000
0000
0010
0000
0001
0010
,
0001
0000
0000
0100
0000
0000
0001
0100
0001
0000
1000
0000
0001
0000
0000
0000
,
0011
0000
0000
1000
0000
0000
0100
1000
0100
0000
0010
0000
0001
0000
0001
0000
,
0100
0000
0010
0000
1000
0000
0001
0100
0001
0000
0010
0000
0010
0000
0000
0000
,
1100
0000
0101
0000
0010
0110
0000
1001
,
0000
0001
0010
0100
2200
0000
3300
0000
,
1000
0001
1000
0000
1001
0000
0000
0000
0001
0000
0000
0001
0010
0000
0100
0000
,
1000
0000
0010
0000
1000
0000
0001
0000
0100
0000
0000
0100
0010
0000
2000
0000
,
0000
0000
3001
0000
0010
0000
1000
0000
0010
0000
0000
0010
0001
0000
0200
0000
,
0000
0310
1000
0001
0010
0100
0110
0000
,
0001
1000
0001
0000
1001
0000
0000
0000
1000
0000
0100
0000
1000
0000
0020
0000
,
0000
0000
0130
0000
0001
0000
0010
0000
0100
0000
0000
0100
1000
0000
0010
0000
,
0110
0000
0102
0000
1003
0010
0001
0020
,
1000
0000
0000
0000
0130
0000
0001
0100
0001
0000
0010
0000
0001
0000
0000
0000
,
1000
0100
1000
0000
0010
0000
0100
0000
0001
0100
0001
0000
1000
0000
0010
0000
,
1000
0001
1000
0000
0100
0000
0010
0000
0011
0000
0000
0000
1000
0000
0001
0000
,
0100
1000
0100
0002
0000
0013
0010
0010
,
0001
1000
0010
0001
0010
0010
1000
0001
,
1000
0001
1000
0000
1001
0000
0000
0000
0001
0000
0010
0000
0100
0000
0002
0000
,
0000
0000
0103
0000
1000
0000
0001
0000
0010
0000
0000
0010
0100
0000
1000
0000
,
1010
0000
0102
0000
1003
0100
0010
0001
,
1000
0010
1010
0000
0001
1000
1001
0000
,
1100
0011
0000
0000
0101
1010
0000
0000
,
0000
1001
0000
0101
0202
0000
0303
0000
,
1000
0000
0010
0000
0100
0010
0100
0000
0001
0000
0010
0000
0100
0000
1000
0000
,
0000
0001
0010
1000
0020
0000
0030
0000
,
0001
0000
0100
0000
0010
0100
0010
0000
1000
0000
0100
0000
0010
0000
0001
0000
,
0000
0000
1000
0000
0010
0000
0001
0000
0010
0000
1000
0010
1000
0000
0000
0000
,
0001
0000
0100
0000
0001
1000
0001
0000
0010
0000
0100
0000
1000
0000
0010
0000
,
0000
0100
1000
0100
0002
0000
0003
0000
,
0011
0000
2100
0000
3001
0010
1000
0020
,
0000
0031
1000
0010
0110
0000
2002
0000
,
3003
0000
0000
0000
;

//--------------- dance-double - forcednature ----------------
#NOTEDATA:;
#STEPSTYPE:dance-double;
#DESCRIPTION:forcednature;
#CREDIT:forcednature;
#DIFFICULTY:Easy;
#METER:6;
#RADARVALUES:0,0,0,0,0;
#NOTES:
00000000
00000000
00000000
00000000
,
00000000
00000000
00000000
00000000
,
00000000
00000000
00000000
00000000
,
00000000
00000000
00000000
00000000
,
00000000
00000000
00000000
00000000
,
00000000
00000000
00000000
00000000
,
00001000
00010000
00000000
00010000
,
00001000
00000000
00100000
00000000
,
00010000
00000000
02000000
00000000
,
00000000
00100000
00200000
03300000
,
10010000
00000000
10000000
00100000
,
01000000
00100000
10000000
00000000
,
10010000
00000000
00010000
00100000
,
00001000
00010000
00001000
00000000
,
00011000
00000000
00000100
00001000
,
00000100
00001000
00000010
00000000
,
00000100
00000100
00000001
00000100
,
00000010
00001000
00000010
00000000
,
00000110
00000000
00001000
00001000
,
00000000
00000100
00010000
00000000
,
00001000
00010000
00001000
00000000
,
00100000
00010000
00100000
00000000
,
10010000
00000000
10000000
01000000
,
00000000
10000000
10000000
00000000
,
00100000
10000000
00100000
00000000
,
01000000
00000000
01100000
00000000
,
00010000
00100000
00001000
00000000
,
00010000
00000010
00001000
00000000
,
00000100
00000010
00000001
00000010
,
00000100
00001000
00000001
00000000
,
00001000
00000010
00010000
00000000
,
00001000
00100000
00010000
00000000
,
01000000
00100000
10000000
00100000
,
01000000
00010000
10000000
00000000
,
02000000
00000000
03100000
00000000
,
00020000
00000000
00130000
00000000
,
00002000
00000000
00103000
00000000
,
00001000
00001000
00010000
00000100
,
00002000
00000000
00003010
00000010
,
00000000
00000100
00000110
00000000
,
00001001
00000000
00001000
00000100
,
00000000
00000100
00010000
00000000
,
00001000
00010000
00001000
00100000
,
00010000
00100000
01000000
00000000
,
10010000
00000000
10000000
00010000
,
00000000
00010000
01000000
00000000
,
00001000
00010000
00000010
00010000
,
00000000
00001000
00001000
00000000
,
00100000
00100000
00010000
10000000
,
01000000
10000000
00010000
00000000
,
00100000
00100000
00001000
00010000
,
00000010
00001000
00000010
00000000
,
00000110
00000000
00000100
00000001
,
00000000
00000001
00000010
00000000
,
00000100
00000010
00000100
00000100
,
00000000
00001000
00000100
00000000
,
00011000
00000000
00100000
00010000
,
00000000
00010000
01000000
00000000
,
01100000
00000000
00100000
10000000
,
01000000
10000000
00010000
00100000
,
00001000
00000000
00010000
00001000
,
00010000
00000100
00001000
00000100
,
00000010
00000000
00000001
00001000
,
00000010
00001000
00000001
00000010
,
00000100
00000000
00000010
00000001
,
00000000
00000001
00000100
00000200
,
00000300
00000000
00000000
00000000
;

//--------------- dance-double - forcednature ----------------
#NOTEDATA:;
#STEPSTYPE:dance-double;
#DESCRIPTION:forcednature;
#CREDIT:forcednature;
#DIFFICULTY:Medium;
#METER:10;
#RADARVALUES:0,0,0,0,0;
#NOTES:
00000000
00000000
00000000
00000000
,
00000000
00000000
00000000
00000000
,
00000000
00000000
00000000
00000000
,
00000000
00000000
00000000
00000000
,
00000000
00000000
00000000
00000000
,
00000000
00000000
00000000
00000000
,
00001000
00000000
00010000
00000000
00000000
00100000
00000000
01000000
,
00000000
00100000
10000000
00000000
00010000
00000000
00100000
00000000
,
00001000
00001000
00000000
00000000
00010000
00010000
00000000
00000000
,
00000000
00000100
00000000
00000100
00002000
00000000
00003000
00000000
,
00000001
00001000
00000001
00000000
00000100
00000001
00000100
00000000
,
00000010
00000000
00001000
00000100
00000010
00000000
00000100
00000000
,
00010000
00001000
00010000
00000000
00001000
00100000
00001000
00000000
,
00100000
00000000
00010000
01000000
00100000
10000000
10000000
00000000
,
01000000
00100000
01000000
00000000
00100000
00010000
00100000
00000000
,
00001000
00000000
00010000
00000100
00001000
00000000
00000010
00000000
,
00000100
00000010
00000100
00000000
00000001
00000100
00000001
00000000
,
00000010
00000000
00000100
00010000
00002000
00000000
00000000
00003000
,
00100000
00000000
00000000
00000000
00010000
00000000
00000000
00000000
01000000
00000000
00000000
01000000
00000000
00000000
00010000
00000000
,
00000000
01000000
00100000
00000000
10000000
01000000
10000000
01000000
,
00000000
00100000
01000000
00000000
00100000
00000000
00010000
00100000
,
00000000
00001000
00010000
00001000
00020000
00000000
00030000
00000000
,
00000100
00000000
00000000
00000000
00001000
00000000
00000000
00000000
00000010
00000000
00000000
00000010
00000000
00000000
00001000
00000000
,
00000000
00000001
00001000
00000000
00000001
00000100
00000001
00000000
,
00000100
00000000
00000010
00001000
00000010
00000000
00001000
00000000
,
00000200
00001000
00010300
00000000
,
00011000
00101000
00010100
00000000
,
00011000
00010010
01001000
00000000
,
00001000
00010000
00100000
10000000
,
00010000
10000000
00010000
00000000
00100000
00000000
00000000
00000000
,
00011000
00010100
01001000
00000000
,
00011000
01001000
00010100
00000000
,
00000100
00001000
00000100
00000000
00001000
00000000
00000001
00000000
,
00000100
00000001
00000100
00000000
00000002
00000000
00002003
00000000
,
00003100
00000000
00000000
00000100
00000000
00000000
00001000
00000000
00000100
00000000
00000000
00000000
00000000
00000000
00000000
00000000
,
00010000
00000000
00000000
00010000
00000000
00000000
00001000
00000000
00010000
00000000
00000000
00000000
00000000
00000000
00000000
00000000
,
00001000
00000000
00000000
00001000
00000000
00000000
01000000
00000000
00001000
00000000
00000000
00000000
00100000
00000000
00000000
00000000
,
00010000
10000000
00010000
00000000
01000000
00000000
01100000
00000000
,
00200000
00000000
10000000
00000000
10300000
00010000
00000000
00010000
,
00000000
00100000
00001000
00000000
00022000
00000000
00033000
00000000
,
00000100
00000000
00000000
00000000
00001001
00000000
00000000
00000000
00000001
00000000
00000000
00000001
00000000
00000000
00000010
00000000
,
00000000
00000000
00000001
00000000
00000000
00000000
00000100
00000000
00000010
00000000
00000000
00000010
00000000
00000000
00001000
00000000
,
00000000
00000000
00000100
00000000
00001000
00000000
00000100
00000000
00010000
00000000
00000000
00010000
00000000
00000000
00001000
00000000
,
00000000
01000000
00010000
01000000
00010000
00000000
00100000
00000000
,
01100000
00000000
10010000
00000000
00000000
11000000
00000000
01010000
,
00000000
00010000
00100000
00000000
00001000
00000000
00011000
00000000
,
00010000
00000000
00000100
00000000
00001000
00000100
00001000
00000100
,
00000000
00000010
00000001
00000000
00000200
00000000
00000000
00000300
,
00000010
00001000
00000010
00000000
00001000
00000100
00010000
00000000
,
00001000
00010000
00001000
00000000
00100000
00000000
00010000
00000000
,
01000000
00010000
01000000
00000000
00100000
01000000
00100000
00000000
,
10000000
00010000
00100000
00000000
00001000
00000000
00010000
00000000
,
00011000
00000000
00010100
00000000
00000000
00000100
00000000
00001000
,
00000000
00000010
00001000
00000010
00000100
00000000
00000001
00000000
,
00000010
00000000
00000110
00000000
00001000
00000100
00001000
00000100
,
00000000
00000100
00010000
00000000
00001000
00000000
00100000
00000000
,
00010000
00010000
00000000
00000000
10000000
10000000
00000000
00000000
,
00000000
00100000
01000000
00000000
02200000
00000000
03300000
00000000
,
01000000
00000000
10010000
00000000
00010000
00100000
00000000
10000000
,
00000000
00100000
00010000
00100000
00010000
00000000
00000000
00000000
,
00100000
00000000
00011000
00000000
00001000
00010000
00000000
00000100
,
00000000
00001000
00000010
00001000
00000010
00000000
00000000
00000000
,
00000100
00000000
00001001
00000000
00000001
00000100
00000000
00001000
,
00000000
00000100
00000001
00000100
00000001
00000000
00000000
00000000
,
00000010
00000000
00000110
00000000
00001000
00000100
00001000
00000200
,
00000000
00010300
00001000
00000000
00011000
00000000
00202000
00000000
,
00303000
00000000
00000000
00000000
;

//--------------- dance-double - forcednature ----------------
#NOTEDATA:;
#STEPSTYPE:dance-double;
#DESCRIPTION:forcednature;
#CREDIT:forcednature;
#DIFFICULTY:Hard;
#METER:14;
#RADARVALUES:0,0,0,0,0;
#NOTES:
00000000
00000000
00000000
00000000
,
00000000
00000000
00000000
00000000
,
00000000
00000000
00000000
00000000
,
00000000
00000000
00000000
00000000
,
00000000
00000000
00000000
00000000
,
00000000
00000000
00000000
00000000
,
00011000
00000000
00001000
00010000
00000000
00100000
00000000
20000000
,
00000000
31000000
00100000
00010000
00200000
00000000
01300000
00010000
,
00001000
00001000
00000000
00000000
00010000
00010000
00000000
00000000
,
00000000
00001000
00000010
00000001
00000020
00000000
00000030
00000000
,
00000100
00001000
00000010
00001000
00000100
00000001
00000100
00001000
,
00000010
00010000
00001000
01000000
00010000
00100000
00001000
00010000
,
00100000
10000000
00100000
10000000
01000000
00010000
01000000
00020000
,
00000000
00031000
00010000
00001000
00000010
00000100
00000100
00000000
,
00000010
00000001
00000100
00001000
00001000
00010000
00100000
01000000
,
00010000
00100000
01000000
10000000
00100000
01000000
00001000
00010000
,
00000010
00001000
00000010
00001000
00000010
00000001
00000010
00000002
,
00000000
00001003
00000100
00000001
00001000
00001000
00000010
00000000
,
00000110
00000000
00000000
00000000
00000001
00000000
00000000
00000000
00000010
00000000
00000000
00000010
00000000
00000000
00000100
00000000
,
00000000
00010000
00001000
00100000
00001000
00010000
00000100
00010000
,
00000000
00001000
00000010
00001000
00010000
00100000
00010000
00002000
,
00000000
00013000
01000000
10000000
00200000
00000000
00300000
00000000
,
01100000
00000000
00000000
00000000
10000000
00000000
00000000
00000000
00010000
00000000
00000000
00010000
00000000
00000000
00100000
00000000
,
00000000
01000000
00010000
00001000
01000000
00001000
00010000
00000010
,
00000000
00000100
00001000
00010000
01000000
00010000
00001000
00000020
,
00000000
00000130
00001000
00000001
00001001
00000000
00000110
00000001
,
00000100
00001000
00010000
01000000
10000000
00100000
00000000
10000000
,
01000000
00010000
00001000
00000100
00000001
00000010
00000000
00000001
,
00000100
00001000
00000100
00000001
00000010
00001000
00000010
00000001
,
00000100
00001000
00010000
01000000
20000000
00000000
30010000
10000000
,
00100000
00010000
00001000
00000010
00000001
00000100
00000000
00000001
,
00000010
00001000
00010000
00100000
10000000
01000000
00000000
10000000
,
00100000
00010000
00100000
10000000
01000000
00010000
01000000
10000000
,
00100000
00010000
00001000
00000010
00000001
00000000
00001001
00000000
,
00001000
00000000
00000000
00001000
00000000
00000000
00000100
00001000
00000100
00000000
00000000
00000000
00010000
00000000
00001000
00010000
,
00001000
00000000
00000000
00001000
00000000
00000000
00100000
00010000
00100000
00000000
01000000
00000000
00100000
00000000
00000000
00000000
,
01100000
00000000
00000000
10000000
00000000
00000000
01000000
10000000
01000000
00000000
00100000
00000000
00010000
00000000
00010000
00000000
,
00100000
00000000
00001000
00000000
00010000
00000000
00001000
00010000
00001000
00000000
00010000
00000000
00010000
00000000
00000000
00000000
,
00011000
00000000
00010100
00000000
00000100
00001100
00000000
00001010
,
00000000
00000010
00000100
00000001
00002002
00000000
00003003
00000000
,
00000001
00001000
00000001
00000000
00001001
00000000
00000000
00000000
00001000
00000000
00000000
00001000
00000100
00000000
00010000
00000000
,
00000000
00000000
00001000
00000000
00100000
00000000
00010000
00000000
00100000
00000000
00000000
00100000
01000000
00000000
20000000
00000000
,
00000000
00000000
30100000
00000000
01000000
00000000
00010000
00000000
01000000
00000000
00000000
01000000
00001000
00000000
00020000
00000000
,
00000000
00030010
00001000
00000001
00000010
00000100
00000110
00000000
,
00000001
00001000
00000001
00000000
00001001
00000000
00000000
00000000
00001000
00000000
00000100
00000000
00001000
00000000
00000020
00000000
,
00000000
00000000
00000130
00000000
00000001
00000000
00000100
00000000
00001000
00000000
00000000
00001000
00010000
00000000
00001000
00000000
,
00100000
00000000
00120000
00000000
01030000
10000000
01000000
00020000
,
00000000
00000000
00130000
00000000
00001000
00000000
00010000
00001000
00010000
00000000
00000100
00000000
00001000
00000000
00000000
00000000
,
00000010
00001000
00000010
00000000
00000100
00000000
00000010
00000000
00000100
00000001
00000100
00000000
00000001
00000000
00000010
00000000
,
00000100
00000010
00000100
00000000
00010000
00000000
00001000
00000000
00011000
00000000
00000000
00000000
00100000
00000000
00010000
00000000
,
01000000
10000000
01000000
00020000
00000000
00130000
00100000
00100000
,
00001000
00010000
00000100
00010000
00001000
00001000
00000010
00000001
,
00001000
00000001
00001000
00000000
00001001
00000000
00000000
00000000
00000001
00000000
00000100
00000000
00000000
00000000
00000120
00000000
,
00000000
00000000
00001030
00000000
00000100
00000000
00010000
00000000
00001000
00000000
00000000
00001000
00100000
00000000
00010000
00000000
,
10010000
00000000
01020000
00000000
10030000
00100000
00010000
00002000
,
00000000
00013000
00011000
00000000
00000100
00001000
00001100
00000000
,
00001010
00001010
00000000
00000000
00011000
00011000
00000000
00000000
,
00000000
00110000
00000000
01010000
02020000
00000000
03030000
00000000
,
10000000
00000000
00100000
00000000
01000000
00100000
01000000
00000000
00010000
00000000
00100000
00000000
01000000
00000000
00010000
00000000
,
00000000
00001000
00100000
00001000
00020000
00000000
00030000
00000000
,
00000100
00000000
00001000
00000000
00000010
00001000
00000010
00000000
00000100
00000000
00000001
00000000
00000010
00000000
00001000
00000000
,
00000000
00000000
00000010
00000000
00000001
00000000
00000010
00000000
00000001
00000000
00000100
00000001
00000100
00000000
00000000
00000000
,
00000010
00000000
00001000
00000000
00000100
00001000
00000100
00000000
00010000
00000000
00001000
00000000
00100000
00000000
00001000
00000000
,
00000000
00010000
01000000
10000000
00020000
00000000
00030000
00000000
,
00110000
00000000
21000000
00000000
30100000
01000000
00001000
00020000
,
00000000
00030010
00001000
00000100
00000110
00000000
00002002
00000000
,
00003003
00000000
00000000
00000000
;
