#VERSION:0.83;
#TITLE:うっせぇわ;
#SUBTITLE:;
#ARTIST:Ado;
#TITLETRANSLIT:Usseewa;
#SUBTITLETRANSLIT:;
#ARTISTTRANSLIT:;
#GENRE:;
#CREDIT:video/audio extraordiberry;
#MUSIC:Usseewa.ogg;
#BANNER:Usseewa.png;
#BACKGROUND:Usseewa-bg.png;
#CDTITLE:;
#SAMPLESTART:52.563;
#SAMPLELENGTH:15.000;
#SELECTABLE:YES;
#OFFSET:0.000;
#BPMS:0.000=178.000;
#STOPS:284.000=1.011;
#TIMESIGNATURES:0.000=4=4,
280.000=5=4,
285.000=4=4
;
#BGCHANGES:2.000=Usseewa.mp4=1.000=0=0=0=StretchNoLoop====,
99999.000=-nosongbg-=1.000=0=0=0=StretchNoLoop====
;
#FGCHANGES:;

//--------------- dance-single - forcednature ----------------
#NOTEDATA:;
#STEPSTYPE:dance-single;
#DESCRIPTION:forcednature;
#CREDIT:forcednature;
#DIFFICULTY:Beginner;
#METER:2;
#RADARVALUES:0,0,0,0,0;
#NOTES:
0000
0000
0000
0000
,
0000
0000
0000
0000
,
0000
0000
0000
0000
,
0000
0000
0000
0000
,
0000
0000
0000
0000
,
1001
0000
0000
0000
,
0000
0000
0000
0000
,
1000
0000
0000
0000
,
0100
0000
0000
0000
,
0010
0000
0000
0000
,
0000
0000
0000
0000
,
0001
0000
0000
0000
,
1000
0000
0000
0000
,
1001
0000
0000
0000
,
0000
0000
0000
0000
,
0001
0000
0000
0000
,
0100
0000
0000
0000
,
0001
0000
0000
0000
,
0000
0000
0000
0000
,
1000
0000
0000
0000
,
0010
0000
0000
0000
,
0100
0000
0000
0000
,
0100
0000
0000
0000
,
0001
0000
0000
0000
,
0000
0000
0000
0000
,
1000
0000
0000
0000
,
1000
0000
0000
0000
,
0010
0000
0000
0000
,
0100
0000
0000
0000
,
0001
0000
0000
0000
,
0000
0000
0001
0000
,
0010
0000
0000
0000
,
0000
0000
0010
0000
,
0100
0000
0000
0000
,
1000
0000
0000
0000
,
0010
0000
0000
0000
,
0100
0000
0100
0000
,
0002
0000
0000
0000
,
0000
0000
0003
0000
,
1000
0000
0001
0000
,
1000
0000
0000
0000
,
0010
0000
0000
0000
,
0100
0000
0000
0000
,
0001
0000
1000
0000
,
0001
0000
0000
0000
,
0010
0000
0000
0000
,
0100
0000
0000
0000
,
1000
0000
0000
0000
,
0000
0000
0000
0000
,
0010
0000
0000
0000
,
0100
0000
0000
0000
,
0001
0000
1000
0000
,
0001
0000
0000
0000
,
0010
0000
0100
0000
,
0010
0000
0000
0000
,
0001
0000
0001
0000
,
1000
0000
0000
0000
,
0000
0000
0000
0000
,
0010
0000
0000
0000
,
0100
0000
0000
0000
,
0001
0000
0000
0000
,
0000
0000
0000
0000
,
1000
0000
0000
0000
,
0100
0000
0000
0000
,
0010
0000
0000
0000
,
0000
0000
0000
0000
,
0001
0000
0000
0000
,
0000
0000
0000
0000
,
0100
0000
0000
0000
,
0100
0000
0000
0000
,
0010
0000
0010
0000
,
1000
0001
0000
1000
,
0000
0001
0000
0000
,
0000
0010
0000
0000
,
0000
0100
0000
0000
,
0000
1000
0000
0001
,
0000
1000
0000
0000
,
0000
0010
0000
0000
,
0000
0100
0000
0000
,
0000
0001
0000
0000
,
0000
0010
0000
0000
,
0000
0100
0000
0000
,
0000
1000
0000
0000
,
0000
0010
0000
0100
,
0000
0010
0000
0000
,
0000
1000
0000
0001
,
0000
1000
0000
0000
,
0000
0001
0000
0001
,
0000
1000
0000
0001
,
0000
1001
0000
0000
,
0000
0000
0000
1000
,
0000
0010
0000
0000
,
0000
0000
0000
1000
,
0000
0001
0000
0000
,
0000
0000
0000
0100
,
0000
0001
0000
0000
,
0000
0010
0000
0100
,
0000
0000
1001
0000
;

//--------------- dance-single - forcednature ----------------
#NOTEDATA:;
#STEPSTYPE:dance-single;
#DESCRIPTION:forcednature;
#CREDIT:forcednature;
#DIFFICULTY:Easy;
#METER:6;
#RADARVALUES:0,0,0,0,0;
#NOTES:
0000
0000
0000
0000
,
0000
0000
0000
0000
,
0000
0000
0000
0000
,
0000
0000
0000
0000
,
1000
1000
0001
0000
,
0100
0000
0010
0000
,
0100
0010
1000
0000
,
0001
0000
0010
0000
,
0001
1000
0100
0000
,
0110
0000
0010
0000
,
0001
1000
0010
0000
,
1000
0000
0001
0000
,
0100
0001
1000
0000
,
1001
0000
0001
0000
,
0001
0000
0010
0000
,
0001
0000
0001
0000
,
0100
0000
0010
0000
,
1000
0000
1000
0000
,
0100
0000
1000
0000
,
0010
0000
0010
0000
,
0100
0000
0000
0000
,
0001
1000
0010
0000
,
1000
0001
0010
0000
,
0100
0000
1000
0000
,
0010
0000
1000
0000
,
0001
0000
0100
0000
,
0001
0000
0001
0000
,
0010
0000
0000
0000
,
0100
0000
1000
0000
,
0010
0010
0010
0000
,
0100
0100
0100
0000
,
0010
1000
0010
0000
,
0100
0001
0100
0000
,
0001
0001
0001
0000
,
1000
1000
1000
0000
,
0100
1000
0100
0000
,
0010
0001
0010
0100
,
1000
0000
0001
0000
,
0001
0002
0003
0000
,
0100
0010
0100
0010
,
0100
0010
2000
3000
,
0100
0000
1000
0000
,
0002
0000
0013
0000
,
0100
0010
0100
0010
,
0100
0010
0002
0003
,
1000
0000
0010
0000
,
0100
0001
0100
0000
,
1001
0000
0000
0000
,
1000
0000
0100
0000
,
1000
0000
0010
0000
,
0110
0000
1001
0000
,
0001
1000
0001
1000
,
0001
1000
0200
0300
,
0010
0001
0020
0000
,
0130
0000
1000
0000
,
0001
0001
1000
0000
,
1001
0000
0000
0000
,
0001
0000
0100
0000
,
0010
0000
0000
0000
,
1000
0000
0100
0000
,
0010
0000
0000
0000
,
0100
0000
1000
0000
,
0001
0000
0000
0000
,
0100
0000
0010
0000
,
1001
0000
0000
0000
,
0002
0000
0000
0003
,
0010
0000
0010
0000
,
0010
0000
0000
0000
,
0001
0000
0100
0000
,
0002
0000
0000
0003
,
1000
0000
1000
0000
,
0010
1000
0001
1000
,
0001
1000
0001
0200
,
0300
0010
1000
0010
,
0000
1000
0000
0100
,
0000
0010
0100
0010
,
0100
0010
0100
2000
,
3000
0001
0000
0100
,
0000
0001
1000
0001
,
0000
1001
0000
0000
,
0000
1000
0000
0100
,
0000
1000
0000
0010
,
0000
0100
0000
0001
,
0001
1000
0001
1000
,
0001
1000
0001
0020
,
0030
0100
1000
0100
,
0000
1001
0000
0110
,
0000
0001
0001
1000
,
0000
1000
1000
0001
,
0000
0110
0000
0001
,
0000
1000
0000
0000
,
0000
0100
0000
1000
,
0000
0010
0000
0000
,
0000
0110
0000
0001
,
0000
0010
0000
0000
,
0000
0001
0000
1000
,
0000
0100
0000
0010
,
0000
0000
1001
0000
;

//--------------- dance-single - forcednature ----------------
#NOTEDATA:;
#STEPSTYPE:dance-single;
#DESCRIPTION:forcednature;
#CREDIT:forcednature;
#DIFFICULTY:Medium;
#METER:10;
#RADARVALUES:0,0,0,0,0;
#NOTES:
0000
0000
0000
0000
,
0000
0000
0000
0000
,
0000
0000
0000
0000
,
0000
0000
0000
0000
,
1000
0001
1000
0001
0100
0000
0010
0000
,
0220
0000
0000
0330
,
0001
1000
0100
1000
,
0002
0000
0013
0100
,
0010
0001
1000
0010
,
0220
0330
0100
0001
,
1000
0010
1000
0001
,
0020
0000
0130
1000
,
0001
0000
1000
0001
1000
0000
0010
0000
,
0110
0000
0100
0000
0001
0100
0001
0000
,
0010
0010
0002
0003
,
1000
0000
0100
0000
1000
0100
1000
0000
,
0010
0010
0200
0300
,
0001
0000
0100
0000
0001
0010
0001
0000
,
0010
0100
0020
0030
,
0100
1000
0100
0000
1000
0000
0000
0000
,
0010
0000
0010
0100
0000
0100
0010
0000
,
1000
0001
0202
0303
,
0001
1000
2200
3300
,
0001
0000
1000
0001
0000
0001
1000
0000
,
0010
0000
0100
0010
0200
0000
0300
0000
,
0000
0000
0001
0100
0001
0000
0100
0000
,
0020
2030
3002
0203
,
0320
0000
0000
0030
,
1000
0000
0001
1000
0002
0000
0003
0000
,
0010
0000
0000
0001
0000
0000
0010
0000
0100
0000
0000
0010
0000
0000
0100
0000
,
1000
0000
0000
0100
0000
0000
1000
0000
0002
0000
0000
0000
0003
0000
0000
0000
,
1000
0000
0000
0010
0000
0000
1000
0000
0010
0000
0000
0100
0000
0000
0010
0000
,
0100
0000
0000
0001
0000
0000
0100
0000
0002
0000
0000
0000
0003
0000
0000
0000
,
0010
0000
0000
0100
0000
0000
0010
0000
0100
0000
0000
1000
0000
0000
0100
0000
,
1000
0000
0000
0010
0000
0000
1000
0000
0020
0000
0000
0000
0030
0000
0100
0000
,
0002
0010
2003
0010
,
3002
0023
0230
2300
,
3020
0100
0100
0130
,
0110
0110
0000
0000
,
1001
1100
1001
1100
,
1001
1100
0022
0033
,
1000
0000
0010
0100
0010
0000
0100
0000
,
0001
0010
0220
0330
,
1001
0101
1001
0101
,
1001
0101
2020
3030
,
0001
0000
0010
0100
0010
0000
0100
0000
,
1000
0000
0001
0100
0002
0000
0000
0000
,
0003
0000
0010
0000
0001
0000
1000
1000
,
0001
0000
1000
0000
0010
0000
0100
0100
,
0001
0000
1000
0000
0100
0000
1000
1000
,
0002
0000
0000
0000
0013
0100
0010
0000
,
1001
0110
1001
0110
,
1001
0110
2002
3003
,
1000
0010
1000
0000
0001
0010
0001
0000
,
0100
0000
0000
0100
0010
0000
0000
0010
,
0000
0010
0000
1000
0002
0000
0003
0000
,
2000
0010
0001
3010
,
1000
0001
0100
0001
,
2000
0100
0001
3100
,
1000
0010
0100
0001
,
1002
0100
1000
0103
,
0001
0010
0001
1000
,
0020
0100
1000
0130
,
1000
0000
0001
1000
0001
0000
0010
0000
,
0210
1000
0010
1000
,
0010
1000
0020
0330
,
0100
1000
0001
1000
,
0010
0000
1000
0000
0001
1000
0001
0000
,
0201
0010
0001
0310
,
2001
0010
0002
3003
,
1000
0000
0100
1000
0001
0000
0010
0000
,
1001
0101
1010
0101
,
1010
0101
1010
2002
,
3003
0000
0001
0000
0010
0100
1000
0000
,
0001
0100
0010
2002
,
3003
1100
0011
1100
,
0011
1100
0011
2002
,
3003
0000
1000
0000
0010
0100
0001
0000
,
0010
0000
0001
0000
0010
0100
2000
0000
,
0000
3000
0010
1000
,
0001
0001
1000
0000
0001
0000
0010
0000
,
0100
0100
1000
0000
0001
0000
0100
0000
,
0001
0001
2000
0000
0000
0000
3010
0100
,
0010
1010
1100
0011
,
0101
1010
1100
2002
,
3003
0000
0001
0010
0001
0000
1000
0010
,
1000
0000
0100
0000
0000
0100
0010
0000
,
0000
0001
0000
0001
0000
0100
0001
0000
,
0001
1000
0000
1000
0000
0100
2000
0000
,
3000
0010
0100
0001
,
0100
0000
0010
1000
0010
0000
0100
0001
,
0100
0010
1000
0001
,
0010
0000
0100
1000
0100
0000
0010
0100
,
0010
0001
1000
0010
,
1000
0000
0001
0100
0001
0000
0100
0010
,
0100
0001
1000
0100
,
0010
0000
0100
1000
0100
0000
0010
0000
,
0001
0001
0000
0000
1001
0000
0000
0000
;

//--------------- dance-single - forcednature ----------------
#NOTEDATA:;
#STEPSTYPE:dance-single;
#DESCRIPTION:forcednature;
#CREDIT:forcednature;
#DIFFICULTY:Hard;
#METER:14;
#RADARVALUES:0,0,0,0,0;
#NOTES:
0000
0000
0000
0000
,
0000
0000
0000
0000
,
0000
0000
0000
0000
,
0000
0000
0000
0000
,
1000
0000
0001
0000
1000
0000
0001
0000
0100
0000
0010
0100
0010
0000
0000
0000
,
2001
0100
0001
0100
,
3001
0010
0100
0000
1000
0010
0100
0000
,
0001
1000
0100
1000
0001
1000
0100
0000
,
0010
0001
1000
0000
0010
1000
0001
0000
,
0100
0010
1000
0010
0100
0001
1000
0000
,
0100
0010
0001
0000
0100
0010
1000
0000
,
0001
0010
0001
1000
0001
0010
0001
0000
,
0100
0010
1001
0000
0001
0100
0100
0010
,
1000
0000
0001
0010
0001
1000
0010
1000
,
0002
0000
0203
0000
2300
0000
3000
0100
,
0001
0000
1000
0100
1000
0001
0100
0001
,
0010
0110
2002
3003
,
1000
0000
0010
0100
0001
0100
0010
1000
,
0002
0000
0023
0000
2030
0000
3000
0010
,
0001
0100
0001
0100
0010
0000
0010
1000
,
0100
0010
0001
0010
0000
0100
0100
1000
,
0001
0100
1000
0100
0002
0000
1003
0010
,
1000
0100
0001
0100
2000
0000
3001
0010
,
0100
0000
0010
0001
0000
1000
0010
0001
,
0010
1000
0001
0100
0010
1000
1000
0000
,
0001
0010
0100
0010
0001
0000
1000
0010
,
0200
0000
0302
0000
0013
0100
1000
0000
,
0102
1000
0013
0001
,
0100
0000
0010
0000
1000
0000
0010
0000
0100
0000
0000
0100
0001
0000
0000
0000
,
1000
0000
0000
1000
0000
0000
0100
0000
0010
0000
0000
0010
0000
0000
0001
0000
,
0100
0000
0000
0010
0000
0000
1000
0000
2002
0000
0000
0000
3003
0000
0000
0000
,
0001
0000
0000
0001
0000
0000
0010
0000
0100
0000
0000
0100
0000
0000
1000
0000
,
0001
0000
0000
0100
0000
0000
0010
0000
2002
0000
0000
0000
3003
0000
0000
0000
,
1000
0000
0000
1000
0100
0000
1000
0000
0001
0000
0000
0001
0100
0000
0001
0000
,
0010
0000
0000
0010
0100
0000
0010
0000
0002
0000
1000
0000
1003
0000
0001
0000
,
0100
0000
0000
0010
0100
0000
0001
0000
0010
0000
0000
0001
1000
0000
0100
0000
,
0010
0011
0101
1100
,
2010
0001
0010
3010
,
1001
1001
0000
0000
,
0001
0010
0000
0000
0110
0000
0000
0000
1000
0010
0000
0000
0110
0000
0000
0000
,
0001
0010
0000
0000
0110
0000
0000
0000
2002
0000
0000
0000
3003
0000
1000
0000
,
0010
0100
0010
1000
0001
0100
1000
0100
,
0001
0000
0010
0100
1000
0000
1010
0000
,
0001
0100
0000
0000
0110
0000
0000
0000
1000
0100
0000
0000
0110
0000
0000
0000
,
0001
0100
0000
0000
0110
0000
0000
0000
2002
0000
0000
0000
3003
0000
0000
0000
,
0001
0010
0100
0010
0001
1000
0100
0001
,
0100
0000
0000
0000
1000
0000
0001
0000
0100
0000
0010
0100
0010
0000
0000
0000
,
1001
0000
0000
0000
2000
0000
0000
0000
3001
0000
0000
0010
0100
0000
0010
0000
,
0001
0000
1000
0010
0100
0001
0100
0010
,
2000
0000
3100
0002
0000
0203
0000
1300
,
0002
0000
0010
0000
1003
0100
1100
0000
,
0001
0010
0000
0000
0110
0000
0000
0000
1000
0010
0000
0000
0110
0000
0000
0000
,
0001
0010
0000
0000
0110
0000
0000
0000
2002
0000
0000
0000
3003
0000
0000
0000
,
1000
0010
0001
0010
1000
0100
1000
0001
,
0010
0000
0000
0001
0101
0000
0000
1010
,
0000
0000
1100
0000
0000
0000
0010
0000
1001
0000
0000
0100
0010
0000
0000
0000
,
1001
0000
1000
0100
0010
0000
0100
1000
,
0001
0000
0010
0100
1000
0001
0100
0010
,
1000
0000
0001
0010
0100
0000
0010
0001
,
1000
0000
0010
0100
0001
0010
0001
0100
,
0010
0000
1000
0100
0001
0000
0100
1000
,
0001
0000
0010
0100
1000
0010
0100
0001
,
0010
0000
0001
0100
1000
0000
0100
0001
,
1000
0000
0010
0100
0001
0001
0010
0000
,
2001
0100
0001
0100
,
0001
0100
0020
3030
,
1000
1000
0001
0100
,
0001
0000
0001
0000
1000
0100
0100
0000
,
1002
0010
1000
0013
,
2001
0010
0002
3003
,
1000
0000
0100
0000
1000
0000
0001
1000
0001
0000
0100
0000
0001
0000
0010
0001
,
0010
0000
0000
0000
0001
0100
0000
0000
1010
0000
0000
0000
1000
0100
0000
0000
,
0011
0000
0000
0000
0001
0100
0000
0000
1010
0000
0000
0000
2002
0000
0000
0000
,
3003
0001
0010
0100
0010
0001
0100
1000
,
0100
0000
0001
0000
1000
0000
0000
0000
0010
0000
0100
0010
0100
0000
0000
0000
,
0101
0000
0000
0000
0001
0010
0000
0000
1100
0000
0000
0000
1000
0010
0000
0000
,
0101
0000
0000
0000
0001
0010
0000
0000
1100
0000
0000
0000
2002
0000
0000
0000
,
3003
0000
1000
0010
0100
1000
0100
0010
,
1000
0000
0001
0000
0010
0000
0000
0000
0100
0000
1000
0000
0010
0000
0100
0001
,
1000
0000
1010
0000
0001
0000
1000
0100
,
0001
0100
1000
0000
0001
0010
0100
1000
,
0010
0100
0002
0000
0013
2000
0000
3020
,
0000
0000
0031
0000
0200
0000
0000
0000
1000
0000
0000
0000
0310
0000
0100
0010
,
0100
0000
0001
0000
1000
0010
0000
0000
0101
0000
0000
0000
0001
0010
0000
0000
,
1100
0000
0000
0000
1000
0010
0000
0000
0101
0000
0000
0000
2002
0000
0000
0000
,
3003
0000
0001
0010
1000
0010
0001
0100
,
0001
1000
0001
0000
0010
0000
0000
0000
0000
0000
0100
0000
1100
0000
0000
0000
,
0000
1010
0000
0110
0000
0001
1001
0000
,
1000
1100
0000
0011
0000
0001
0202
0000
,
0303
0000
1001
0000
0001
0010
0100
0000
,
1000
0010
0100
0000
0001
1000
0100
0001
,
0100
1000
0001
0000
1000
0010
0100
0000
,
0001
0010
0100
0000
1000
0001
0100
1000
,
0100
0001
1000
0000
0100
0010
1000
0000
,
0010
0100
1000
0000
0001
0100
0010
1000
,
0100
0010
0001
0000
0100
0010
0001
0000
,
0010
0100
0001
0000
1000
0100
1000
0010
,
0010
0010
0000
0000
1001
0000
0000
0000
;

//--------------- dance-double - forcednature ----------------
#NOTEDATA:;
#STEPSTYPE:dance-double;
#DESCRIPTION:forcednature;
#CREDIT:forcednature;
#DIFFICULTY:Easy;
#METER:6;
#RADARVALUES:0,0,0,0,0;
#NOTES:
00000000
00000000
00000000
00000000
,
00000000
00000000
00000000
00000000
,
00000000
00000000
00000000
00000000
,
00000000
00000000
00000000
00000000
,
00001000
00001000
00010000
00000000
,
00000100
00000000
00001000
00000000
,
00000010
00000100
00000001
00000000
,
00000010
00000000
00000100
00000000
,
00010000
00001000
00010000
00000000
,
00011000
00000000
00100000
00000000
,
00010000
10000000
00100000
00000000
,
01000000
00000000
00010000
00000000
,
00100000
00001000
00010000
00000000
,
00011000
00000000
00000100
00000000
,
00000100
00000000
00001000
00000000
,
00000010
00000000
00000010
00000000
,
00000100
00000000
00000001
00000000
,
00001000
00000000
00001000
00000000
,
00000100
00000000
00010000
00000000
,
00001000
00000000
00001000
00000000
,
00100000
00000000
00000000
00000000
,
00010000
10000000
00100000
00000000
,
10000000
00010000
00100000
00000000
,
01000000
00000000
10000000
00000000
,
01000000
00000000
00010000
00000000
,
00001000
00000000
00010000
00000000
,
00000100
00000000
00000100
00000000
,
00001000
00000000
00000000
00000000
,
00000010
00000000
00000100
00000000
,
00000001
00000001
00000001
00000000
,
00001000
00001000
00001000
00000000
,
00000100
00001000
00000100
00000000
,
00010000
00001000
00010000
00000000
,
00001000
00001000
00001000
00000000
,
00100000
00100000
00100000
00000000
,
00010000
01000000
00010000
00000000
,
10000000
00100000
01000000
00010000
,
10000000
00000000
10000000
00000000
,
10000000
20000000
30000000
00000000
,
01000000
00100000
01000000
00100000
,
01000000
00100000
00020000
00030000
,
01000000
00000000
00001000
00000000
,
00020000
00000000
00030000
00000000
,
00001000
00010000
00001000
00010000
,
00001000
00010000
00000200
00000300
,
00001000
00000000
00000010
00000000
,
00000100
00000001
00000100
00000000
,
00001001
00000000
00000000
00000000
,
00001000
00000000
00000100
00000000
,
00010000
00000000
00001000
00000000
,
00011000
00000000
00100000
00000000
,
00010000
10000000
00010000
10000000
,
00010000
10000000
02000000
03000000
,
00100000
00010000
00200000
00000000
,
00301000
00000000
00010000
00000000
,
00000100
00000100
00001000
00000000
,
00001001
00000000
00000000
00000000
,
00000001
00000000
00000100
00000000
,
00000010
00000000
00000000
00000000
,
00001000
00000000
00000100
00000000
,
00010000
00000000
00000000
00000000
,
00001000
00000000
01000000
00000000
,
00010000
00000000
00000000
00000000
,
00100000
00000000
01000000
00000000
,
10010000
00000000
00000000
00000000
,
00020000
00000000
00000000
00030000
,
00100000
00000000
00100000
00000000
,
00100000
00000000
00000000
00000000
,
00001000
00000000
00010000
00000000
,
00002000
00000000
00000000
00003000
,
00010000
00000000
00010000
00000000
,
00000100
00010000
00001000
00010000
,
00001000
00010000
00001000
02000000
,
03000000
00010000
10000000
00010000
,
00000000
00100000
00000000
01000000
,
00000000
00010000
00001000
00010000
,
00001000
00010000
00001000
00200000
,
00300000
00001000
00000000
00010000
,
00000000
00000100
00001000
00000100
,
00000000
00001001
00000000
00000000
,
00000000
00000001
00000000
00000010
,
00000000
00000100
00000000
00010000
,
00000000
00001000
00000000
00010000
,
00010000
00001000
00010000
00001000
,
00010000
00001000
00010000
00000020
,
00000030
00001000
00000100
00001000
,
00000000
00001001
00000000
00000110
,
00000000
00000001
00000001
00001000
,
00000000
00001000
00001000
00000001
,
00000000
00001001
00000000
00001000
,
00000000
00000100
00000000
00000000
,
00000000
00010000
00000000
00001000
,
00000000
00010000
00000000
00000000
,
00000000
00011000
00000000
00100000
,
00000000
00010000
00000000
00000000
,
00000000
01000000
00000000
00010000
,
00000000
01000000
00000000
00100000
,
00000000
00000000
10010000
00000000
;

//--------------- dance-double - forcednature ----------------
#NOTEDATA:;
#STEPSTYPE:dance-double;
#DESCRIPTION:forcednature;
#CREDIT:forcednature;
#DIFFICULTY:Medium;
#METER:10;
#RADARVALUES:0,0,0,0,0;
#NOTES:
00000000
00000000
00000000
00000000
,
00000000
00000000
00000000
00000000
,
00000000
00000000
00000000
00000000
,
00000000
00000000
00000000
00000000
,
00001000
00010000
00001000
00010000
00000100
00000000
00000010
00000000
,
00000220
00000000
00000000
00000330
,
00000100
00001000
00000001
00000100
,
00002000
00000000
00013000
00001000
,
00010000
00100000
10000000
00010000
,
20020000
30030000
10000000
01000000
,
10000000
00010000
00100000
00001000
,
00020000
00000000
00030100
00001000
,
00000010
00000000
00000100
00000000
00000001
00001000
00000001
00000000
,
00000010
00000100
00010000
00001000
,
00100000
00010000
02000000
03000000
,
00100000
01000000
00001000
00010000
,
00000010
00001000
00000200
00000300
,
00000010
00000100
00010000
00001000
,
00100000
00010000
02000000
03000000
,
00100000
01000000
00001000
00000000
,
00010000
00000000
00010000
00001000
00000000
00011000
00000000
00000000
,
00000100
00010000
00022000
00033000
,
01000000
00001000
00022000
00033000
,
00000010
00000000
00001000
00000010
00000000
00000010
00000100
00000000
,
00000001
00000000
00001000
00000001
00002000
00000000
00003000
00000000
,
00000000
00000100
00010000
00001000
,
00200000
00320000
20030000
32000000
,
03200000
00000000
00000000
00300000
,
00001000
00000000
00010000
00001000
00020000
00000000
00030000
00000000
,
00000100
00000000
00000000
00001000
00000000
00000000
00000100
00000000
00001000
00000000
00000000
00000010
00000000
00000000
00001000
00000000
,
00000010
00000000
00000000
00000100
00000000
00000000
00000001
00000000
00002000
00000000
00000000
00000000
00003000
00000000
00000000
00000000
,
00000100
00000000
00000000
00010000
00000000
00000000
00000100
00000000
00010000
00000000
00000000
00001000
00000000
00000000
00100000
00000000
,
00010000
00000000
00000000
01000000
00000000
00000000
00010000
00000000
20000000
00000000
00000000
00000000
30000000
00000000
00000000
00000000
,
00100000
00000000
00000000
01000000
00000000
00000000
00100000
00000000
01000000
00000000
00000000
00010000
00000000
00000000
01000000
00000000
,
00010000
00000000
00000000
00100000
00000000
00000000
00001000
00000000
00020000
00000000
00000000
00000000
00030000
00000000
00000000
00000000
,
00000100
00001000
00000100
00000000
00000010
00000001
00000010
00000000
,
00000200
00020300
00032000
02003000
,
03020000
00030000
10000000
10000000
,
10010000
10010000
00000000
00000000
,
00011000
00100000
00011000
01000000
,
00011000
00100000
00202000
00303000
,
00001000
00000000
00010000
00001000
00010000
00000000
00000100
00000000
,
00001000
00000010
00000200
00000300
,
00011000
00000010
00011000
00000100
,
00011000
00000010
00020020
00030030
,
00010000
00000000
00001000
00010000
00001000
00000000
00100000
00000000
,
00010000
00000000
01000000
00010000
02000000
00000000
00000000
03000000
,
00000000
00000000
00100000
00000000
10000000
00000000
00010000
00010000
,
00100000
00000000
00000000
00000000
00001000
00000000
00010000
00010000
,
00001000
00000000
00000000
00000000
00010000
00000000
00000100
00000100
,
00002000
00000000
00003010
00010000
,
00011000
00000010
00011000
00100000
,
00011000
00000010
00020020
00030030
,
00010000
00001000
00010000
00000000
00000100
00001000
00000100
00000000
,
00000010
00000000
00000000
00000010
00000001
00000000
00000000
00000100
,
00000000
00000100
00000000
00001000
00020000
00000000
00030000
00000000
,
00200000
01000000
00010000
01300000
,
00100000
10000000
01000000
00010000
,
00002000
00100000
00010000
00103000
,
00001000
00010000
00000100
00001000
,
00000020
00000100
00001000
00000130
,
00000010
00010000
00001000
01000000
,
00020000
00100000
10000000
00130000
,
00010000
00000000
10000000
00010000
10000000
00000000
01000000
00000000
,
00200000
00010000
00001000
00010000
,
00001000
00010000
00002000
00303000
,
00001000
00010000
00000100
00001000
,
00000010
00000000
00000100
00000000
00000001
00001000
00000001
00000000
,
00002000
00000100
00000010
00003100
,
00020000
00001000
00000020
00030030
,
00010000
00000000
00001000
00010000
00001000
00000000
00100000
00000000
,
00110000
00011000
00000010
00011000
,
00000100
00011000
00000010
00020020
,
00030030
00000000
00010000
00000000
00001000
00010000
00001000
00000000
,
01000000
00010000
00100000
02000000
,
03000000
00011000
00100000
00011000
,
01000000
00011000
00100000
00202000
,
00303000
00000000
00001000
00000000
00010000
00001000
00010000
00000000
,
00000010
00000000
00001000
00000000
00000100
00001000
00000200
00000000
,
00000000
00000300
00000000
00000000
00000010
00000000
00000001
00000000
,
00001000
00001000
00000010
00000000
00000010
00000000
00010000
00000000
,
00001000
00001000
00010000
00000000
00010000
00000000
00001000
00000000
,
01000000
01000000
00020000
00000000
00000000
00000000
00130000
00000000
,
00001000
00011000
00100000
00011000
,
00000010
00011000
00100000
00202000
,
00303000
00000000
00001000
00010000
00001000
00000000
01000000
00010000
,
01000000
00000000
00100000
00000000
00000000
00100000
10000000
00000000
,
00000000
01000000
00000000
01000000
00000000
00010000
00001000
00000000
,
00001000
00010000
00000000
00000100
00000000
00000100
00002000
00000000
,
00003000
00000010
00000100
00000001
,
00000100
00000000
00000010
00001000
00000010
00000000
00010000
00001000
,
00010000
00001000
00100000
00010000
,
00100000
00000000
01000000
10000000
01000000
00000000
00100000
01000000
,
00100000
00001000
00010000
00000100
,
00001000
00000000
00000010
00001000
00000010
00000000
00000100
00000001
,
00000100
00000010
00010000
00001000
,
01000000
00000000
00010000
10000000
00010000
00000000
00100000
01000000
,
00100000
01000000
00000000
00000000
10010000
00000000
00000000
00000000
;

//--------------- dance-double - forcednature ----------------
#NOTEDATA:;
#STEPSTYPE:dance-double;
#DESCRIPTION:forcednature;
#CREDIT:forcednature;
#DIFFICULTY:Hard;
#METER:14;
#RADARVALUES:0,0,0,0,0;
#NOTES:
00000000
00000000
00000000
00000000
,
00000000
00000000
00000000
00000000
,
00000000
00000000
00000000
00000000
,
00000000
00000000
00000000
00000000
,
00001000
00010000
00001000
00010000
00000100
00001000
00000010
00000000
,
00000210
00000001
00000010
00000001
,
00000310
00001000
00000100
00000000
00010000
00001000
00100000
00000000
,
00010000
10000000
01000000
10000000
00010000
10000000
01000000
00000000
,
00100000
00001000
00010000
00000000
00000010
00010000
00001000
00000000
,
00000010
00000100
00001000
00000100
00000010
00000001
00001000
00000000
,
00000010
00010000
00001000
00000000
00100000
00001000
00010000
00000000
,
00100000
01000000
00010000
01000000
00100000
10000000
00010000
00000000
,
00100000
01000000
00010000
00000000
00001000
00000010
00000100
00000010
,
00000001
00000000
00000001
00000100
00000001
00001000
00000010
00001000
,
00000002
00000023
00002030
00003000
,
00010000
00000000
01000000
10000000
00100000
10000000
00010000
00100000
,
01000000
01100000
20020000
30030000
,
10000000
00000000
00100000
01000000
00010000
01000000
00100000
10000000
,
02000000
03020000
00032000
00003000
,
00000010
00000100
00001000
00000100
00000010
00000000
00000010
00000001
,
00001000
00000010
00000100
00001000
00000000
00001000
00010000
00000000
,
00100000
10000000
01000000
00010000
00002000
00000000
00003000
00000000
,
00000010
00000001
00000100
00001000
00020000
00000000
00030000
00000000
,
00100000
00000000
10000000
01000000
00000000
10000000
00100000
01000000
,
00010000
00100000
01000000
00010000
00001000
00100000
00100000
00000000
,
00001000
00010000
00000100
00010000
00001000
00000000
00000010
00000100
,
00002000
00000000
00003002
00000000
00000103
00001000
00010000
00000000
,
00200000
01000000
10300000
00100000
,
01000000
00010000
10000000
00010000
00100000
00000000
10010000
00000000
,
10000000
00000000
00000000
10000000
00000000
00000000
01000000
00000000
00010000
00000000
00000000
00010000
00000000
00000000
00001000
00000000
,
00000100
00000000
00000000
00000100
00000000
00000000
00000001
00000000
00000020
00000000
00000000
00000000
00000030
00000000
00000000
00000000
,
00000001
00000000
00000000
00000001
00000000
00000000
00000100
00000000
00001000
00000000
00000000
00001000
00000000
00000000
00010000
00000000
,
01000000
00000000
00000000
01000000
00000000
00000000
10000000
00000000
00200000
00000000
00000000
00000000
00300000
00000000
00000000
00000000
,
10000000
00000000
00000000
10000000
01000000
00000000
00000000
00000000
00100000
00000000
00000000
00100000
00001000
00000000
00010000
00000000
,
00000100
00000000
00000000
00000100
00001000
00000000
00000000
00000000
00000010
00000000
00000100
00000000
00000010
00000000
00000100
00000000
,
00000001
00000000
00000000
00000010
00000001
00000000
00000010
00000000
00000100
00000000
00000000
00001000
00000100
00000000
00010000
00000000
,
00001000
00011000
00101000
00110000
,
02010000
00100000
10000000
00100000
,
00010000
03001000
00000000
00000000
,
00021000
00130000
00012000
00003010
,
00021000
00000000
00130000
00000000
02200000
00000000
03300000
10000000
,
00100000
01000000
00010000
10000000
01000000
00010000
00001000
00100000
,
00001000
00000000
00010000
00000100
00000020
00000000
00000030
00000000
,
00012000
00003010
00021000
00130000
,
00012000
00003010
00000220
00000330
,
00000100
00001000
00000010
00000100
00000001
00000010
00000001
00000100
,
00001000
00000000
00010000
00100000
20000000
00000000
30000000
00000000
,
10010000
00000000
00110000
00000000
00010000
10000000
01000000
00010000
,
00001000
00000000
00100000
00001000
00010000
00000100
00010000
00001000
,
00000020
00000000
00000130
00002000
00000000
00003002
00000000
00000103
,
00000020
00000000
00001000
00000000
00010030
00001000
01000000
00000000
,
00021000
01030000
00012000
00003100
,
00021000
01030000
02200000
03300000
,
00100000
00010000
01000000
00001000
00010000
00000100
00001000
00000010
,
00000100
00000000
00000000
00000001
00001000
00000000
00000000
00001100
,
00000000
00000000
00010100
00000000
00000000
00000000
00010000
00000000
00001000
00000000
00000000
01000000
00100000
00000000
00000000
00000000
,
10000000
01000000
10000000
00010000
01000000
00010000
00100000
00000000
,
01000000
00010000
00001000
00000000
00001000
00010000
00000010
00000000
,
00001000
00000001
00000100
00000001
00001000
00000001
00000100
00000000
,
00000010
00010000
00001000
00000000
00100000
00001000
00010000
00000000
,
00100000
01000000
00010000
01000000
00100000
10000000
00010000
00000000
,
00100000
00001000
00010000
00000000
00000010
00010000
00001000
00000000
,
00000010
00000100
00001000
00000100
00000010
00000001
00001000
00000000
,
00000010
00000100
00001000
00000000
00010000
00100000
01000000
00000000
,
00020000
01000000
10000000
00100000
,
00032000
00000100
00000020
00003030
,
00001000
00000100
00010000
00001000
,
00010000
00000000
00000010
00000000
00001000
00000001
00000001
00000000
,
00002000
00000100
00000001
00000010
,
00023000
01000000
00200000
00330000
,
10000000
01000000
00010000
00001000
00000010
00000001
00000100
00001000
,
00010000
00021000
01030000
00012000
,
00003010
00021000
01030000
02200000
,
03300000
00100000
00001000
00010000
00000100
00001000
00000010
00000001
,
00000010
00001000
00000100
00000000
00010000
00001000
00100000
00000000
,
00101000
00012000
00003100
00021000
,
00130000
00012000
00003100
00000220
,
00000330
00000000
00000010
00001000
00000100
00000010
00001000
00010000
,
01000000
00000000
00100000
00000000
00010000
00000000
00000000
00000000
01000000
00000000
00100000
00000000
10000000
00000000
01000000
00100000
,
00010000
00000000
10010000
00000000
11000000
00000000
01000000
00100000
,
00001000
00010000
00000100
00000000
00010000
00001000
00000010
00000100
,
00000010
00000001
00002000
00000000
00003010
00020000
00000000
00032000
,
00000000
01003000
00020000
00000000
00100000
00000000
10030000
01000000
,
00010000
00012000
00003010
00021000
,
00130000
00012000
00003010
00000220
,
00000330
00000000
00000100
00010000
00001000
00000010
00000100
00001000
,
00000001
00001000
00000001
00000000
00000100
00000000
00000000
00000000
00000000
00000000
00001000
00000000
00010000
00000000
00000000
00000000
,
00000000
01100000
00000000
01010000
00000000
10000000
01000000
00000000
,
00010000
00001000
00000000
00000110
00000000
00000001
00002000
00000000
,
00003000
00000000
00000001
00000100
00000001
00001000
00000100
00001000
,
00000010
00000000
00000100
00001000
00010000
00000000
00010000
00001000
,
00100000
00000000
00010000
10000000
01000000
10000000
00010000
10000000
,
01000000
00000000
00100000
00001000
00010000
00000000
00000010
00010000
,
00001000
00000000
00000010
00000100
00001000
00000100
00000010
00000001
,
00001000
00000000
00000010
00010000
00001000
00000000
00100000
00001000
,
00010000
00000000
00100000
01000000
00010000
01000000
00100000
10000000
,
00010000
00000000
00100000
01000000
00010000
00000000
00001000
00000100
,
00000100
00000100
00000000
00000000
00001001
00000000
00000000
00000000
;
