#VERSION:0.83;
#TITLE:魚氷に上り 耀よひて;
#SUBTITLE:;
#ARTIST:あさき;
#TITLETRANSLIT:Uohi ni nobori kagayohite;
#SUBTITLETRANSLIT:;
#ARTISTTRANSLIT:Asaki;
#GENRE:;
#CREDIT:;
#MUSIC:Uohi ni nobori kagayohite.ogg;
#BANNER:Uohi ni nobori kagayohite.png;
#BACKGROUND:Uohi ni nobori kagayohite-bg.png;
#CDTITLE:./CDTitles/REFLEC BEAT limelight.png;
#SAMPLESTART:61.907;
#SAMPLELENGTH:15.000;
#SELECTABLE:YES;
#OFFSET:0.780;
#BPMS:0.000=106.000;
#STOPS:;
#TIMESIGNATURES:0.000=4=4,
12.000=5=4,
17.000=4=4
;
#BGCHANGES:0.000=../BGAs/09te.mp4=1.000=0=0=0=StretchNoLoop====,
99999.000=-nosongbg-=1.000=0=0=0=StretchNoLoop====
;
#FGCHANGES:;

//--------------- dance-single - forcednature ----------------
#NOTEDATA:;
#STEPSTYPE:dance-single;
#DESCRIPTION:forcednature;
#DIFFICULTY:Beginner;
#METER:3;
#RADARVALUES:0,0,0,0,0;
#CREDIT:forcednature;
#NOTES:
0000
0000
0000
0000
,
0000
0000
0000
0000
,
0000
0000
0000
0000
,
0000
0000
0000
1001
,
0000
0001
0000
0001
,
0000
1000
1000
1000
,
0000
0010
0000
0000
,
0000
0100
0000
0100
,
0000
0001
0000
0000
,
0000
0010
0000
0001
,
0000
0010
0000
0000
,
0000
0100
0000
1000
,
0000
0100
0000
1000
,
0000
1000
0001
1000
,
0000
0010
0000
0100
,
0000
0000
0000
0001
,
0000
1000
0000
0100
,
0000
0010
0100
0010
,
0100
1000
0001
0100
,
0000
1001
0000
0000
,
0001
0010
0000
0010
,
0100
1000
0000
0000
,
1000
0010
0000
0000
,
0010
0100
0000
0001
,
0001
0010
0000
0000
,
0010
0001
0000
0000
,
0001
0200
0000
0310
,
0010
1000
0000
2002
,
0000
3003
0001
0000
0001
0000
0010
0000
,
0000
0001
0100
0001
,
0000
1000
1000
0010
,
0000
1000
1000
0100
,
0000
0010
0110
0000
,
0000
0100
1001
0000
,
0000
1000
0010
1000
,
0000
0001
0001
0100
,
0000
0001
1001
0000
,
1000
0100
1001
0000
,
0001
0000
0010
0100
,
0010
0000
0100
1000
,
0000
0010
0110
0000
,
0100
0001
1001
0000
,
1000
0100
0000
1000
,
0001
1000
0000
0010
,
0100
0220
0000
0000
,
0000
0000
0000
0000
,
0330
0001
0001
0100
,
0100
0001
0001
1000
,
0010
0000
0000
0000
;

//--------------- dance-single - forcednature ----------------
#NOTEDATA:;
#STEPSTYPE:dance-single;
#DESCRIPTION:forcednature;
#DIFFICULTY:Easy;
#METER:6;
#RADARVALUES:0,0,0,0,0;
#CREDIT:forcednature;
#NOTES:
0000
0000
0000
0000
,
0000
0000
0000
0000
,
0000
0000
0000
0000
,
0000
0000
0000
1001
,
0001
0000
0010
0000
0000
0010
0000
0000
,
0100
1000
1000
1000
,
0001
1001
0000
1000
,
0000
0010
0100
0001
,
0000
0100
0000
0010
,
1000
0001
0000
0010
,
0110
0000
1000
0100
,
1000
0000
0001
0010
,
0100
0000
0010
0001
,
0000
0001
0000
0000
1000
0000
1001
0000
,
0000
0001
0000
0100
,
0001
0100
0010
1000
,
0000
0100
0000
1001
,
0000
0010
1001
0100
,
1001
1000
0110
2002
,
3003
0001
0010
0000
,
0010
0000
0001
0000
0000
0001
0000
0000
,
0100
0010
0010
0000
,
1000
0100
0100
0000
,
1000
0001
0010
0020
,
0031
0100
0010
0000
,
0010
1000
0100
0000
,
0100
1000
0000
0010
,
0100
0000
0001
0000
0000
2002
0000
0000
,
0000
3003
1000
0000
0100
0000
1000
0000
,
0010
0000
0100
0010
0100
0000
0001
0000
,
0000
0010
0001
0010
,
1000
0000
0010
0001
0010
0000
0001
0000
,
0000
0100
0110
0001
,
0000
1000
1100
0001
,
0000
0000
0010
0000
0100
0010
0100
0000
,
1000
0000
0010
0000
1000
0001
1000
0000
,
0001
0101
1000
0000
,
1000
0000
0010
0000
0100
0010
0100
0000
,
0001
0010
0011
0000
,
0001
0000
1000
0001
1000
0000
0100
0000
,
0010
0000
0001
1000
1001
0000
0000
0000
,
1000
0000
0010
0100
0110
0000
0000
0000
,
0001
0000
1000
0000
0100
0000
1000
0001
,
1000
0010
0100
0110
,
0001
2002
0000
0000
,
0000
0000
0000
0000
,
3003
0000
0001
0010
0001
0000
0001
0100
,
0001
0000
0001
1000
0010
0000
0010
0100
,
0001
1000
0000
0000
0000
0000
0000
0000
;

//--------------- dance-single - forcednature ----------------
#NOTEDATA:;
#STEPSTYPE:dance-single;
#DESCRIPTION:forcednature;
#DIFFICULTY:Medium;
#METER:9;
#RADARVALUES:0,0,0,0,0;
#CREDIT:forcednature;
#NOTES:
0000
0000
0000
0000
,
0000
0000
0000
0000
,
0000
0000
0000
0000
,
0000
0000
0000
1001
,
1000
0000
0100
0000
1000
0001
0000
0000
0000
0000
1000
0001
0000
0000
0000
0000
,
0001
1000
0000
0000
0010
0000
0000
0010
0000
0000
0010
0000
0000
0100
0000
0000
,
0001
0000
0010
0001
0010
0000
0100
0000
,
1000
0000
0010
0100
0001
0000
0010
0100
,
1000
0000
0001
0100
1000
0000
0100
0001
,
0010
0000
0200
0000
1300
0001
1001
0000
,
1000
0010
0100
0010
0001
0000
0010
1000
,
0001
0000
0010
0000
0110
0000
0001
1000
,
0100
0000
0000
0000
0001
0000
0100
0000
1000
0000
0000
0000
0001
1000
0000
0000
,
0000
0000
0001
1000
0000
0000
0000
0000
1000
0001
0000
0000
0100
0000
0000
0000
,
0110
0000
0001
1000
0010
0000
1000
0001
,
0010
0000
0100
0010
0001
0000
0100
0000
,
0110
0000
0000
0000
0001
0000
1000
0000
0010
0000
0000
0220
0000
0000
0000
0000
,
0000
0000
0000
0330
0000
0000
1000
0000
0000
0000
0100
0000
1000
0000
0000
0000
0001
0000
0100
0000
0000
0000
0001
0000
,
0010
0000
0000
0100
0000
0010
0001
0000
0000
1000
0001
1001
,
0000
0000
1000
0000
1000
0010
0100
0000
,
0001
0000
0000
0000
1000
0001
0000
0000
0000
0000
1000
0001
0000
0001
0000
0000
,
0100
0000
0000
0000
0010
0000
0000
0110
0000
0000
0000
0000
0000
1000
0000
0001
,
0000
0000
0000
0000
0010
0000
0000
0110
0000
0000
0000
0000
0000
0001
0000
1000
,
0000
0000
0010
0000
0100
0000
0000
0001
0000
0001
0000
0010
0000
0000
0100
0000
,
1000
0000
0000
0000
0001
0000
0000
1001
0000
0000
0000
0000
0000
1000
0000
0010
,
0000
0000
0000
0000
1000
0000
0000
1001
0000
0000
0000
0000
0000
0001
0000
0000
,
0010
0100
0110
0000
1000
0100
1000
0000
,
1000
0000
0001
0000
0100
0000
0000
0010
0000
0100
0000
0220
0000
0000
0000
0000
,
0000
0330
1000
0001
0100
0000
0001
1000
,
0100
0000
0010
0001
0010
0001
0100
0001
,
0100
0000
0001
0010
1000
0000
0010
0001
,
1000
0000
0010
1000
0010
1000
0100
1000
,
0100
0000
0010
0001
0011
0000
0001
0000
,
0100
0000
0010
1000
1010
0000
1000
0000
,
0100
0000
1000
0010
1000
0000
0001
0010
,
0001
0000
0000
0000
0100
0000
0100
0000
0000
0000
0010
0000
0000
0110
0000
0000
,
1000
0001
1001
0000
1000
0100
0010
0100
,
1000
0100
0010
0000
0001
0100
0010
0100
,
0001
0100
0010
0000
1000
0001
0010
0001
,
0100
0010
1000
0000
0100
1000
0001
0100
,
0010
0000
1000
0100
1100
0000
0001
0010
,
0100
0000
0010
0001
0011
0000
1000
0010
,
0100
0000
0001
1000
0100
1000
0001
0010
,
0100
0000
0000
0000
0110
0000
0000
0000
0010
0001
0000
0001
0000
0000
0100
0000
,
0010
2002
0000
0000
,
0000
0000
0000
0000
,
3003
0000
1000
0100
1000
0010
1000
0001
,
1000
0010
0001
0100
0001
0010
0001
1000
,
0010
0100
0010
0100
0000
0000
0000
0000
0000
0000
0000
0000
0000
0000
0000
0000
;

//--------------- dance-single - forcednature ----------------
#NOTEDATA:;
#STEPSTYPE:dance-single;
#DESCRIPTION:forcednature;
#DIFFICULTY:Hard;
#METER:13;
#RADARVALUES:0,0,0,0,0;
#CREDIT:forcednature;
#NOTES:
0000
0000
0000
0000
,
0000
0000
0000
0000
,
0000
0000
0000
0000
,
0000
0000
0000
0000
0000
0000
0000
0000
0000
0000
0000
0000
1001
0000
0000
1000
,
0001
1000
0001
0000
0010
0001
0000
0000
0000
0000
0010
0001
0000
0100
0010
0100
,
0010
2000
0000
0000
3001
0010
0000
0001
0100
0000
0001
0010
0000
0001
1000
0000
,
0100
0010
0100
0010
0001
0000
0000
0000
0100
0000
1000
0000
0100
0000
0001
0000
,
0100
0001
0100
0000
0010
0000
0000
0000
1000
0000
0100
0000
1000
0000
0001
0000
,
0010
0001
0010
0000
0100
0000
0000
0000
0001
0000
0100
0000
1000
0100
1000
0000
,
0010
0000
0100
0000
0001
1000
0001
1000
0010
0000
0200
0000
0000
0000
0301
0000
,
0010
0001
0010
0000
0100
0000
1000
0000
0001
0000
0010
0000
0000
0000
1000
0000
,
0010
0001
0010
0000
0001
0000
0100
0000
0010
0000
1000
0000
0001
1000
0000
1000
,
0001
0000
0000
0000
0000
0000
0010
0000
0000
0000
0000
0000
0100
0000
0000
0000
1000
0000
0000
0000
0100
0000
0000
0000
1000
0000
0000
0000
0000
0000
0000
0000
0000
0000
0000
0000
0010
0000
0000
0100
0000
0000
0000
0000
0000
0100
0000
0000
,
0001
0000
0010
0001
0000
0001
1000
0000
0100
0010
0100
0000
0010
0000
0001
0010
,
0001
0000
0100
0000
1000
0000
0100
0000
0001
0000
0000
0000
1000
0000
0010
1000
,
0010
0000
0100
0000
1000
0000
0100
0000
0001
0000
0000
0000
0010
0000
0001
0010
,
0001
0000
1000
0000
0100
0000
0001
0000
0100
0000
0000
2002
0000
0000
0000
0000
,
0000
0000
0000
3003
0000
0000
1000
0000
0010
0000
1000
0000
0001
0000
0010
0000
0001
0000
1000
0000
0100
0000
1000
0000
,
0001
0100
0001
0010
0100
1000
0010
0100
0001
0010
0010
0010
,
0000
0000
0000
0000
1001
0000
0000
0000
1000
0000
0100
0000
1000
0001
1000
0000
,
0001
0000
0010
0000
0001
0100
0000
0100
0001
0000
1000
0010
0000
0010
0000
0100
,
0001
0100
0001
0000
1100
0000
0000
1100
0000
0000
0000
0001
0000
0010
0000
0010
,
0001
0000
0100
0000
0101
0000
0000
0101
0000
0000
0000
1000
0000
0010
0000
0010
,
1000
0000
0001
0000
0010
0100
0010
0100
0000
0100
0000
1000
0000
0001
0100
0010
,
1000
0001
0000
0000
0011
0000
0000
0011
0000
0000
1000
0100
0000
0001
0000
0100
,
1000
0000
0001
0000
1010
0000
0000
1010
0000
0000
0001
0100
0000
1000
0000
0100
,
0001
0010
2001
0000
0100
0000
3001
0001
,
0010
0000
1000
0000
0010
0001
0010
0001
0000
1001
0000
0220
0000
0000
0000
0000
,
0000
0000
0330
0000
1000
0100
1000
0100
0001
0000
0100
1000
0001
0000
0010
0000
,
0011
0000
1000
0000
0001
0100
0001
0100
1000
0000
0100
0001
1000
0000
0010
0000
,
1010
0000
0001
0000
0010
0100
0010
0100
0001
0000
0100
1000
0001
0000
0010
0000
,
0011
0000
1000
0000
0010
0100
0010
0100
1000
0000
0100
0001
1000
0000
0010
0000
,
0110
0000
0001
0000
0011
0000
0110
0000
1100
0000
0000
0000
0001
0010
0100
0000
,
1000
0000
0001
0000
1010
0000
0110
0000
0101
0000
0000
0000
1000
0010
0100
0000
,
0001
0000
0010
0000
0100
1000
0000
1000
0010
0000
0010
0100
0000
0001
0100
0001
,
0100
0000
0010
0000
1000
0100
1000
0001
0000
0010
0100
0000
0000
0110
0000
0000
,
1000
0001
1000
0001
0010
0000
0100
1000
0010
0000
0100
0001
0010
0000
1000
0000
,
0010
0000
0001
0000
0100
0001
0100
1000
0100
0000
0001
1000
0010
0000
0100
0000
,
0110
0000
0001
0000
1000
0100
0001
0100
1000
0000
0001
0010
0100
0000
1000
0000
,
1100
0000
0001
0000
0010
1000
0010
0001
0010
0000
0100
1000
0001
0000
0100
0000
,
0101
0000
1000
0000
1100
0000
0011
0000
1001
0000
0000
0000
0001
0100
0010
1000
,
0100
0000
0000
0000
0101
0000
1010
0000
1001
0000
0000
0000
1000
0001
0010
0100
,
1000
0000
0000
0000
0001
0100
0000
0100
0010
0000
1000
0000
0001
0010
0000
0100
,
0010
0000
0001
0000
1000
0100
1000
0100
0000
0010
0000
1001
0000
0000
0001
0100
,
0010
1000
2002
0000
0000
0000
0000
0000
,
0000
0000
0000
0000
,
3003
0000
0000
0000
1000
0100
0010
0100
1000
0100
0001
0100
1000
0001
0010
0100
,
1000
0100
0010
0001
1000
0010
0100
0010
1000
0010
0001
0010
1000
0001
0100
0010
,
1000
1000
1000
0001
0000
0000
0000
0000
0000
0000
0000
0000
0000
0000
0000
0000
;

//--------------- dance-double - forcednature ----------------
#NOTEDATA:;
#STEPSTYPE:dance-double;
#DESCRIPTION:forcednature;
#DIFFICULTY:Easy;
#METER:7;
#RADARVALUES:0,0,0,0,0;
#CREDIT:forcednature;
#NOTES:
00000000
00000000
00000000
00000000
,
00000000
00000000
00000000
00000000
,
00000000
00000000
00000000
00000000
,
00000000
00000000
00000000
00011000
,
00100000
00000000
00010000
00000000
00000000
00010000
00000000
00000000
,
01000000
00100000
00100000
00100000
,
10000000
10010000
00000000
00010000
,
00000000
00100000
00001000
00010000
,
00000000
00000100
00000000
00001000
,
00000010
00000100
00000000
00000001
,
00001001
00000000
00001000
00000100
,
00010000
00000000
00001000
00100000
,
00010000
00000000
01000000
00100000
,
00000000
00100000
00000000
00000000
10000000
00000000
10010000
00000000
,
00000000
00010000
00000000
00100000
,
00001000
00010000
00000100
00010000
,
00000000
00000010
00000000
00001001
,
00000000
00000100
00011000
01000000
,
00011000
00000010
00011000
00200000
,
00300000
00010000
01000000
00000000
,
01000000
00000000
00100000
00000000
00000000
00100000
00000000
00000000
,
10000000
01000000
01000000
00000000
,
00100000
00001000
00001000
00000000
,
00010000
00000100
00001000
00000020
,
00000130
00000001
00000010
00000000
,
00000010
00000001
00000100
00000000
,
00000100
00000010
00000000
00001000
,
00000100
00000000
00010000
00000000
00000000
00022000
00000000
00000000
,
00000000
00033000
00100000
00000000
00010000
00000000
01000000
00000000
,
00010000
00000000
10000000
01000000
10000000
00000000
00010000
00000000
,
00000000
00100000
00001000
00010000
,
00000010
00000000
00001000
00000100
00001000
00000000
00000001
00000000
,
00000000
00000100
00000110
00001000
,
00000000
00000100
00011000
00001000
,
00000000
00000000
00100000
00000000
00010000
00100000
00010000
00000000
,
01000000
00000000
00100000
00000000
10000000
00010000
10000000
00000000
,
01000000
01100000
00010000
00000000
,
00100000
00000000
00001000
00000000
00010000
00001000
00010000
00000000
,
00000100
00001000
00001010
00000000
,
00000001
00000000
00000010
00000001
00000010
00000000
00000100
00000000
,
00010000
00000000
00001000
00010000
00011000
00000000
00000000
00000000
,
00100000
00000000
00010000
10000000
10010000
00000000
00000000
00000000
,
00010000
00000000
01000000
00000000
00001000
00000000
00010000
00001000
,
00010000
00000100
00001000
00001001
,
00000010
00000220
00000000
00000000
,
00000000
00000000
00000000
00000000
,
00000330
00000000
00001000
00000100
00010000
00000000
00010000
00001000
,
00100000
00000000
00100000
00010000
10000000
00000000
10000000
00100000
,
01000000
00010000
00000000
00000000
00000000
00000000
00000000
00000000
;

//--------------- dance-double - forcednature ----------------
#NOTEDATA:;
#STEPSTYPE:dance-double;
#DESCRIPTION:forcednature;
#DIFFICULTY:Medium;
#METER:10;
#RADARVALUES:0,0,0,0,0;
#CREDIT:forcednature;
#NOTES:
00000000
00000000
00000000
00000000
,
00000000
00000000
00000000
00000000
,
00000000
00000000
00000000
00000000
,
00000000
00000000
00000000
00011000
,
00000010
00000000
00001000
00000000
00000100
00000010
00000000
00000000
00000000
00000000
00000100
00000010
00000000
00000000
00000000
00000000
,
00000010
00000100
00000000
00000000
00001000
00000000
00000000
00001000
00000000
00000000
00001000
00000000
00000000
00000001
00000000
00000000
,
00000100
00000000
00001000
00010000
00001000
00000000
00010000
00000000
,
00100000
00000000
10000000
01000000
00100000
00000000
00010000
01000000
,
00100000
00000000
10000000
01000000
00010000
00000000
00001000
00010000
,
00001000
00000000
00000020
00000000
00000130
00001000
00001001
00000000
,
00000001
00000100
00000010
00000100
00001000
00000000
00010000
00100000
,
01000000
00000000
00010000
00000000
10010000
00000000
10000000
01000000
,
00010000
00000000
00000000
00000000
00001000
00000000
00010000
00000000
00001000
00000000
00000000
00000000
00000010
00000100
00000000
00000000
,
00000000
00000000
00000010
00000100
00000000
00000000
00000000
00000000
00000100
00000010
00000000
00000000
00001001
00000000
00000000
00000000
,
00000001
00000000
00000100
00001000
00010000
00000000
00100000
00010000
,
00001000
00000000
00010000
00100000
10000000
00000000
01000000
00000000
,
01100000
00000000
00000000
00000000
00100000
00000000
00001000
00000000
00010000
00000000
00000000
00022000
00000000
00000000
00000000
00000000
,
00000000
00000000
00000000
00033000
00000000
00000000
00000100
00000000
00000000
00000000
00001000
00000000
00000001
00000000
00000000
00000000
00000100
00000000
00000010
00000000
00000000
00000000
00001000
00000000
,
00000100
00000000
00010000
00001000
00000000
00100000
00010000
00000000
00000000
01000000
00100000
01000000
,
00000000
00000000
00010000
00000000
10000000
01000000
00010000
00000000
,
00001000
00000000
00000000
00000000
00000010
00000100
00000000
00000000
00000000
00000000
00000010
00000100
00000000
00000100
00000000
00000000
,
00000010
00000000
00000001
00000000
00000100
00000000
00000000
00000110
00000000
00000000
00000000
00000000
00000000
00001000
00000000
00000100
,
00000000
00000000
00000000
00000000
00010000
00000000
00000000
00011000
00000000
00000000
00000000
00000000
00000000
01000000
00000000
00010000
,
00000000
00000000
00100000
00000000
01000000
00000000
00000000
10000000
00000000
10000000
00000000
00100000
00000000
00000000
00010000
00000000
,
00001000
00000000
00000000
00000000
00010000
00000000
00000000
00011000
00000000
00000000
00000000
00000000
00000000
00000100
00000000
00001000
,
00000000
00000000
00000000
00000000
00000010
00000000
00000000
00000110
00000000
00000000
00000000
00000000
00000000
00000001
00000000
00000000
,
00001000
00000100
00000110
00000000
00001000
00000010
00001000
00000000
,
00001000
00000000
00000100
00000000
00010000
00000000
00000000
00000000
00000000
00001000
00000000
00022000
00000000
00000000
00000000
00000000
,
00000000
00033000
00100000
00010000
01000000
00000000
00100000
10000000
,
01000000
00000000
00010000
00001000
00010000
00001000
00000010
00000100
,
00000010
00000000
00000100
00001000
00000010
00000000
00000100
00000001
,
00000010
00000000
00001000
00010000
00001000
00010000
00100000
01000000
,
00100000
00000000
10000000
01000000
10010000
00000000
00010000
00000000
,
00100000
00000000
00001000
00010000
00101000
00000000
00001000
00000000
,
00010000
00000000
00000010
00001000
00000100
00000000
00000010
00000001
,
00000100
00000000
00000000
00000000
00001000
00000000
00001000
00000000
00000000
00000000
00010000
00000000
00000000
00011000
00000000
00000000
,
00100000
00010000
01010000
00000000
10000000
01000000
00100000
01000000
,
10000000
01000000
00010000
00000000
00001000
00000010
00000100
00000010
,
00000001
00001000
00000100
00000000
00000010
00001000
00010000
00001000
,
01000000
00010000
10000000
00000000
00100000
01000000
10000000
01000000
,
00010000
00000000
00100000
00001000
00011000
00000000
00000100
00001000
,
00000010
00000000
00001000
00000100
00011000
00000000
00100000
00010000
,
01000000
00000000
00100000
10000000
01000000
10000000
00010000
00100000
,
00001000
00000000
00000000
00000000
00011000
00000000
00000000
00000000
00000010
00001000
00000000
00001000
00000000
00000000
00000001
00000000
,
00000100
00000220
00000000
00000000
,
00000000
00000000
00000000
00000000
,
00000330
00000000
00000001
00000100
00000001
00000010
00001000
00000010
,
00001000
00010000
01000000
00100000
01000000
10000000
00100000
01000000
,
00010000
10000000
00010000
10000000
00000000
00000000
00000000
00000000
00000000
00000000
00000000
00000000
00000000
00000000
00000000
00000000
;

//--------------- dance-double - forcednature ----------------
#NOTEDATA:;
#STEPSTYPE:dance-double;
#DESCRIPTION:forcednature;
#DIFFICULTY:Hard;
#METER:13;
#RADARVALUES:0,0,0,0,0;
#CREDIT:forcednature;
#NOTES:
00000000
00000000
00000000
00000000
,
00000000
00000000
00000000
00000000
,
00000000
00000000
00000000
00000000
,
00000000
00000000
00000000
00000000
00000000
00000000
00000000
00000000
00000000
00000000
00000000
00000000
00011000
00000000
00000000
00001000
,
00010000
00001000
00010000
00000000
00001000
00000010
00000000
00000000
00000000
00000000
00000001
00000010
00000000
00000100
00000010
00000100
,
00000010
00000002
00000000
00000000
00000103
00001000
00000000
00010000
00001000
00000000
00010000
00100000
00000000
10000000
00100000
00000000
,
10000000
00010000
10000000
00010000
01000000
00000000
00000000
00000000
00100000
00000000
10000000
00000000
01000000
00000000
10000000
00000000
,
01000000
00010000
01000000
00000000
00010000
00000000
00000000
00000000
00001000
00000000
00000010
00000000
00000001
00000000
00000010
00000000
,
00000001
00000100
00000001
00000000
00000100
00000000
00000000
00000000
00001000
00000000
00010000
00000000
00100000
00010000
00100000
00000000
,
10000000
00000000
00100000
00000000
10000000
00010000
10000000
00010000
00100000
00000000
02000000
00000000
00000000
00000000
03010000
00000000
,
00001000
00010000
00001000
00000000
00000100
00000000
00000001
00000000
00000010
00000000
00000001
00000000
00000000
00000000
00001000
00000000
,
00000010
00001000
00000010
00000000
00010000
00000000
00001000
00000000
01000000
00000000
00010000
00000000
00100000
01000000
00000000
01000000
,
00100000
00000000
00000000
00000000
00000000
00000000
00010000
00000000
00000000
00000000
00000000
00000000
10000000
00000000
00000000
00000000
01000000
00000000
00000000
00000000
10000000
00000000
00000000
00000000
00100000
00000000
00000000
00000000
00000000
00000000
00000000
00000000
00000000
00000000
00000000
00000000
00010000
00000000
00000000
00001000
00000000
00000000
00000000
00000000
00000000
00001000
00000000
00000000
,
01000000
00000000
00001000
00010000
00000000
00010000
00000100
00000000
00001000
00000010
00001000
00000000
00000001
00000000
00000010
00000001
,
00000010
00000000
00000100
00000000
00001000
00000000
00010000
00000000
00001000
00000000
00000000
00000000
00010000
00000000
00100000
00010000
,
00100000
00000000
10000000
00000000
00100000
00000000
10000000
00000000
01000000
00000000
00000000
00000000
00010000
00000000
00001000
00010000
,
00001000
00000000
00000010
00000000
00000001
00000000
00000010
00000000
00000100
00000000
00000000
00002002
00000000
00000000
00000000
00000000
,
00000000
00000000
00000000
00003003
00000000
00000000
00000001
00000000
00000100
00000000
00000010
00000000
00010000
00000000
00001000
00000000
00010000
00000000
00000010
00000000
00001000
00000000
00000100
00000000
,
00010000
00000100
00001000
00000001
00000100
00001000
00010000
01000000
10000000
00100000
00100000
00100000
,
00000000
00000000
00000000
00000000
10010000
00000000
00000000
00000000
00010000
00000000
00100000
00000000
00001000
00010000
00001000
00000000
,
00000010
00000000
00000001
00000000
00000100
00001000
00000000
00001000
00010000
00000000
01000000
00010000
00000000
00010000
00000000
00001000
,
00010000
00001000
00100000
00000000
00110000
00000000
00000000
00110000
00000000
00000000
00000000
10000000
00000000
01000000
00000000
01000000
,
10000000
00000000
00100000
00000000
01100000
00000000
00000000
01100000
00000000
00000000
00000000
00010000
00000000
01000000
00000000
01000000
,
00001000
00000000
00010000
00000000
00000100
00001000
00000100
00001000
00000000
00001000
00000000
00000010
00000000
00000100
00000001
00000010
,
00000100
00001000
00000000
00000000
00010100
00000000
00000000
00010100
00000000
00000000
00010000
00001000
00000000
00100000
00000000
00010000
,
01000000
00000000
00100000
00000000
10010000
00000000
00000000
10010000
00000000
00000000
10000000
01000000
00000000
00010000
00000000
00001000
,
00010000
00001000
00000220
00000330
00000001
00000100
00001000
00010000
,
01000000
00000000
10000000
00000000
00100000
01000000
00010000
01000000
00000000
01100000
00000000
20020000
00000000
00000000
00000000
00000000
,
00000000
00000000
30030000
00000000
00010000
01000000
00010000
01000000
10000000
00000000
01000000
00001000
00010000
00000000
00000010
00000000
,
00001010
00000000
00000001
00000000
00001000
00000100
00001000
00000100
00000001
00000000
00000100
00010000
00001000
00000000
00100000
00000000
,
00110000
00000000
10000000
00000000
00010000
00100000
00010000
00100000
10000000
00000000
00100000
00001000
00010000
00000000
00000100
00000000
,
00001100
00000000
00000001
00000000
00001000
00000010
00001000
00000010
00000001
00000000
00000010
00010000
00001000
00000000
01000000
00000000
,
01010000
00000000
10000000
00000000
01010000
00000000
00011000
00000000
00001010
00000000
00000000
00000000
00000010
00000100
00000001
00000000
,
00000010
00000000
00000100
00000000
00001100
00000000
00011000
00000000
00110000
00000000
00000000
00000000
00100000
01000000
10000000
00000000
,
00100000
00000000
01000000
00000000
00010000
00100000
00000000
00100000
00001000
00000000
00001000
00010000
00000000
00010000
00000100
00001000
,
00000100
00000000
00000010
00000000
00000001
00000100
00000001
00001000
00000000
00000010
00000100
00000000
00000000
00000110
00000000
00000000
,
00001000
00000001
00001000
00000001
00000010
00000000
00000100
00010000
00001000
00000000
01000000
00001000
00010000
00000000
00100000
00000000
,
10000000
00000000
01000000
00000000
00010000
00001000
00100000
00010000
01000000
00000000
00001000
00010000
00000010
00000000
00001000
00000000
,
00001100
00000000
00000001
00000000
00000010
00000100
00010000
00000100
00000010
00000000
00000001
00000100
00001000
00000000
00010000
00000000
,
00011000
00000000
00100000
00000000
00010000
01000000
10000000
01000000
00010000
00000000
00100000
00001000
00010000
00000000
00000100
00000000
,
00001100
00000000
00000001
00000000
00001010
00000000
00011000
00000000
01010000
00000000
00000000
00000000
10000000
00100000
00010000
00100000
,
10000000
00000000
00000000
00000000
00110000
00000000
00011000
00000000
00001100
00000000
00000000
00000000
00000001
00000010
00001000
00000010
,
00000001
00000000
00000000
00000000
00000100
00001000
00000000
00001000
00010000
00000000
00100000
00000000
10000000
00010000
00000000
01000000
,
00010000
00000000
10000000
00000000
01000000
00010000
01000000
00010000
00000000
00001000
00000000
00011000
00000000
00000000
00000100
00001000
,
00000010
00000100
00002002
00000000
00000000
00000000
00000000
00000000
,
00000000
00000000
00000000
00000000
,
00003003
00000000
00000000
00000000
00000001
00000100
00000001
00000100
00000010
00010000
00000010
00010000
00001000
00000010
00001000
00000010
,
00000100
00010000
00000100
00010000
00001000
00100000
00010000
00100000
01000000
00100000
10000000
00100000
00010000
01000000
00001000
00010000
,
00000010
00000010
00000100
00000001
00000000
00000000
00000000
00000000
00000000
00000000
00000000
00000000
00000000
00000000
00000000
00000000
;
