#VERSION:0.83;
#TITLE:ときめきブローカー;
#SUBTITLE:;
#ARTIST:P丸様。;
#TITLETRANSLIT:Tokimeki broker;
#SUBTITLETRANSLIT:;
#ARTISTTRANSLIT:Pmarusama.;
#GENRE:;
#CREDIT:video/audio extraordiberry;
#MUSIC:Tokimeki broker.ogg;
#BANNER:Tokimeki broker.png;
#BACKGROUND:Tokimeki broker-bg.png;
#CDTITLE:;
#SAMPLESTART:52.979;
#SAMPLELENGTH:15.000;
#SELECTABLE:YES;
#OFFSET:1.211;
#BPMS:0.000=171.000;
#STOPS:;
#TIMESIGNATURES:0.000=4=4;
#BGCHANGES:2.000=Tokimeki broker.mp4=1.000=0=0=0=StretchNoLoop====,
99999.000=-nosongbg-=1.000=0=0=0=StretchNoLoop====
;
#FGCHANGES:;

//--------------- dance-single - forcednature ----------------
#NOTEDATA:;
#STEPSTYPE:dance-single;
#DESCRIPTION:forcednature;
#CREDIT:forcednature;
#DIFFICULTY:Beginner;
#METER:2;
#RADARVALUES:0,0,0,0,0;
#NOTES:
0000
0000
0000
0000
,
0000
0000
0000
0000
,
0000
0000
0000
0000
,
0000
0000
0000
0000
,
0000
0000
1001
0000
,
0000
0000
0000
0000
,
0000
0000
0000
0000
,
0110
0000
0000
0000
,
0000
0000
0001
0000
,
0000
0000
0000
0000
,
0000
0000
1000
0000
,
0000
0000
0000
0000
,
0000
0000
0100
0000
,
0000
0000
0000
0000
,
0010
0000
0000
0000
,
0001
0000
0000
0000
,
0000
0000
0000
0000
,
1000
0000
0000
0000
,
0000
0000
0000
0000
,
0001
0000
0000
0000
,
1000
0000
0000
0000
,
0001
0000
0000
0000
,
1000
0000
0000
0000
,
0010
0000
0000
0000
,
0000
0000
0000
0000
,
0100
0000
0000
0000
,
0100
0000
0000
0000
,
0001
0000
0000
0000
,
0000
0000
0000
0000
,
1000
0000
0000
0000
,
1000
0000
0000
0000
,
0010
0000
0000
0000
,
0000
0000
0000
0000
,
0100
0000
0000
0000
,
0000
0000
0000
0000
,
0001
0000
0000
0000
,
0001
0000
0000
0000
,
0010
0000
0000
0000
,
0000
0000
0000
0000
,
1001
0000
0000
0000
,
1000
0000
0000
0000
,
0100
0000
0000
0000
,
0000
0000
0000
0000
,
0010
0000
0000
0000
,
0001
0000
0000
0000
,
1000
0000
0000
0000
,
0010
0000
0000
0000
,
0100
0000
0000
0000
,
0100
0000
0000
0000
,
0001
0000
0000
0000
,
1000
0000
0000
0000
,
0001
0000
0000
0000
,
0001
0000
0000
0000
,
0100
0000
0000
0000
,
0010
0000
0000
0000
,
1000
0000
0000
0000
,
0000
0000
0000
0000
,
0001
0001
0001
0000
,
0000
0000
0000
0000
,
1000
0000
1000
0000
,
0000
0000
0000
0000
,
0001
0000
0001
0000
,
0000
0000
0000
0000
,
0100
0000
0100
0000
,
0000
0000
0000
0000
,
0010
0000
0100
0000
,
0000
0000
0000
0000
,
0001
0001
1000
0000
;

//--------------- dance-single - forcednature ----------------
#NOTEDATA:;
#STEPSTYPE:dance-single;
#DESCRIPTION:forcednature;
#CREDIT:forcednature;
#DIFFICULTY:Easy;
#METER:6;
#RADARVALUES:0,0,0,0,0;
#NOTES:
0000
0000
0000
0000
,
0000
0000
0000
0000
,
0000
0000
0000
0000
,
0000
0000
0000
1000
0000
0000
0000
0001
,
0000
0000
0000
0200
0000
0000
0000
0000
,
0300
0000
0000
0020
0000
0000
0000
0000
,
0030
0000
0000
0000
0000
0000
0000
1001
,
0000
0001
0100
0001
,
0100
0010
1000
0000
,
0000
1000
0100
1000
,
0100
0010
0001
0000
,
0000
0100
0010
0100
,
0010
0000
1000
0000
0001
0000
0000
0010
,
0000
0000
0000
0100
0000
0000
0000
0220
,
0000
0000
0330
0000
,
1000
0000
0000
0000
,
0001
0000
0000
0000
,
1000
0000
0000
0000
,
0001
0000
0000
0000
,
0100
0100
0000
0010
,
1000
1000
0000
0001
,
0010
0010
0000
0100
,
0010
0001
2000
0000
,
3010
0100
0001
0001
,
0000
0100
0010
1000
,
0000
0100
0010
0001
,
1000
0020
0000
0130
,
0000
0001
1000
0100
,
0000
1000
0001
0100
,
0000
0001
1000
0010
,
0100
0000
0001
0001
,
0020
0000
0000
0000
,
0000
0000
0030
0000
,
0200
0000
0000
0000
,
0000
0000
0300
0000
,
1000
0000
1000
0000
,
0001
0000
0000
0000
,
0100
0000
0100
0000
,
1001
0000
0000
0000
,
0110
0000
0001
1000
,
0001
0000
1000
0100
,
0010
0000
0100
1000
,
0100
0000
1000
0000
,
0010
0000
0100
0010
,
0100
0000
0001
0100
,
0001
0000
0010
0001
,
0010
0000
0100
0000
,
1001
0000
1000
0010
,
0000
0010
0100
0000
,
1001
0000
0001
0010
,
0000
0010
0100
0000
,
0110
0000
0001
1000
,
0000
0100
1000
0000
,
0010
0010
0100
0000
,
0110
0000
0000
0000
,
1001
0000
2000
3002
,
0003
0000
0000
0000
,
0100
0010
0110
0000
,
0000
0001
1000
0100
,
1000
0001
1000
0000
,
0000
1000
0001
0100
,
0001
1000
0001
0000
,
0000
0001
0010
0100
,
0010
0001
1000
0000
,
0010
0000
0100
0000
,
0001
0001
1000
0000
,
1001
0000
0000
0000
,
0100
0000
0010
0000
0220
0000
0000
0330
;

//--------------- dance-single - forcednature ----------------
#NOTEDATA:;
#STEPSTYPE:dance-single;
#DESCRIPTION:forcednature;
#CREDIT:forcednature;
#DIFFICULTY:Medium;
#METER:9;
#RADARVALUES:0,0,0,0,0;
#NOTES:
0000
0000
0000
0000
,
0000
0000
0000
0000
,
0000
0000
0000
0000
,
0000
0000
0000
0001
0000
0100
0000
0010
,
0000
1000
0000
2002
0000
0000
0000
0000
,
3003
0000
0000
0110
0000
0000
0001
1000
,
0002
0000
0023
0000
0030
0000
0000
1001
,
0000
0000
1000
0000
0100
1000
0100
0000
,
1000
0010
0100
0001
,
0010
0000
0000
0000
0001
1000
0001
0000
,
0010
0000
0100
0000
1000
0000
0010
0200
,
0000
0300
0000
0000
0001
1000
0001
0000
,
0010
0000
0001
0000
0100
0000
0000
0010
,
0000
1000
0000
0001
0000
0100
0000
1001
,
0000
0000
1000
0001
1000
0000
0000
0000
,
0010
0000
0000
0100
,
0001
0000
0000
0100
,
0010
0000
0000
0100
,
0001
0000
0000
0100
,
0010
1000
0000
1000
0000
0000
0001
0000
,
0100
0010
0000
0010
0000
0000
1000
0000
,
0001
0010
0000
0010
0000
0000
0100
0000
,
1000
0001
1000
0001
2000
0000
3000
0000
,
0010
0100
0110
0001
,
1000
0100
0110
1000
,
0001
0100
0110
0001
,
1000
0001
1000
0001
0000
0001
1000
0000
,
0010
0100
0110
0001
,
0010
0100
0110
1000
,
0010
0100
0110
0001
,
1000
0001
1000
0001
0000
0100
0010
0000
,
2000
0000
0000
3000
,
0200
0000
0000
0300
,
0020
0000
0000
0030
,
0002
0000
0000
0000
0000
0000
0003
0100
,
0000
0100
0001
0000
0100
0000
0000
0010
,
0000
0010
1000
0000
0010
0000
0000
1001
,
0000
0001
1000
0000
1000
0100
0000
1000
,
0000
0010
0000
0100
0001
0000
0000
1001
,
0000
1000
0100
0000
1000
0001
0000
0010
,
0000
0010
0001
0000
0100
0000
0010
0000
,
1000
0000
0100
0000
0010
0000
0100
0010
,
0100
0000
0010
0000
0001
0000
0001
1000
,
0000
1000
0001
0000
0010
0000
0100
0010
,
0100
1000
0001
0100
,
0010
0000
1000
0000
0100
0000
1000
0001
,
0000
0001
0100
0000
0010
0000
0000
1001
,
0000
1000
0100
0000
1000
0000
0010
0100
,
0000
0100
0001
0000
0010
0000
0000
1001
,
0000
0001
0100
0000
0100
0000
0001
0010
,
0000
0100
0010
0100
0000
1000
0001
1000
,
0000
0010
0100
0000
0100
0001
0000
0010
,
0000
0001
1000
0000
1001
0000
0000
1000
,
0000
0100
0000
0010
0000
0001
0000
1001
,
0000
1000
0010
0000
0110
0000
0000
1001
,
0000
0001
0010
0000
0110
0000
2002
0000
,
3003
0000
0000
0000
,
0101
0000
1100
0000
1001
0000
0000
0110
,
0000
0000
0001
0000
0100
0001
0100
0000
,
0001
0010
0100
1000
,
0010
0000
0000
0000
1000
0001
1000
0000
,
0010
0000
0100
0000
0001
0000
0010
0200
,
0000
0300
0000
0000
1000
0001
1000
0000
,
0010
0000
1000
0000
0100
0000
0000
0010
,
0000
0001
0000
1000
0000
0100
0000
1001
,
0000
0001
0100
0000
0110
0000
0001
1000
,
0000
0000
0000
0000
,
0101
0000
1100
0000
2002
0000
0000
3003
;

//--------------- dance-single - forcednature ----------------
#NOTEDATA:;
#STEPSTYPE:dance-single;
#DESCRIPTION:forcednature;
#CREDIT:forcednature;
#DIFFICULTY:Hard;
#METER:13;
#RADARVALUES:0,0,0,0,0;
#NOTES:
0000
0000
0000
0000
,
0000
0000
0000
0000
,
0000
0000
0000
0000
,
0000
0000
0000
1100
0000
0101
0000
0011
,
0000
1010
0000
1001
0000
1000
0010
0100
,
0001
0010
0000
0110
0000
0001
0001
0100
,
0020
0000
2000
0000
0000
3030
0000
1001
,
0000
0001
0010
0100
1000
0010
0100
0001
,
0010
1000
0010
0001
0100
0001
1000
1001
,
0000
1000
0010
0100
0001
0010
0100
1000
,
0010
0001
0010
1000
0100
1000
0001
1001
,
0000
0001
1000
0100
0010
0001
0100
0010
,
0001
0010
1000
0001
0100
0010
0100
0110
,
0000
1010
0000
1100
0000
0101
0000
0021
,
0000
0130
0100
1000
0100
0000
0000
0000
,
1000
0100
0000
0100
0000
0000
1000
0000
,
0001
0100
0000
0100
0000
0000
0001
0000
,
1000
0010
0000
0010
0000
0000
1000
0000
,
0001
0010
0000
0010
0000
0000
0001
0000
,
0100
0010
1000
0010
0000
0100
0001
0000
,
0010
0100
1000
0100
0000
0010
0001
0000
,
1000
0010
1000
0001
0000
0010
0001
0000
,
0100
0010
1000
0001
0200
0000
0300
0000
,
0001
0000
0000
0001
0010
0000
0000
0010
0100
0000
0000
0100
1000
0000
0000
0000
,
1000
0000
0000
1000
0010
0000
0000
0010
0100
0000
0000
0100
0001
0000
0000
0000
,
0001
0000
0000
0001
0010
0000
0000
0010
0100
0000
0000
0100
0010
0000
0000
0000
,
0001
1000
1000
0002
0000
0103
0100
0010
,
0000
1000
0100
0001
0100
1000
1010
0001
,
0000
0001
0100
1000
0100
0001
0011
1000
,
0000
0010
0010
0100
0001
0010
0110
1000
,
0000
0001
0100
0020
0000
1030
1001
0000
,
0002
0000
0000
0000
0010
0000
0003
1000
,
2000
0000
0010
3000
,
0002
0000
0000
0000
0100
0000
0003
1000
,
2000
0000
0000
0000
3100
1000
0010
0110
,
0000
0100
0001
0010
1000
0000
0010
0002
,
0000
1003
0010
0001
0010
1000
0001
0200
,
0000
0310
0010
1000
1000
0001
0010
0011
,
0000
1100
0000
1001
1001
0000
0000
0201
,
0000
0000
0310
0000
1000
0010
1000
0000
0001
0000
0010
0000
0000
0000
0110
0000
,
0000
1000
0001
0010
0002
0100
0103
0000
,
1010
0000
1000
0100
0000
1100
0000
0021
,
0000
0130
1000
0001
0100
0000
0010
2001
,
0000
3010
0100
0001
0010
1000
0010
0002
,
0000
0103
0010
0001
0010
1000
1000
0002
,
0000
0013
0100
2000
0000
3010
0100
0110
,
0000
0001
1000
0100
0001
0100
0100
2000
,
0000
3001
0011
0000
0010
0100
1000
0100
,
0000
0100
0010
0001
1000
0100
0100
0002
,
0000
0103
1000
0100
0010
0000
0001
0201
,
0000
0310
0010
1000
0000
0100
0010
1002
,
0000
0000
0103
0000
0001
0100
0001
0000
1000
0000
0100
0000
0000
0000
0110
0000
,
0000
0001
1000
0100
1000
0010
0000
0101
,
0000
0011
0000
1010
0000
1100
0000
1002
,
0000
0013
0100
1000
0010
0000
0100
0002
,
0000
0000
0013
0000
1000
0000
0010
0000
0002
0000
0000
0003
1000
0001
1000
0001
,
1000
0000
0000
0000
,
1001
0000
0110
0000
1001
0000
0000
1100
,
0000
0001
0100
0010
1000
0100
0010
0001
,
0100
1000
0100
0001
0010
0001
1000
1001
,
0000
1000
0100
0010
0001
0100
0010
1000
,
0100
0001
0100
1000
0010
1000
0001
1001
,
0000
0001
1000
0010
0100
0001
0010
0100
,
0001
0100
1000
0001
0010
0100
0010
0110
,
0000
1100
0000
1010
0000
0011
0000
0201
,
0000
0000
0310
0000
0010
0000
1000
0000
0100
0000
0000
0000
1000
0001
1000
0001
,
1000
0000
0000
0000
,
1001
0000
0110
0000
2002
0000
0000
3003
;

//--------------- dance-double - forcednature ----------------
#NOTEDATA:;
#STEPSTYPE:dance-double;
#DESCRIPTION:forcednature;
#CREDIT:forcednature;
#DIFFICULTY:Easy;
#METER:6;
#RADARVALUES:0,0,0,0,0;
#NOTES:
00000000
00000000
00000000
00000000
,
00000000
00000000
00000000
00000000
,
00000000
00000000
00000000
00000000
,
00000000
00000000
00000000
00001000
00000000
00000000
00000000
00010000
,
00000000
00000000
00000000
00022000
00000000
00000000
00000000
00000000
,
00033000
00000000
00000000
00200000
00000000
00000000
00000000
00000000
,
00300000
00000000
00000000
00000000
00000000
00000000
00000000
10010000
,
00000000
00010000
01000000
00010000
,
01000000
00100000
10000000
00000000
,
00000000
10000000
01000000
10000000
,
01000000
00100000
00010000
00000000
,
00000000
00100000
00001000
00100000
,
00001000
00000000
00010000
00000000
00001000
00000000
00000000
00010000
,
00000000
00000000
00000000
00001000
00000000
00000000
00000000
00022000
,
00000000
00000000
00033000
00000000
,
00000100
00000000
00000000
00000000
,
00010000
00000000
00000000
00000000
,
00001000
00000000
00000000
00000000
,
00010000
00000000
00000000
00000000
,
00000010
00000010
00000000
00001000
,
00000001
00000001
00000000
00001000
,
00000100
00000100
00000000
00010000
,
00001000
00010000
00002000
00000000
,
00103000
00010000
01000000
01000000
,
00000000
00100000
10000000
00100000
,
00000000
10000000
01000000
10000000
,
00010000
00200000
00000000
00301000
,
00000000
00010000
00001000
00010000
,
00000000
00000100
00001000
00000100
,
00000000
00010000
00001000
00100000
,
00010000
00000000
00100000
00100000
,
02000000
00000000
00000000
00000000
,
00000000
00000000
03000000
00000000
,
20000000
00000000
00000000
00000000
,
00000000
00000000
30000000
00000000
,
00010000
00000000
00010000
00000000
,
00100000
00000000
00000000
00000000
,
00001000
00000000
00001000
00000000
,
00011000
00000000
00000000
00000000
,
00011000
00000000
00000100
00001000
,
00000100
00000000
00000010
00000001
,
00000010
00000000
00000001
00001000
,
00000010
00000000
00000100
00000000
,
00000001
00000000
00001000
00000100
,
00001000
00000000
00000100
00010000
,
00001000
00000000
00010000
00001000
,
00010000
00000000
00001000
00000000
,
00011000
00000000
00100000
00010000
,
00000000
00010000
01000000
00000000
,
10010000
00000000
10000000
00100000
,
00000000
00100000
01000000
00000000
,
01100000
00000000
00010000
00100000
,
00000000
00100000
00001000
00000000
,
00010000
00010000
00001000
00000000
,
00011000
00000000
00000000
00000000
,
00011000
00000000
00000200
00002300
,
00003000
00000000
00000000
00000000
,
00000001
00001000
00001001
00000000
,
00000000
00000001
00000010
00000100
,
00000010
00000001
00001000
00000000
,
00000000
00000010
00001000
00000010
,
00010000
00001000
00010000
00000000
,
00000000
00001000
00100000
00010000
,
00100000
00010000
10000000
00000000
,
00100000
00000000
01000000
00000000
,
00010000
00010000
10000000
00000000
,
10010000
00000000
00000000
00000000
,
01000000
00000000
00100000
00000000
02200000
00000000
00000000
03300000
;

//--------------- dance-double - forcednature ----------------
#NOTEDATA:;
#STEPSTYPE:dance-double;
#DESCRIPTION:forcednature;
#CREDIT:forcednature;
#DIFFICULTY:Medium;
#METER:9;
#RADARVALUES:0,0,0,0,0;
#NOTES:
00000000
00000000
00000000
00000000
,
00000000
00000000
00000000
00000000
,
00000000
00000000
00000000
00000000
,
00000000
00000000
00000000
00001000
00000000
00010000
00000000
00100000
,
00000000
01000000
00000000
02200000
00000000
00000000
00000000
00000000
,
03300000
00000000
00000000
10010000
00000000
00000000
00010000
10000000
,
00020000
00000000
00230000
00000000
00300000
00000000
00000000
00011000
,
00000000
00000000
00000100
00000000
00001000
00000100
00001000
00000000
,
00000010
00000100
00000001
00000010
,
00000100
00000000
00000000
00000000
00000010
00000001
00000010
00000000
,
00000100
00000000
00001000
00000000
00000100
00000000
00010000
00002000
,
00000000
00003000
00000000
00000000
00010000
00001000
00010000
00000000
,
00001000
00000000
01000000
00000000
00010000
00000000
00000000
01000000
,
00000000
00100000
00000000
10000000
00000000
00010000
00000000
10010000
,
00000000
00000000
10000000
00010000
10000000
00000000
00000000
00000000
,
00100000
00000000
00000000
01000000
,
00010000
00000000
00000000
00100000
,
00001000
00000000
00000000
00010000
,
00000100
00000000
00000000
00001000
,
00000010
00000100
00000000
00000100
00000000
00000000
00000001
00000000
,
00000010
00000100
00000000
00000100
00000000
00000000
00001000
00000000
,
00000010
00000100
00000000
00000100
00000000
00000000
00000001
00000000
,
00000010
00000100
00000010
00000100
00002000
00000000
00003000
00000000
,
00000100
00010000
00011000
00100000
,
00010000
01000000
01100000
10000000
,
00010000
00100000
00011000
00000100
,
00010000
00001000
00010000
00001000
00000000
00001000
00100000
00000000
,
00010000
01000000
00011000
00001000
,
00010000
00000100
00011000
00001000
,
00100000
00010000
00011000
00000100
,
00001000
00000001
00001000
00000001
00000000
00000100
00000010
00000000
,
00002000
00000000
00000000
00003000
,
00000200
00000000
00000000
00000300
,
00020000
00000000
00000000
00030000
,
00002000
00000000
00000000
00000000
00000000
00000000
00003000
00100000
,
00000000
00100000
00010000
00000000
01000000
00000000
00000000
00100000
,
00000000
00100000
10000000
00000000
01000000
00000000
00000000
10010000
,
00000000
00010000
10000000
00000000
10000000
01000000
00000000
00100000
,
00000000
00001000
00000000
00010000
00001000
00000000
00000000
00011000
,
00000000
00000100
00001000
00000000
00001000
00000010
00000000
00000100
,
00000000
00000100
00000001
00000000
00000010
00000000
00000100
00000000
,
00000010
00000000
00001000
00000000
00010000
00000000
00001000
00010000
,
00001000
00000000
00100000
00000000
00010000
00000000
01000000
00010000
,
00000000
00010000
01000000
00000000
00100000
00000000
10000000
00100000
,
10000000
01000000
00100000
00001000
,
00010000
00000000
00000100
00000000
00010000
00000000
00001000
00100000
,
00000000
00100000
00001000
00000000
00010000
00000000
00000000
00011000
,
00000000
00001000
00010000
00000000
00000010
00000000
00001000
00000010
,
00000000
00000010
00000100
00000000
00000001
00000000
00000000
00001001
,
00000000
00001000
00000100
00000000
00000100
00000000
00010000
00001000
,
00000000
00100000
00010000
00100000
00000000
00010000
10000000
00010000
,
00000000
01000000
00100000
00000000
00100000
10000000
00000000
01000000
,
00000000
00100000
01000000
00000000
01100000
00000000
00000000
00100000
,
00000000
00001000
00000000
00010000
00000000
00000100
00000000
00000110
,
00000000
00000010
00000001
00000000
00001001
00000000
00000000
00001010
,
00000000
00000010
00010000
00000000
00001000
00000000
00022000
00000000
,
00033000
00000000
00000000
00000000
,
01001000
00000000
00011000
00000000
00010100
00000000
00000000
00011000
,
00000000
00000000
00100000
00000000
00010000
00100000
00010000
00000000
,
01000000
00100000
10000000
01000000
,
00100000
00000000
00000000
00000000
00010000
10000000
00010000
00000000
,
00100000
00000000
00001000
00000000
00010000
00000000
00000100
00002000
,
00000000
00003000
00000000
00000000
00000001
00001000
00000001
00000000
,
00000100
00000000
00000010
00000000
00001000
00000000
00000000
00000100
,
00000000
00010000
00000000
00001000
00000000
00100000
00000000
00011000
,
00000000
00001000
00010000
00000000
00011000
00000000
00010000
00001000
,
00000000
00000000
00000000
00000000
,
00010100
00000000
00011000
00000000
02002000
00000000
00000000
03003000
;

//--------------- dance-double - forcednature ----------------
#NOTEDATA:;
#STEPSTYPE:dance-double;
#DESCRIPTION:forcednature;
#CREDIT:forcednature;
#DIFFICULTY:Hard;
#METER:13;
#RADARVALUES:0,0,0,0,0;
#NOTES:
00000000
00000000
00000000
00000000
,
00000000
00000000
00000000
00000000
,
00000000
00000000
00000000
00000000
,
00000000
00000000
00000000
00011000
00000000
00100000
00000000
00110000
,
00000000
10000000
00000000
11000000
00000000
00010000
00100000
01000000
,
00100000
00000000
00010000
02000000
00000000
03001000
00001000
00010000
,
00002000
00000000
00200000
00000000
00000000
00303000
00000000
00011000
,
00000000
00001000
00000010
00000100
00000010
00000001
00001000
00000001
,
00000100
00000010
00000100
00001000
00010000
00001000
00000000
00011000
,
00000000
00010000
00100000
01000000
00100000
10000000
00010000
10000000
,
01000000
00100000
01000000
00010000
00001000
00010000
00000000
00011000
,
00000000
00001000
00000100
00000010
00000100
00000001
00001000
00000001
,
00000010
00000100
00000010
00001000
00010000
00001000
00000000
00011000
,
00000000
00000010
00000000
00001010
00000000
00000001
00000000
00000201
,
00000000
00000310
00000010
00001000
00000010
00000000
00000000
00000000
,
00010000
00001000
00000000
00001000
00000000
00000000
00100000
00000000
,
00001000
00010000
00000000
00010000
00000000
00000000
00000010
00000000
,
00010000
00001000
00000000
00001000
00000000
00000000
00100000
00000000
,
00001000
00010000
00000000
00010000
00000000
00000000
00000010
00000000
,
00010000
00001000
01000000
00001000
00000000
00001000
00100000
00000000
,
00001000
00010000
00000100
00010000
00000000
00010000
00000010
00000000
,
00010000
00001000
01000000
00001000
00000000
00001000
00100000
00000000
,
00001000
00010000
00000100
00010000
00000020
00000000
00000030
00000000
,
00000100
00000000
00000000
00000100
00000001
00000000
00000000
00000001
00000010
00000000
00000000
00000010
00001000
00000000
00000000
00000000
,
00010000
00000000
00000000
00010000
00100000
00000000
00000000
00100000
10000000
00000000
00000000
10000000
01000000
00000000
00000000
00000000
,
00100000
00000000
00000000
00100000
00001000
00000000
00000000
00001000
00010000
00000000
00000000
00010000
00000100
00000000
00000000
00000000
,
00001000
00000001
00000001
00002000
00000000
00003010
00000010
00000100
,
00000000
00000001
00000010
00001000
00010000
00100000
10000000
00100000
,
00000000
10000000
01000000
00010000
00001000
00000100
00000001
00000100
,
00000000
00001000
00010000
00100000
00010000
00001000
00000010
00001000
,
00000000
00010000
01000000
00200000
00000000
00310000
00010000
10000000
,
00020000
00000000
00000000
00000000
00100000
00000000
00030000
01000000
,
02000000
00000000
00010000
03000000
,
00002000
00000000
00000000
00000000
00010000
00000000
00003000
00010000
,
00020000
00000000
00000000
00000000
00030100
00001000
00000010
00000110
,
00000000
00000100
00001000
00000100
00000001
00000000
00000010
00000002
,
00000000
00001003
00000100
00000010
00000100
00010000
00001000
00200000
,
00000000
00310000
00010000
01000000
01000000
00100000
10000000
10100000
,
00000000
11000000
00000000
10010000
10010000
00000000
00000000
00210000
,
00000000
00000000
01300000
00000000
00100000
01000000
00100000
00000000
01000000
00000000
10000000
00000000
00000000
00000000
10100000
00000000
,
00000000
00100000
01000000
00001000
00020000
00000010
00030010
00000000
,
00011000
00000000
00001000
00000010
00000000
00000110
00000000
00002100
,
00000000
00003010
00000100
00000001
00000010
00000000
00001000
00021000
,
00000000
00130000
01000000
00100000
00010000
00001000
00010000
00000200
,
00000000
00000310
00000100
00000010
00001000
00010000
00010000
00002000
,
00000000
00103000
00010000
02000000
00000000
03100000
10000000
10100000
,
00000000
10000000
01000000
00010000
00001000
00100000
00100000
00002000
,
00000000
00013000
00000100
00010000
00001000
00000000
00000010
00000100
,
00000000
00000010
00000001
00001000
00000001
00000100
00000100
00002000
,
00000000
00013000
00001000
00010000
00100000
00000000
01000000
01100000
,
00000000
00100000
10000000
10010000
00000000
00010000
00100000
10020000
,
00000000
00000000
10030000
00000000
01000000
10000000
01000000
00000000
00100000
00000000
00001000
00000000
00000000
00000000
00011000
00000000
,
00000000
00010000
00000100
00010000
00001000
00000010
00000000
00000110
,
00000000
00010100
00000000
00011000
00000000
00101000
00000000
02100000
,
00000000
13000000
00100000
01000000
00010000
00000000
00100000
00002000
,
00000000
00000000
00013000
00000000
00000100
00000000
00010000
00000000
00002000
00000000
00000000
00003000
00010000
00001000
00010000
00001000
,
00010000
00000000
00000000
00000000
,
00010010
00000000
00101000
00000000
00010100
00000000
00000000
00011000
,
00000000
00001000
00000010
00000100
00000010
00000001
00001000
00000001
,
00000100
00000010
00000100
00001000
00010000
00001000
00001000
00011000
,
00000000
00010000
00100000
01000000
00100000
10000000
00010000
10000000
,
01000000
00100000
01000000
00010000
00001000
00010000
00010000
00011000
,
00000000
00001000
00000100
00000010
00000100
00000001
00001000
00000001
,
00000010
00000100
00000010
00001000
00010000
00000100
00000000
00011000
,
00000000
00000010
00000000
00001010
00000000
00000001
00000000
00000201
,
00000000
00000000
00000310
00000000
00000010
00000000
00010000
00000000
00001000
00000000
00000000
00000000
00010000
00001000
00010000
00001000
,
00010000
00000000
00000000
00000000
,
00101000
00000000
00000000
00010010
00000000
00000000
02002000
00000000
00000000
00000000
03003000
00000000
;
