#VERSION:0.83;
#TITLE:The Wind of Gold (folkcore remix);
#SUBTITLE:;
#ARTIST:borzy;
#TITLETRANSLIT:;
#SUBTITLETRANSLIT:;
#ARTISTTRANSLIT:;
#GENRE:;
#CREDIT:;
#MUSIC:The Wind of Gold (folkcore remix).ogg;
#BANNER:The Wind of Gold (folkcore remix).png;
#BACKGROUND:The Wind of Gold (folkcore remix)-bg.png;
#CDTITLE:./CDTitles/SDVX II infinite infection.png;
#SAMPLESTART:87.524;
#SAMPLELENGTH:15.000;
#SELECTABLE:YES;
#OFFSET:-1.414;
#BPMS:0.000=170.000
,68.000=85.000
,92.000=170.000
;
#STOPS:;
#TIMESIGNATURES:0.000=4=4;
#BGCHANGES:0.000=../BGAs/10di.mp4=1.000=0=0=0=StretchNoLoop====,
99999.000=-nosongbg-=1.000=0=0=0=StretchNoLoop====
;
#FGCHANGES:;

//--------------- dance-single - kaystar vs. forcednature ----------------
#NOTEDATA:;
#STEPSTYPE:dance-single;
#DESCRIPTION:kaystar vs. forcednature;
#DIFFICULTY:Beginner;
#METER:3;
#RADARVALUES:0,0,0,0,0;
#CREDIT:kaystar vs. forcednature;
#NOTES:
0000
0000
0000
0000
,
0000
0000
0000
0000
,
0000
0000
0000
0000
,
0000
0000
0000
0000
,
0000
0000
0000
0000
,
1000
0000
0000
0000
,
0001
0000
0000
0000
,
0100
0000
0000
0000
,
0010
0000
1000
0000
,
0001
0000
0000
0000
,
1000
0000
0000
0000
,
0100
0000
0000
0000
,
0010
0000
0001
0000
,
1000
0000
0000
0000
,
0001
0000
0000
0000
,
0100
0000
0100
0000
,
0010
0010
0010
0000
,
2002
0000
0000
0000
,
3003
0000
0000
0000
,
2000
0000
3000
0000
,
0002
0000
0003
0000
,
0200
0000
0300
0000
,
0020
0000
0030
0000
,
2002
0000
0000
0000
,
0000
0000
0000
0000
,
0000
0000
0000
0000
,
3003
0000
0000
0000
,
1000
0000
0000
0000
,
0100
0000
0000
0000
,
0010
0000
0010
0000
,
0001
0000
0100
0000
,
2002
0000
0000
0000
,
0000
0000
0000
0000
,
0000
0000
0000
0000
,
3003
0000
0000
0000
,
1001
0000
0000
0000
,
0110
0000
0000
0000
,
2002
0000
0000
0000
,
3003
0000
0000
0000
,
0001
0000
0001
0000
,
0100
0000
0000
0000
,
0001
0000
0010
0000
,
0100
0000
0000
0000
,
1000
0000
1000
0000
,
0010
0000
0000
0000
,
1000
0000
0100
0000
,
0010
0000
0000
0000
,
0001
0000
0010
0000
,
0001
0000
0000
0000
,
0100
0000
0010
0000
,
1000
0000
0000
0000
,
0100
0000
1000
0000
,
0001
0000
0000
0000
,
0100
0000
0001
0000
,
0010
0010
0010
0000
,
1001
0000
0000
0000
,
1000
0000
0100
0000
,
1000
0000
0010
0000
,
0100
0000
0001
0000
,
0010
0000
0000
0000
,
0001
0000
0100
0000
,
0001
0000
0010
0000
,
0100
0000
1000
0000
,
1001
0000
0000
0000
,
0001
0000
0000
0000
,
0100
0100
0001
0000
,
0100
0100
0001
0000
,
0000
1001
0000
0000
,
1000
0000
0010
0000
,
1001
0000
0000
0000
,
0001
0000
1000
0000
,
2002
0000
0000
0000
,
0000
0000
0000
0000
,
0000
0000
0000
0000
,
3003
0000
0000
0000
;

//--------------- dance-single - kaystar vs. forcednature ----------------
#NOTEDATA:;
#STEPSTYPE:dance-single;
#DESCRIPTION:kaystar vs. forcednature;
#DIFFICULTY:Easy;
#METER:7;
#RADARVALUES:0,0,0,0,0;
#CREDIT:kaystar vs. forcednature;
#NOTES:
0000
0000
0000
0000
,
0000
0000
0000
0000
,
0000
0000
0000
0000
,
0000
0000
0000
0000
,
0000
0000
0000
0000
,
0001
0100
0000
0100
,
0001
1000
0000
1000
,
0001
0010
0000
0010
,
0001
1000
0001
0000
,
1001
0000
1000
1000
,
0100
1000
0010
0000
,
0100
0010
0100
0000
,
0001
0100
0001
0000
,
1001
0000
0001
1000
,
0100
0100
1000
0000
,
0010
0000
0000
0010
0000
0000
0000
0000
,
0100
0100
0100
0001
,
2002
0000
0000
0000
,
3003
0000
0000
0000
,
2000
3000
0002
0003
,
0100
0010
0100
0010
,
2000
3000
0002
0003
,
0010
0100
1000
0100
,
2002
0000
0000
0000
,
0000
0000
3003
0000
,
1000
0001
0000
0002
,
0000
0003
0100
0010
,
2000
0000
3000
0100
,
0010
0000
0000
0001
0000
0000
0010
0000
,
0100
0100
1000
0001
,
0100
0100
0010
1000
,
2002
0000
0000
0000
,
0000
0000
0000
0000
,
0000
0000
0000
0000
,
3003
0000
0000
0000
,
1001
0000
0100
0010
,
0110
0000
0000
0000
0000
0100
0000
0000
,
1001
0000
1000
0001
,
0000
0100
0001
0010
,
0100
1000
1000
0010
,
0100
0001
0001
0010
,
0001
1000
0100
1000
,
0001
0100
0001
1000
,
0010
0100
0100
0001
,
0010
0100
0100
1000
,
0010
1000
0001
0010
,
0001
1000
0010
0000
,
0200
0000
0001
0301
,
0002
0000
0010
0013
,
0020
0000
0100
0130
,
1000
0010
0100
0001
,
2000
0000
0100
3100
,
0200
0000
0010
0310
,
0001
0010
0100
1000
,
0010
0000
0000
0010
0000
0000
0100
0000
,
0002
0000
1003
0100
,
0010
0001
1000
0010
,
0100
0000
0001
1000
0000
1000
0001
0000
,
0100
0000
0001
1000
0000
1000
0001
0000
,
0020
0000
0130
1000
,
0001
0100
0010
1000
,
0100
0000
1000
0001
0000
0001
1000
0000
,
0100
0000
1000
0010
0000
0010
1000
0000
,
0100
1001
0000
0001
,
0010
0000
0010
0100
0000
0100
0010
0000
,
0001
0000
0001
1000
0000
1000
0001
0000
,
0010
0000
0010
0100
0000
0100
0010
0000
,
0000
1001
0000
1000
,
0010
0000
0010
0100
0000
0100
0010
0000
,
2000
0000
0000
0001
0000
0000
3001
0000
,
1000
0000
0010
0100
0000
0100
0001
0000
,
2002
0000
0000
0000
,
0000
0000
0000
0000
,
0000
0000
0000
0000
,
3003
0000
0000
0000
;

//--------------- dance-single - kaystar vs. forcednature ----------------
#NOTEDATA:;
#STEPSTYPE:dance-single;
#DESCRIPTION:kaystar vs. forcednature;
#DIFFICULTY:Medium;
#METER:11;
#RADARVALUES:0,0,0,0,0;
#CREDIT:kaystar vs. forcednature;
#NOTES:
0000
0000
0000
0000
,
0000
0000
0000
0000
,
0000
0000
0000
0000
,
0000
0000
0000
0000
,
0000
0000
0000
0000
,
1000
0100
0000
1000
0000
0000
0100
0000
,
1000
0010
0000
1000
0000
0000
0010
0000
,
1000
0001
0000
1000
0000
0000
0001
0000
,
0010
0000
0100
0010
0100
0000
1000
0000
,
1001
0001
0100
0001
,
2000
0010
0010
3010
,
1000
0100
0000
1000
0000
0001
1000
0000
,
0010
0100
0000
0100
0001
0000
0010
0000
,
0100
1000
0000
0100
0000
1000
0010
0000
,
2000
0001
0001
3001
,
1000
0000
0000
0001
0000
0000
1000
0000
0000
0000
0001
0000
0000
0000
0100
0000
,
0010
0000
0000
0010
0000
0000
0100
0000
0000
0010
0000
0000
0110
0000
0000
0000
,
2002
0000
0000
0000
,
3003
0000
0000
0000
,
0002
0013
0002
0013
,
0001
0000
1000
0001
1000
0000
0000
0000
0001
0000
1000
0001
1000
0000
0000
0000
,
0020
1030
0020
1030
,
0010
0000
0100
0010
0100
0000
0000
0000
0010
0000
0100
0010
0100
0000
0000
0000
,
1002
0000
1000
0000
,
0100
0000
0100
0000
,
1003
0010
1000
0200
,
0000
0310
0010
0001
,
1000
0010
0100
0001
,
0010
0100
1000
0001
,
0100
0000
0100
0010
0000
0010
1000
0000
,
0001
0000
1000
0100
0000
0010
0001
0000
,
2002
0000
0000
0000
,
0000
0000
0000
0000
,
0000
0000
0000
0000
,
3003
0000
0000
0000
,
1100
0001
0010
0001
,
0101
0000
1000
0000
0010
0100
0000
0100
,
0020
0000
0000
0000
1000
0030
1000
0001
,
0000
0001
1000
0000
0100
0000
0010
0000
,
1001
0000
0001
1000
0100
1000
0001
0000
,
0010
0000
0001
1000
0010
1000
0001
0000
,
0010
0000
0100
0010
0001
0010
0100
0000
,
1000
1100
0001
0101
,
1000
0000
0010
0100
0010
1000
0010
0000
,
0100
0000
0001
1000
0100
1000
0001
0000
,
0010
0000
0100
1000
0001
1000
0100
0000
,
0010
0001
1000
0010
,
0200
0000
0001
0000
0301
0001
1000
0000
,
0200
0000
1000
0000
1300
1000
0001
0000
,
0100
0000
0010
0100
0010
0000
1000
0000
,
0100
0001
0100
1000
,
0020
0000
1000
0000
1030
1000
0001
0000
,
0020
0000
0001
0000
0031
0001
1000
0000
,
0001
0100
0001
0100
0001
1000
0001
0000
,
0010
0000
0000
0010
0000
0000
0010
0000
0000
0010
0000
0000
0100
0000
0000
0000
,
1002
1000
0013
0100
,
0010
0000
0001
1000
0000
1000
0001
0000
,
0010
0000
0100
1000
0010
1000
0001
0000
,
0010
0000
0100
1000
0010
1000
0001
0000
,
0020
0001
0130
1000
,
0010
0000
1000
0001
0000
0001
1000
0000
,
0010
0000
0100
0001
0010
0001
1000
0000
,
0010
0000
0100
0001
0010
0100
1000
0000
,
0110
2002
3003
0001
,
0100
0000
0000
0100
0000
0000
0010
0000
0000
1000
0000
0000
0010
0000
0000
0000
,
0100
0000
0000
0001
0000
0000
0010
0000
0000
0100
0000
0000
1000
0000
0000
0000
,
0010
0000
0000
1000
0000
0000
0100
0000
0000
0010
0000
0000
0001
0000
1000
0000
,
0000
1000
0002
0000
0103
0000
0010
0000
,
1000
0000
0000
1000
0000
0000
0100
0000
0000
1000
0000
0000
0010
0000
0000
0000
,
0110
0000
0000
0001
0000
0000
1000
0000
0000
0001
0000
0000
0100
0000
0010
0000
,
0100
0000
0000
0001
0000
0000
1000
0000
0000
0100
0000
0000
0110
0000
0000
0000
,
2002
0000
0000
0000
,
0000
0000
0000
0000
,
0000
0000
0000
0000
,
3003
0000
0000
0000
;

//--------------- dance-single - kaystar vs. forcednature ----------------
#NOTEDATA:;
#STEPSTYPE:dance-single;
#DESCRIPTION:kaystar vs. forcednature;
#DIFFICULTY:Hard;
#METER:15;
#RADARVALUES:0,0,0,0,0;
#CREDIT:kaystar vs. forcednature;
#NOTES:
0000
0000
0000
0000
,
0000
0000
0000
0000
,
0000
0000
0000
0000
,
0000
0000
0000
0000
,
0000
0000
0000
0000
,
1000
0100
0000
0001
0000
0100
1000
0000
,
0001
0010
0000
1000
0000
0010
0001
0000
,
1000
0010
0000
0001
0000
0010
1000
0000
,
0001
0000
0100
0000
0010
1000
0000
0000
0100
0000
0100
0000
0010
0000
0000
0000
,
0011
0000
0001
0000
1000
0000
0010
0100
0000
0100
0001
0000
1000
0000
0000
0000
,
0100
0000
0010
0000
0001
0000
1000
0010
0000
0010
0100
0000
0001
0000
1000
0000
,
0100
0000
0001
0000
0100
0000
0010
0001
0000
0001
1000
0000
0010
0000
0100
0000
,
0000
0000
1000
0000
0000
0100
0000
0000
0001
0000
0001
0000
1000
0000
1000
0000
,
0100
0000
1000
0000
0001
0000
0100
0010
0000
0010
1000
0000
0001
0000
0000
0000
,
0010
0000
0100
0000
1000
0000
0001
0100
0000
0100
0010
0000
1000
0000
0000
0000
,
2002
3003
0000
0100
0000
0000
2002
3003
0000
0000
1000
0000
0000
0000
0001
0000
,
0202
0303
0000
2020
3030
0000
0022
0033
0000
2200
3300
0000
1000
0001
1000
0002
,
2000
0000
0000
0000
,
3003
0000
0000
0000
0000
0000
0000
0000
1000
0000
0001
0100
0000
0010
0100
0010
,
2000
0100
3002
0010
0203
1000
0302
0010
,
1003
0000
0100
0001
0000
0100
1000
0000
0001
0000
0100
1000
0000
0100
0010
0100
,
0002
0010
2003
0100
3020
0001
2030
0100
,
3001
0000
0010
1000
0000
0010
0001
0000
1000
0000
0010
0001
0000
1000
0100
0000
,
0020
1000
0100
1030
,
2000
0100
0001
3100
,
0010
0000
0001
0100
0000
1000
0100
0000
,
0010
0000
0100
0000
0001
1000
0100
0020
,
0000
1000
0100
0031
,
0012
1003
2100
3001
,
1000
0000
0010
0001
0000
0010
1000
0000
,
0010
0100
0001
1000
0100
0010
0001
0000
,
2002
0000
0000
0000
,
0000
0000
0000
0000
,
0000
0000
0000
0000
,
3003
0000
0000
0000
0001
0001
1000
1000
,
1010
0000
0000
0000
1010
0000
0000
0010
0000
0100
0000
0000
0001
0000
0010
0001
,
0010
0000
0000
0000
0011
0000
0000
0010
0000
0100
1000
0000
0001
0000
0100
0000
,
0110
0000
0000
0000
0110
0000
0000
0010
0000
1000
0000
0000
0001
0000
0020
0000
,
0000
0000
0130
0000
1000
0000
0001
0100
0000
0010
1000
0000
0001
1000
0001
1000
,
0001
0000
0010
0000
0100
0000
0010
0001
0000
0001
0000
0001
0100
0000
0010
0000
,
1000
0000
0100
0000
0010
0000
0100
1000
0000
1000
0000
1000
0010
0000
0100
0000
,
0001
0000
1000
0000
0100
0000
0001
0100
0000
0010
0000
0010
0001
0000
0011
0000
,
0000
0000
0010
0000
0001
0100
0000
0010
1000
0000
0100
0000
0001
0000
0100
0000
,
1000
0000
0010
0000
0100
0000
0010
1000
0000
1000
0000
1000
0100
0000
0010
0001
,
0010
0000
0001
0000
0100
0000
0010
0100
0000
0001
0010
0000
0100
0000
0100
0000
,
1000
0000
0001
0000
0100
0000
1000
0100
0000
0020
0000
0000
1030
0000
1010
0000
,
0000
0001
0100
1000
0001
0010
1000
0100
,
0010
0000
0001
0000
1000
0000
0010
0100
0000
0001
0000
0100
0010
0000
1000
0000
,
0001
0000
1000
0000
0100
0000
0010
0001
0000
1000
0010
0000
0100
0000
0100
0000
,
0001
0000
1000
0000
0001
0000
0010
0100
0000
1000
0000
0100
0010
0000
0110
0000
,
0000
0000
0100
0000
1000
0010
0000
0100
0001
0000
0010
0000
0100
0000
1000
0000
,
0002
0000
0000
0000
0100
0000
0000
1000
0000
1003
0000
0000
0001
0000
0010
0100
,
2000
0000
0000
0000
0010
0000
0000
0001
3000
0001
0010
0000
0100
0000
1000
0000
,
0001
0000
0001
0000
0100
0000
0010
0100
0010
0000
1000
0000
1000
0000
0001
0000
,
0022
0033
0000
2200
3300
0000
2020
3030
0000
0202
0303
0000
0001
1000
0001
1000
,
0001
1000
0100
0010
0100
0001
0100
0010
,
0001
1000
0010
0000
0100
0000
0001
0000
0010
0000
0100
0000
2000
0000
0000
0000
,
3001
0000
0100
0010
0100
0000
1000
0000
0100
0010
0100
0000
0102
0000
0000
0000
,
1003
0000
0100
0010
0100
0000
0001
0000
0100
0010
0100
0000
2100
0000
0000
0000
,
3001
1000
0010
0100
0010
0001
0010
0100
,
0001
1000
0100
0000
0010
0000
0001
0000
0100
0000
0010
0000
2000
0000
0000
0000
,
3001
0000
0010
0100
0010
0000
1000
0000
0010
0100
0010
0000
0012
0000
0000
0000
,
1003
0000
0010
0100
0010
0000
0001
0000
1000
0100
0010
0000
2010
0000
0000
0000
,
3001
0000
1000
0100
0010
0000
0001
0000
0100
0000
1000
0000
0100
0000
0001
0000
,
1000
0100
0000
1000
0100
0000
0010
0001
0000
0010
0001
0000
2000
0000
0000
0000
,
3010
0001
0000
0010
1000
0000
0001
0100
0000
1000
0100
0000
0002
0000
0000
0000
,
0013
1000
0000
0010
0001
0000
1000
0100
0000
0001
0100
0000
1000
0000
2001
0000
,
0000
0000
3001
0100
0010
0000
1000
0000
0100
0000
0001
0000
0100
0000
1000
0000
,
0001
0100
0000
0010
1000
0000
0100
0010
0000
0001
1000
0000
0010
0100
0010
0100
,
0002
0000
0000
0000
0000
0000
0000
0000
0000
0000
0000
0000
0003
0000
1000
0100
,
0010
0200
0000
0301
0000
1000
0000
0010
0100
0020
0000
0031
0000
1000
0001
2000
,
0002
0000
0000
0000
,
0000
0000
0000
0000
,
0000
0000
0000
0000
,
3003
0000
0000
0000
;

//--------------- dance-double - kaystar vs. forcednature ----------------
#NOTEDATA:;
#STEPSTYPE:dance-double;
#DESCRIPTION:kaystar vs. forcednature;
#DIFFICULTY:Easy;
#METER:7;
#RADARVALUES:0,0,0,0,0;
#CREDIT:kaystar vs. forcednature;
#NOTES:
00000000
00000000
00000000
00000000
,
00000000
00000000
00000000
00000000
,
00000000
00000000
00000000
00000000
,
00000000
00000000
00000000
00000000
,
00000000
00000000
00000000
00000000
,
00010000
00001000
00000000
00001000
,
00100000
00001000
00000000
00001000
,
01000000
00001000
00000000
00001000
,
00010000
00000000
00100000
00000000
,
01100000
00000000
01000000
01000000
,
00010000
01000000
00100000
00000000
,
10000000
00100000
10000000
00000000
,
00010000
01000000
00001000
00000000
,
00011000
00000000
00010000
00000100
,
00001000
00001000
00000100
00000000
,
00000010
00000000
00000000
00000010
00000000
00000000
00000000
00000000
,
00000001
00000001
00000001
00000100
,
00000220
00000000
00000000
00000000
,
00000330
00000000
00000000
00000000
,
00000002
00000003
00002000
00003000
,
00000010
00000100
00000010
00000100
,
00000020
00000030
00002000
00003000
,
00000100
00010000
00001000
00010000
,
00022000
00000000
00000000
00000000
,
00000000
00000000
00033000
00000000
,
01000000
00010000
00000000
00020000
,
00000000
00030000
01000000
00100000
,
20000000
00000000
30000000
01000000
,
00100000
00000000
00000000
00010000
00000000
00000000
00100000
00000000
,
00001000
00001000
00010000
00000100
,
00001000
00001000
00000001
00000010
,
00000220
00000000
00000000
00000000
,
00000000
00000000
00000000
00000000
,
00000000
00000000
00000000
00000000
,
00000330
00000000
00000000
00000000
,
00001001
00000000
00000001
00000100
,
00001000
00000000
00000000
00000000
00000000
00010000
00000000
00000000
,
00011000
00000000
00010000
00100000
,
00000000
10000000
01000000
00100000
,
00010000
01000000
01000000
00001000
,
00010000
00000010
00000010
00001000
,
00000001
00000010
00000100
00000010
,
00000001
00001000
00000100
00000000
,
00001000
00000010
00010000
00010000
,
00001000
01000000
00010000
00010000
,
10000000
00100000
10000000
00010000
,
00100000
01000000
10000000
00000000
,
02000000
00000000
00100000
03100000
,
00200000
00000000
00001000
00301000
,
00002000
00000000
00010000
00013000
,
00010000
00000100
00001000
00000010
,
00000200
00000000
00000001
00000301
,
00000002
00000000
00000010
00000013
,
00000010
00000100
00001000
00000010
,
00010000
00000000
00000000
00010000
00000000
00000000
00001000
00000000
,
00200000
00000000
00310000
00100000
,
01000000
10000000
00100000
01000000
,
00001000
00000000
00010000
00001000
00000000
00001000
00010000
00000000
,
00001000
00000000
00010000
00001000
00000000
00001000
00010000
00000000
,
00000200
00000000
00001300
00000100
,
00001000
00000010
00000100
00000001
,
00000010
00000000
00000100
00000010
00000000
00000010
00000100
00000000
,
00001000
00000000
00000100
00000010
00000000
00000010
00000100
00000000
,
00001000
00001001
00000000
00000001
,
00000100
00001000
00010000
00100000
,
01000000
00000000
01000000
00100000
00000000
00100000
01000000
00000000
,
01000000
00000000
01000000
00100000
00000000
00100000
01000000
00000000
,
00000000
10010000
00000000
10000000
,
01000000
00010000
00001000
00010000
,
00022000
00000000
00000000
00033000
,
00001000
00000000
00010000
00000100
00000000
00010000
00001000
00000000
,
00022000
00000000
00000000
00000000
,
00000000
00000000
00000000
00000000
,
00000000
00000000
00000000
00000000
,
00033000
00000000
00000000
00000000
;

//--------------- dance-double - kaystar vs. forcednature ----------------
#NOTEDATA:;
#STEPSTYPE:dance-double;
#DESCRIPTION:kaystar vs. forcednature;
#DIFFICULTY:Medium;
#METER:11;
#RADARVALUES:0,0,0,0,0;
#CREDIT:kaystar vs. forcednature;
#NOTES:
00000000
00000000
00000000
00000000
,
00000000
00000000
00000000
00000000
,
00000000
00000000
00000000
00000000
,
00000000
00000000
00000000
00000000
,
00000000
00000000
00000000
00000000
,
00001000
00010000
00000000
00001000
00000000
00000000
00100000
00000000
,
00001000
00010000
00000000
00001000
00000000
00000000
01000000
00000000
,
00001000
00010000
00000000
00001000
00000000
00000000
00100000
00000000
,
00010000
00000000
01000000
00100000
01000000
00000000
00100000
00000000
,
10010000
10000000
01000000
00010000
,
00002000
00100000
00100000
00103000
,
00001000
00010000
00000000
00001000
00000000
00010000
00000100
00000000
,
00001000
00000100
00001000
00000010
,
00010000
00001000
00000000
00010000
00000000
00000000
00000100
00000000
,
00002000
00000010
00000010
00003010
,
00001000
00000000
00000000
00000001
00000000
00000000
00001000
00000000
00000000
00000000
00000010
00000000
00000000
00000000
00010000
00000000
,
00001000
00000000
00000000
00001000
00000000
00000000
00001000
00000000
00000000
00100000
00000000
00000000
00010000
00000000
00000000
00000000
,
20020000
00000000
00000000
00000000
,
30030000
00000000
00000000
00000000
,
20000000
30100000
20000000
30100000
,
01000000
00000000
00001000
00010000
00001000
00000000
00000000
00000000
01000000
00000000
00001000
00010000
00001000
00000000
00000000
00000000
,
00020000
00030100
00020000
00030100
,
00001000
00000000
00000001
00000010
00000001
00000000
00000000
00000000
00001000
00000000
00000001
00000010
00000001
00000000
00000000
00000000
,
00002001
00000000
00000001
00000000
,
00000100
00000000
00000100
00000000
,
00003001
00000010
00000100
00002000
,
00000000
00003010
00000010
00010000
,
00001000
00100000
00001000
00010000
,
00001000
01000000
00001000
00010000
,
00100000
00000000
00100000
01000000
00000000
01000000
00010000
00000000
,
10000000
00000000
01000000
00100000
00000000
00010000
01000000
00000000
,
00022000
00000000
00000000
00000000
,
00000000
00000000
00000000
00000000
,
00000000
00000000
00000000
00000000
,
00033000
00000000
00000000
00000000
,
00011000
00000100
00001000
00000010
,
00011000
00000000
01000000
00000000
00010000
00100000
00000000
00000000
,
20020000
00000000
00000000
00000000
00000000
00000000
00000000
30030000
,
00000000
10000000
00010000
00000000
00100000
00000000
00001000
00000000
,
00011000
00000000
00010000
00000100
00001000
00000100
00001000
00000000
,
00000010
00000000
00000100
00000001
00000010
00000001
00000010
00000000
,
00000100
00000000
00010000
00001000
00100000
00001000
00100000
00000000
,
00010000
01010000
10000000
11000000
,
00010000
00000000
00100000
00001000
00010000
00001000
00100000
00000000
,
00010000
00000000
01000000
00001000
00010000
00001000
01000000
00000000
,
00001000
00000000
00010000
00000100
00001000
00000100
00010000
00000000
,
00001000
00000010
00000001
00000100
,
00000020
00001000
00001030
00010000
,
00002000
01000000
01003000
00010000
,
00100000
00000000
01000000
00100000
01000000
00000000
10000000
00000000
,
00100000
00010000
00100000
10000000
,
02000000
00100000
03100000
00001000
,
00020000
00000100
00030100
00010000
,
00000010
00001000
00000010
00010000
00000010
00001000
00000010
00000000
,
00000100
00000000
00000000
00000100
00000000
00000000
00000100
00000000
00000000
00000001
00000000
00000000
00000010
00000000
00000000
00000000
,
00002001
00000001
00003010
00001000
,
00000010
00000000
00010000
00001000
00000000
00001000
00010000
00000000
,
00100000
00000000
01000000
00010000
10000000
00010000
01000000
00000000
,
00100000
00000000
01000000
00010000
10000000
00010000
01000000
00000000
,
00002000
00010000
00013000
00001000
,
00000010
00000000
00000001
00000010
00000000
00000010
00000001
00000000
,
00000100
00000000
00000010
00010000
00001000
00010000
00000100
00000000
,
00010000
00000000
00001000
00100000
00010000
00100000
01000000
00000000
,
01100000
20020000
30030000
00010000
,
01000000
00000000
00000000
01000000
00000000
00000000
00100000
00000000
00000000
10000000
00000000
00000000
00100000
00000000
00000000
00000000
,
01000000
00000000
00000000
00001000
00000000
00000000
00010000
00000000
00000000
00000010
00000000
00000000
00001000
00000000
00000000
00000000
,
00000100
00000000
00000000
00010000
00000000
00000000
00001000
00000000
00000000
00100000
00000000
00000000
00010000
00000000
00010000
00000000
,
00000000
00010000
20000000
00000000
31000000
00000000
00100000
00000000
,
01000000
00000000
00000000
00100000
00000000
00000000
01000000
00000000
00000000
00010000
00000000
00000000
00001000
00000000
00000000
00000000
,
00011000
00000000
00000000
00010000
00000000
00000000
00000100
00000000
00000000
00001000
00000000
00000000
00000010
00000000
00000000
00000000
,
00000100
00000000
00000000
00000001
00000000
00000000
00000010
00000000
00000000
00000100
00000000
00000000
00000110
00000000
00000000
00000000
,
00002002
00000000
00000000
00000000
,
00000000
00000000
00000000
00000000
,
00000000
00000000
00000000
00000000
,
00003003
00000000
00000000
00000000
;

//--------------- dance-double - kaystar vs. forcednature ----------------
#NOTEDATA:;
#STEPSTYPE:dance-double;
#DESCRIPTION:kaystar vs. forcednature;
#DIFFICULTY:Hard;
#METER:15;
#RADARVALUES:0,0,0,0,0;
#CREDIT:kaystar vs. forcednature;
#NOTES:
00000000
00000000
00000000
00000000
,
00000000
00000000
00000000
00000000
,
00000000
00000000
00000000
00000000
,
00000000
00000000
00000000
00000000
,
00000000
00000000
00000000
00000000
,
00010000
00001000
00000000
00002000
00000000
00003010
00000100
00000000
,
00001000
00000001
00000000
00000200
00000000
00000310
00010000
00000000
,
00001000
00010000
00000000
00020000
00000000
00130000
01000000
00000000
,
00010000
00000000
10000000
00000000
01000000
00100000
00000000
00000000
00010000
00000000
00010000
00000000
01000000
00000000
00000000
00000000
,
01100000
00000000
00100000
00000000
10000000
00000000
00010000
00100000
00000000
00100000
01000000
00000000
10000000
00000000
00000000
00000000
,
00100000
00000000
01000000
00000000
00010000
00000000
10000000
01000000
00000000
01000000
00100000
00000000
00010000
00000000
00000000
00000000
,
01000000
00000000
00001000
00000000
00010000
00000000
00000010
00001000
00000000
00001000
00000010
00000000
00010000
00000000
00002000
00000000
,
00000000
00000000
00003010
00000000
00000000
00000100
00000000
00000000
00001000
00000000
00001000
00000000
00000001
00000000
00000100
00000000
,
00000110
00000000
00000010
00000000
00001000
00000000
00000001
00000010
00000000
00000010
00000100
00000000
00001000
00000000
00000000
00000000
,
00000010
00000000
00000100
00000000
00000001
00000000
00001000
00000100
00000000
00000100
00000010
00000000
00000001
00000000
00000100
00000000
,
00002000
00000000
00000000
00013000
00000000
00000000
00021000
00000000
00000000
00000000
00031000
00000000
00000000
00000000
01000000
00000000
,
02020000
03030000
00000000
20200000
30300000
00000000
00220000
00330000
00000000
22000000
33000000
00000000
10000000
00010000
10000000
00020000
,
20000000
00000000
00000000
00000000
,
30030000
00000000
00000000
00000000
00000000
00000000
00000000
00000000
10000000
00000000
00010000
01000000
00000000
00100000
01000000
00100000
,
20000000
00010000
32000000
00010000
03200000
00010000
00302000
00010000
,
01003000
00000000
00001000
00010000
00000000
00100000
00010000
00000000
00001000
00000000
00010000
00001000
00000000
00000010
00000100
00000010
,
00000002
00001000
00000203
00001000
00000320
00001000
00020030
00001000
,
00030100
00000000
00000010
00000001
00000000
00000100
00001000
00000000
00010000
00000000
00100000
10000000
00000000
01000000
00010000
00000000
,
00012000
00100000
00010000
01003000
,
00021000
00000010
00001000
00030100
,
00010000
00000000
00001000
00010000
00000000
01000000
00100000
00000000
,
00001000
00000000
00010000
00000000
00001000
00000100
00000010
00000100
,
00000002
00000023
00000230
00010300
,
00021000
00030010
00012000
00103000
,
02000000
00000000
13000000
00200000
00000000
01300000
00020000
00000000
,
10030000
01000000
00100000
00001000
00010000
00000100
00001000
00000000
,
00002002
00000000
00000000
00000000
,
00000000
00000000
00000000
00000000
,
00000000
00000000
00000000
00000000
,
00003003
00000000
00000000
00000000
00001000
00001000
00000001
00000001
,
00000101
00000000
00000000
00000000
00000100
00000000
00000000
00000010
00000000
00001000
00000000
00000000
00000100
00000000
00010000
00001000
,
00010000
00000000
00000000
00000000
00011000
00000000
00000000
00001000
00000000
01000000
00100000
00000000
10000000
00000000
10000000
00000000
,
11000000
00000000
00000000
00000000
01000000
00000000
00000000
00100000
00000000
00010000
00000000
00000000
01000000
00000000
00002000
00000000
,
00000000
00000000
00013000
00000000
00000010
00000000
00001000
00000100
00000000
00000010
00000001
00000000
00001000
00000001
00001000
00000001
,
00001000
00000000
00000010
00000000
00000100
00000000
00000010
00001000
00000000
00001000
00000000
00001000
00000100
00000000
00000010
00000000
,
00000001
00000000
00000100
00000000
00000010
00000000
00000100
00000001
00000000
00000001
00000000
00000001
00000010
00000000
00000100
00000000
,
00010000
00000000
00001000
00000000
00010000
00000000
00000010
00000100
00000000
00000100
00000000
00000100
00001000
00000000
00011000
00000000
,
00000000
00000000
00010000
00000000
00100000
01000000
00000000
00100000
10000000
00000000
10000000
00000000
01000000
00000000
00100000
00000000
,
00010000
00000000
01000000
00000000
00100000
00000000
01000000
00010000
00000000
00010000
00000000
00010000
00100000
00000000
01000000
10000000
,
01000000
00000000
10000000
00000000
00100000
00000000
01000000
00100000
00000000
10000000
01000000
00000000
00100000
00000000
00100000
00000000
,
00001000
00000000
00010000
00000000
00001000
00000000
01000000
00100000
00000000
00200000
00000000
00000000
00310000
00000000
00011000
00000000
,
00000000
00001000
00000010
00000001
00001000
00000001
00000100
00001000
,
00020000
00000000
00000000
00000000
00031000
00000000
01000000
00010000
00000000
00010000
00000000
01000000
00100000
00000000
10000000
00000000
,
02000000
00000000
00000000
00000000
03100000
00000000
00010000
00100000
00000000
00001000
00010000
00000000
00000100
00000000
00010000
00000000
,
00002000
00000000
00000000
00000000
00013000
00000000
00000010
00001000
00000000
00001000
00000000
00000010
00000100
00000000
00000001
00000000
,
00000000
00000000
00000001
00000000
00000010
00000100
00000000
00000010
00000001
00000000
00000001
00000000
00000100
00000000
00001000
00000000
,
00020000
00000000
00000000
00000000
00000010
00000000
00000000
00001000
00000000
00001000
00000000
00000000
00030100
00000000
00010000
00002000
,
00010000
00000000
00000000
00000000
00100000
00000000
00000000
00010000
00003000
00010000
00001000
00000000
01000000
00000000
00100000
00000000
,
10000000
00000000
10000000
00000000
01000000
00000000
00100000
01000000
00100000
00000000
00010000
00000000
00010000
00000000
10000000
00000000
,
20200000
30300000
00000000
02020000
03030000
00000000
00220000
00330000
00000000
22000000
33000000
00000000
10000000
00010000
10000000
00010000
,
10000000
00100000
00010000
00001000
00010000
01000000
00100000
00001000
,
00010000
00001000
00010000
00000000
00000010
00000000
00001000
00000000
00000010
00000000
00000100
00000000
00000002
00000000
00000000
00000000
,
00001003
00000000
00000100
00000010
00000100
00000000
00000001
00000000
00000100
00000010
00000100
00000000
00002100
00000000
00000000
00000000
,
00003001
00000000
00000100
00000010
00000100
00000000
00001000
00000000
00010000
00000000
00000010
00000000
00002010
00000000
00000000
00000000
,
00003001
00000100
00001000
00010000
00001000
00000010
00000100
00010000
,
00001000
00010000
00001000
00000000
01000000
00000000
00010000
00000000
01000000
00000000
00100000
00000000
20000000
00000000
00000000
00000000
,
30010000
00000000
00100000
01000000
00100000
00000000
10000000
00000000
00100000
01000000
00100000
00000000
00120000
00000000
00000000
00000000
,
10030000
00000000
00100000
01000000
00100000
00000000
00010000
00000000
00001000
00000000
00100000
00000000
00102000
00000000
00000000
00000000
,
00013000
00000000
00000010
00001000
00000010
00000000
00010000
00000000
00001000
00000000
00000010
00000000
00000100
00000000
00001000
00000000
,
00000001
00000100
00000000
00000010
00001000
00000000
00000010
00010000
00000000
00001000
00010000
00000000
00002000
00000000
00000000
00000000
,
00013000
00000010
00000000
00000100
00001000
00000000
00010000
00100000
00000000
01000000
00001000
00000000
00021000
00000000
00000000
00000000
,
00031000
00100000
00000000
01000000
00010000
00000000
00001000
00000010
00000000
00000100
00010000
00000000
00001000
00000000
00012000
00000000
,
00000000
00000000
01003000
00010000
01000000
00000000
00001000
00000000
00010000
00000000
01000000
00000000
00100000
00000000
00010000
00000000
,
10000000
00100000
00000000
01000000
00010000
00000000
01000000
00001000
00000000
00010000
00001000
00000000
00100000
00000000
00001000
00010000
,
00000200
00000000
00000000
00000000
00000000
00000000
00000000
00000000
00000000
00000000
00000000
00000000
00000000
00000000
00001300
00000001
,
00001000
00000001
00000000
00000100
00000000
00001000
00000000
00010000
00001000
00010000
00000000
01000000
00000000
10000000
00010000
20000000
,
00020000
00000000
00000000
00000000
,
00000000
00000000
00000000
00000000
,
00000000
00000000
00000000
00000000
,
30030000
00000000
00000000
00000000
;
