#VERSION:0.83;
#TITLE:The Legend;
#SUBTITLE:;
#ARTIST:Ritter;
#TITLETRANSLIT:;
#SUBTITLETRANSLIT:;
#ARTISTTRANSLIT:;
#GENRE:;
#CREDIT:;
#MUSIC:The Legend.ogg;
#BANNER:The Legend.png;
#BACKGROUND:The Legend-bg.png;
#CDTITLE:;
#SAMPLESTART:72.092;
#SAMPLELENGTH:15.000;
#SELECTABLE:YES;
#OFFSET:2.150;
#BPMS:0.000=100.000
,41.000=220.000
;
#STOPS:;
#SPEEDS:0.000=1.000=0.000=0;
#SCROLLS:0.000=1.000;
#TICKCOUNTS:0.000=4;
#TIMESIGNATURES:0.000=4=4,
36.000=5=4,
41.000=4=4,
221.000=2=4,
223.000=4=4
;
#LABELS:0.000=Song Start;
#COMBOS:0.000=1;
#ORIGIN:;
#PREVIEWVID:;
#JACKET:The Legend-jacket.png;
#CDIMAGE:;
#DISCIMAGE:;
#BGCHANGES:2.500=The Legend.mp4=1.000=0=0=1,
99999.000=-nosongbg-=1.000=0=0=0=StretchNoLoop====
;
#FGCHANGES:;

//--------------- dance-single - Ben Speirs + forcednature ----------------
#NOTEDATA:;
#STEPSTYPE:dance-single;
#DESCRIPTION:Ben Speirs + forcednature;
#DIFFICULTY:Beginner;
#METER:5;
#RADARVALUES:0.195238,0.315833,0.083333,0.225,0,164,154,10,27,0,0,0,0,0,0.195238,0.315833,0.083333,0.225,0,164,154,10,27,0,0,0,0,0;
#CHARTNAME:;
#CHARTSTYLE:;
#CREDIT:Ben Speirs + forcednature;
#NOTES:
0000
0000
0000
0000
,
0000
0000
0000
0000
,
0000
0000
0000
0000
,
0000
0000
0000
0000
,
0000
0000
0000
0000
,
1000
0000
0100
0000
,
0020
0000
0000
0000
,
0000
0000
0000
0000
,
0000
0000
0000
0000
,
0000
0000
0000
0000
,
0000
0030
0001
0001
,
0000
0000
1000
1000
,
0000
0000
0010
0010
,
0000
1000
0000
0001
,
0000
0000
0000
0000
,
0000
0000
0001
1000
,
0000
0000
1000
0001
,
0000
0000
0010
0100
,
0000
0000
0100
0010
,
0000
0000
0100
0100
,
0000
0200
0000
0000
,
0300
0000
1000
1000
,
0000
2000
0000
3000
,
0000
0001
0000
0000
,
0000
0020
0000
0030
,
0000
0001
0000
0000
,
0000
2000
0000
3000
,
0000
0200
0000
0300
,
0000
1000
0000
0000
,
0000
0002
0000
0003
,
0000
0020
0000
0000
,
0030
0000
0001
1000
,
0000
0001
0000
0100
,
0000
0000
0001
1000
,
0000
0001
0000
0010
,
0000
0000
0100
0010
,
0000
0200
0000
0000
,
0300
0000
0010
0100
,
0000
0010
0000
0001
,
0000
2002
0000
3003
,
0000
0000
0000
0001
,
0000
0000
0000
1000
,
0000
0010
0000
0010
,
0000
0000
0100
0001
,
0000
0000
0001
1000
,
0000
0000
0100
1000
,
0000
0000
1000
0001
,
0000
2002
0000
0000
,
3003
0000
0000
1000
,
0000
2002
0000
0000
,
3003
0000
0000
0010
,
0000
0220
0000
0000
,
0330
0000
0000
0001
,
0000
0100
0000
0100
,
0000
0010
0000
2002
,
0000
3003
0000
0001
,
0000
0001
0000
0100
,
0000
0010
0000
1000
,
0000
0100
0000
0020
,
0000
0030
0000
0001
,
0000
0001
0000
1000
,
0000
0010
0000
0200
,
0000
0300
0000
0001
,
0000
1000
0000
0001
,
0000
0001
0000
0000
0000
0000
0010
0000
,
0000
0010
0000
0000
0000
0000
0100
0000
,
0000
0100
0000
0000
0000
0000
1000
0000
,
0000
1000
0000
0000
0000
0000
0010
0000
,
0000
0100
0000
0001
,
0000
1000
0000
0020
,
0000
0030
0000
0100
,
0000
0010
0000
2002
,
0000
0000
0000
0000
,
0000
0000
3003
0000
,
0000
0000
0000
1000
,
0000
0001
0000
0000
,
1000
0001
1000
0002
,
0000
0000
0003
0000
,
0001
1000
0001
2000
,
0000
0000
3000
0000
,
0100
0010
0100
0020
,
0000
0000
0030
0100
,
0000
0100
0000
0010
,
0000
0001
0000
0000
,
1000
0001
0000
0000
,
0001
1000
0000
0000
,
0010
0100
0000
1001
,
0000
1000
0000
0110
,
0000
0010
0000
1001
,
0000
0001
0000
0110
,
0000
0100
0010
0100
,
0000
1001
0000
0010
,
0000
0110
0000
0000
,
2002
0000
0000
0000
,
0000
0000
0000
3003
;

//--------------- dance-single - Ben Speirs + forcednature ----------------
#NOTEDATA:;
#STEPSTYPE:dance-single;
#DESCRIPTION:Ben Speirs + forcednature;
#DIFFICULTY:Easy;
#METER:9;
#RADARVALUES:0.345238,0.552708,0.2,0.325,0,290,266,24,39,0,0,0,0,0,0.345238,0.552708,0.2,0.325,0,290,266,24,39,0,0,0,0,0;
#CHARTNAME:;
#CHARTSTYLE:;
#CREDIT:Ben Speirs + forcednature;
#NOTES:
0000
0000
0000
0000
,
0000
0000
0000
0000
,
0000
0000
0000
0000
,
0000
0000
0000
0000
,
0000
0000
0000
0000
,
2000
0000
3020
0230
,
0302
0000
0000
0000
2000
0000
0000
3000
,
0000
0000
0000
0000
2000
0000
0000
3000
,
0000
0000
0000
0000
2000
0000
0000
3000
,
0000
0000
0000
0000
2000
0000
0000
3000
,
0000
0003
1000
1000
,
0000
0000
0100
0100
,
0000
0000
0010
0010
,
0000
0001
1000
0010
,
0100
0001
1000
0100
,
0110
0000
0001
0001
,
0100
0010
1000
1000
,
0000
0000
1000
1000
,
0100
0010
0001
0001
,
0000
1000
0001
0100
,
0010
2000
0000
0000
,
3000
1000
0010
0100
,
0001
0020
0000
0000
,
0030
0001
0100
0001
,
0100
0020
0000
2030
,
0000
3001
0010
0001
,
0010
0200
0000
2300
,
0000
3020
0000
0000
,
1030
0100
0010
0001
,
1000
0020
0000
0000
,
0000
0130
0001
1000
,
1001
0000
0001
0100
,
1000
0200
0000
0302
,
0000
0003
1000
0100
,
0001
0200
0000
2300
,
0000
3001
1000
0010
,
0100
0020
0000
0130
,
0000
0100
0001
0010
,
0100
2000
0000
3002
,
0000
0103
0110
0110
,
0000
0010
0110
0110
,
0000
1000
1001
1001
,
0000
0001
0010
0100
,
1000
0001
0100
0100
,
0010
1000
0100
0100
,
0000
1000
0010
0010
,
0100
0001
0010
0010
,
0000
0001
0010
0100
,
0010
0100
1000
1000
,
0001
0001
0100
0010
,
0100
0010
1000
1000
,
0001
0001
0010
0100
,
0010
0100
1000
1000
,
0001
2002
3003
0220
,
0330
2002
3003
0220
,
0330
0000
0000
1001
,
0001
1000
0010
0100
,
0001
0010
0100
1000
,
0001
0100
0010
1000
,
1000
0200
0300
1000
,
0010
0100
0001
1000
,
0100
0010
0001
0200
,
0300
0000
0001
1000
,
0001
0200
0300
0001
,
0000
1000
0000
0000
0100
0000
0010
0000
,
0000
0001
0000
0000
1000
0000
1001
0000
,
0000
1001
0000
0000
1001
0000
0110
0000
,
0000
0110
0000
0000
0110
0000
1001
0000
,
1000
0100
0010
0001
,
1000
0010
0100
0020
,
0000
0030
1000
0001
,
0010
0200
0000
1300
,
1000
0100
0100
0010
,
0010
0001
0001
1000
,
1000
0001
0001
0100
,
0100
0010
1000
0002
,
0000
0000
0003
1001
,
0000
1001
0000
0000
0000
0000
0001
0000
,
0100
0010
1000
0100
,
0000
0100
0000
0000
0000
0000
0100
0000
,
1000
0010
0100
0010
,
0000
0010
0000
0000
0000
0000
1000
0000
,
0000
1000
0000
0000
1000
0000
0001
0000
,
0000
0001
0000
0000
0001
0000
0000
0000
,
0010
0010
0001
1000
,
0010
0010
0000
0000
,
1000
1000
0000
1001
,
0000
1000
0100
0000
0000
1000
0100
0000
,
0000
1000
0100
0000
0000
0010
0001
0000
,
0000
0010
0001
0000
0000
0010
0001
0000
,
0000
0010
0001
0000
1000
0000
0001
0000
,
0000
1000
0010
0000
1000
0000
1000
0000
,
0000
0001
0010
0000
0001
0000
0000
0000
,
2002
0000
0000
0000
,
0000
0000
0000
3003
;

//--------------- dance-single - Ben Speirs + forcednature ----------------
#NOTEDATA:;
#STEPSTYPE:dance-single;
#DESCRIPTION:Ben Speirs + forcednature;
#DIFFICULTY:Medium;
#METER:11;
#RADARVALUES:0.5,0.552708,0.491667,0.7,0,420,361,59,84,0,0,0,0,0,0.5,0.552708,0.491667,0.7,0,420,361,59,84,0,0,0,0,0;
#CHARTNAME:;
#CHARTSTYLE:;
#CREDIT:Ben Speirs + forcednature;
#NOTES:
0000
0000
0000
0000
,
0000
0000
0000
0000
,
0000
0000
0000
0000
,
0000
0000
0000
0000
,
0000
0000
0000
0000
0000
0000
0000
1000
,
0002
0000
0000
0013
0020
0000
0230
0000
,
2300
0000
0000
0000
0002
0000
0000
0003
,
0000
0000
0000
0000
0002
0000
0000
0003
,
0000
0000
0000
0000
0002
0000
0000
0003
,
0000
0000
0000
0000
0002
0000
0000
0003
,
0000
3000
0010
1010
,
0000
0000
0100
0101
,
0000
0000
0010
1001
,
0000
0000
0001
0000
0100
0000
0010
0100
,
0010
0000
0000
1000
0001
0000
0001
0000
,
0001
0000
0010
0021
,
0031
1000
0010
2020
,
3030
0000
0100
2100
,
3100
0010
0001
0022
,
0033
1000
0001
0100
,
0010
2000
0010
0010
,
3000
1000
0100
0010
,
0001
0200
0010
0310
,
0100
0001
2000
3200
,
0320
0000
0032
0000
0000
0013
0200
0000
,
0000
0300
2000
3020
,
0230
0000
0302
0000
0000
0103
0020
0000
,
0000
1030
0001
0000
0002
0000
0000
0013
,
0100
2000
3020
0230
,
0302
2003
0100
0000
,
3100
0000
1000
0001
0000
0001
1000
0000
,
1000
0001
0000
0000
1000
0000
1100
0000
,
0001
1002
0100
0200
,
0000
0303
0000
0000
0001
0000
0011
0000
,
1000
2002
0013
0020
,
0000
3030
0000
0000
1000
0100
0010
0000
,
0001
2000
0100
0002
,
0000
3003
0000
0000
0001
0100
0010
0000
,
1000
2020
3030
0202
,
0303
1001
0100
0220
,
0330
0000
0001
1000
0100
0000
2002
0000
,
3003
0000
1000
0001
0100
0000
2002
0000
,
3003
0000
0001
0010
0100
0000
1000
0100
,
0010
0001
0101
0120
,
0130
0010
1010
2002
,
3003
1000
1100
0210
,
0310
0001
0011
2002
,
3003
0001
2000
3200
,
0320
0032
0103
0010
,
0100
1001
0002
0023
,
0230
2300
3010
0100
,
0010
1001
0002
2003
,
3200
0320
0031
1000
,
0001
0202
0303
2020
,
3030
0220
0330
2002
,
3003
0000
0000
1001
,
1000
0100
0000
0100
0010
0000
0001
0000
,
1000
0010
0000
0010
0100
0000
0001
0000
,
1000
0100
0000
0010
0001
0000
2001
0000
,
0010
0020
3030
1000
,
0001
0100
0000
0100
0010
0000
1000
0000
,
0001
0010
0000
0010
0100
0000
2000
0000
,
3001
1000
0010
0220
,
0330
2002
3003
0001
,
1000
0010
0000
0010
0100
0000
0001
0000
,
1000
0100
0000
0100
0010
0000
0001
0000
,
1000
0010
0000
0100
0001
0000
0010
0000
,
0100
0010
0000
0001
1000
0000
0010
0000
,
1000
0100
1000
0000
0001
0000
0100
0000
,
0010
0100
0010
0000
1000
0000
0200
0000
,
0000
0000
0310
0000
0001
1000
0002
0000
,
0100
2003
3001
1001
,
0001
0100
0001
0000
0100
0010
0100
0000
,
0010
1000
0010
0000
0100
0000
0001
0000
,
1000
0100
1000
0000
0100
0010
0200
0000
,
2300
3020
0130
1001
,
0001
0100
0010
1010
,
0000
0102
0000
0000
0013
0000
1001
0000
,
1000
0100
0010
0011
,
0000
2100
0000
0000
3010
0000
1001
0000
,
0001
0100
0010
0110
,
0000
1001
0000
0001
1000
0000
1100
0000
,
0000
0101
0000
0001
1000
0000
0001
0100
,
0000
0100
0000
0010
1000
0000
0001
0000
,
0010
0011
0000
1000
,
0010
1010
0000
0001
,
0100
0101
0000
2000
,
3001
0010
0001
0000
1000
0010
1000
0000
,
0001
0100
0001
0000
1000
0100
0010
0000
,
0001
0010
0100
0000
1000
0001
0100
0000
,
0001
1000
0010
0000
0110
0000
1000
0000
,
0001
0010
0100
0000
0110
0000
0001
0000
,
1000
0010
0100
0000
0110
0000
0010
0000
,
2002
0000
0000
0000
,
0000
0000
0000
3003
;

//--------------- dance-single - Ben Speirs + forcednature ----------------
#NOTEDATA:;
#STEPSTYPE:dance-single;
#DESCRIPTION:Ben Speirs + forcednature;
#DIFFICULTY:Hard;
#METER:14;
#RADARVALUES:0.633333,0.710625,0.516667,0.658333,0.075,532,470,62,79,0,0,0,0,0,0.633333,0.710625,0.516667,0.658333,0.075,532,470,62,79,0,0,0,0,0;
#CHARTNAME:Ben Speirs + forcednature;
#CHARTSTYLE:;
#CREDIT:Ben Speirs + forcednature;
#NOTES:
0000
0000
0000
0000
,
0000
0000
0000
0000
,
0000
0000
0000
0000
,
0000
0000
0000
0000
,
0000
0000
0000
0000
0000
0000
0000
1000
,
0002
0000
0000
0103
0001
0010
0100
1000
,
0200
0000
0000
0000
0020
0000
0000
0030
,
0000
0000
0000
0000
0020
0000
0000
0030
,
0000
0000
0000
0000
0020
0000
0000
0030
,
0000
0000
0000
0000
0020
0000
0000
0030
,
0000
0300
1100
0102
,
1003
0000
0101
2100
,
3001
0000
1010
0012
,
1003
0000
0001
0010
0100
1000
0001
0100
,
0010
1000
0000
0010
0010
0000
0010
0000
,
0010
1000
0001
0000
0101
0000
1020
0000
,
1030
0100
0110
0021
,
0130
1000
1010
0012
,
0103
0010
1010
1200
,
0310
0000
1001
0000
1000
0100
0010
0100
,
1000
0100
0020
0000
0001
0000
0100
0000
,
0031
0000
1001
0000
0001
0100
0010
0100
,
0001
0100
0010
1000
0000
0001
0001
0000
,
1000
0100
1100
0000
0002
0000
2003
0000
,
3200
0000
0320
0000
0000
0031
2000
0000
,
0000
3000
0020
0000
0230
0000
0302
0000
,
2003
0000
3020
0000
0000
0130
0002
0000
,
0003
1000
0100
0000
0200
0000
0310
0100
,
1000
0100
0002
0000
0203
0000
2300
0000
,
3002
0203
0001
0010
,
0301
0000
0100
0010
1000
0100
0010
0100
,
0010
0001
0100
0000
0110
0000
1010
0000
,
1000
0000
0001
0010
0100
1000
0001
0100
,
1000
0100
0110
0101
,
0001
0000
1000
0100
0010
0001
1000
0100
,
0001
0100
1100
1010
,
0110
0000
0001
0100
0010
1000
0001
0010
,
1000
0010
0011
0101
,
0110
0000
0010
1000
0010
1000
0100
1000
,
0001
0010
0000
0100
0100
0000
0010
0000
,
0110
0000
0100
1000
0010
0000
0110
0000
,
0001
0000
0100
0001
0010
0000
0110
0000
,
1000
0000
0001
0010
0100
1000
0001
0100
,
0010
1000
0001
0000
0101
0000
2100
0000
,
3010
1000
1100
0102
,
0013
0001
0011
2010
,
3100
1000
1010
0012
,
0103
0110
2000
3200
,
0320
0000
0032
0000
0013
0100
1000
0100
,
0001
0100
1000
0000
0002
0000
0203
0000
,
0320
0000
2030
0000
3010
0100
0001
0100
,
1000
0100
0001
0000
0020
0000
0230
0000
,
2300
0000
3002
0000
0013
1000
0010
0001
,
0010
0100
0010
0000
0100
0000
1001
0000
,
0100
0110
0010
2002
,
3003
0000
0001
1000
0001
1000
0002
0000
,
0103
1000
0100
0010
1000
0001
0020
0000
,
1030
0010
0100
0010
0001
1000
0020
0000
,
0130
0001
0010
0100
1000
0001
0200
0000
,
0310
2002
3003
2000
,
3100
0001
0100
0010
0001
1000
0020
0000
,
0031
0010
0100
0010
1000
0001
0020
0000
,
0130
1000
0010
0100
0001
0000
2002
0000
,
3003
0000
1000
0001
1000
0001
0200
0000
,
1300
0100
0001
0100
0010
1000
0002
0000
,
0013
0100
0001
0100
1000
0001
0020
0000
,
1000
2030
0000
0010
3020
0000
0032
0000
,
0100
0203
0000
1000
2300
0000
3200
0000
,
0301
1000
0010
0100
1000
0100
0002
0000
,
0013
1000
0010
0001
1000
0100
0020
0000
,
0001
0130
1000
2002
,
3003
0000
0001
1000
0001
1000
0001
0100
,
0010
0100
1000
0100
0010
0100
0001
0010
,
0100
0010
1000
0010
0100
0010
0001
0100
,
0010
0100
1000
0100
0010
0100
0001
0010
,
1000
0001
0100
1000
0001
1000
0020
0000
,
0130
0001
1000
1010
,
0001
0011
0000
1000
0001
0000
1001
0000
,
1000
0100
0010
0011
,
1000
1010
0000
0001
1000
0000
1001
0000
,
0001
0010
0100
1100
,
0001
0101
0000
1000
0010
0000
0100
0010
,
0000
1001
0000
0001
0010
0000
0001
0100
,
0100
0001
1000
0010
0100
0000
1001
0000
,
0002
0100
1003
0001
,
0020
0100
0031
1000
,
0200
0010
1300
2001
,
3001
0010
0001
0020
0000
0000
0130
1000
0100
2000
0000
0000
,
3001
0100
0001
0200
0000
0000
0310
1000
0010
2000
0000
0000
,
3001
0010
0100
0020
0000
0000
0031
1000
0100
2000
0000
0000
,
3010
0100
0001
1000
0000
0000
1100
0000
0000
0011
0000
0000
,
0010
0100
1000
0001
0000
0000
0101
0000
0000
1010
0000
0000
,
0010
0100
0001
1000
0000
0000
1100
0000
0000
0100
0010
0001
,
0200
0000
0000
0000
,
0000
0000
0000
0300
;

//--------------- dance-double - Ben Speirs + forcednature ----------------
#NOTEDATA:;
#STEPSTYPE:dance-double;
#DESCRIPTION:Ben Speirs + forcednature;
#DIFFICULTY:Easy;
#METER:9;
#RADARVALUES:0.328571,0.47375,0.225,0.441667,0,276,249,27,53,0,0,0,0,0,0.328571,0.47375,0.225,0.441667,0,276,249,27,53,0,0,0,0,0;
#CHARTNAME:;
#CHARTSTYLE:;
#CREDIT:Ben Speirs + forcednature;
#NOTES:
00000000
00000000
00000000
00000000
,
00000000
00000000
00000000
00000000
,
00000000
00000000
00000000
00000000
,
00000000
00000000
00000000
00000000
,
00000000
00000000
00000000
00000000
,
00002000
00000000
00203000
00320000
,
02030000
00000000
00000000
00000000
00200000
00000000
00000000
00300000
,
00000000
00000000
00000000
00000000
00200000
00000000
00000000
00300000
,
00000000
00000000
00000000
00000000
00200000
00000000
00000000
00300000
,
00000000
00000000
00000000
00000000
00200000
00000000
00000000
00300000
,
00000000
03000000
00010000
10000000
,
00000000
00000000
10000000
01000000
,
00000000
00000000
01000000
00100000
,
00000000
00010000
01000000
00001000
,
00010000
00000100
00001000
00000010
,
00000010
00000000
00001000
00001000
,
00000100
00010000
00001000
00001000
,
00000000
00000000
00100000
00100000
,
00010000
01000000
00001000
00001000
,
00000000
00010000
00001000
00010000
,
00001000
00200000
00000000
00000000
,
00300000
00001000
00010000
00001000
,
00010000
00000020
00000000
00000000
,
00000030
00001001
00000001
00000100
,
00000010
00020000
00030000
00002000
,
00003000
00100000
00010000
01000000
,
00001000
00002000
00003000
00010000
,
00000010
00000200
00000000
00000300
,
00000001
00000010
00000100
00010000
,
00001000
02000000
00000000
00000000
,
03000000
00100000
00100000
10000000
,
00010000
00000000
10000000
01000000
,
00010000
00002000
00003000
00020000
,
00030000
00000000
00000001
00000100
,
00001000
00020000
00030000
00002000
,
00003000
00000000
00100000
00100000
,
00001000
00001000
00000000
00010000
,
00000000
00000010
00000100
00000100
,
00000010
00020000
00030000
00002000
,
00003000
00011000
00100000
00100000
,
00010000
10000000
00100000
00100000
,
00000000
10000000
00010000
00010000
,
01000000
00001000
00010000
00000100
,
00000010
00000000
00000110
00000110
,
00000000
00000000
00001001
00001001
,
00000000
00000000
00001000
00001000
,
00000100
00010000
00001000
00001000
,
00000000
00200000
00000000
00000000
,
00300000
00010000
10000000
00100000
,
01000000
00002000
00000000
00000000
,
00003000
00010000
00000100
00000010
,
00000001
00000200
00000000
00000000
,
00000300
00000010
00001000
00000100
,
00010000
00011000
00000000
10010000
,
00000000
00011000
00000000
00002002
,
00000000
00003003
00000000
00000001
,
00000100
00000010
00001000
00000100
,
00010000
00001000
00100000
00010000
,
01000000
00100000
10000000
00020000
,
00000000
20030000
00000000
31000000
,
00100000
00010000
10000000
00100000
,
01000000
00010000
00100000
00002000
,
00000000
00003000
00010000
00000020
,
00000030
00000220
00000330
00001001
,
00000000
00000001
00000000
00000000
00001000
00000000
00000100
00000000
,
00000000
00000100
00000000
00000000
00010000
00000000
00001000
00000000
,
00000000
00001000
00000000
00000000
01000000
00000000
00100000
00000000
,
00000000
00100000
00000000
00000000
10000000
00000000
00010000
00000000
,
00000000
00010000
00000000
00000000
00100000
00000000
00001000
00000000
,
00000000
00001000
00000000
00000000
00010000
00000000
00000020
00000000
,
00000000
00000130
00000001
00002000
,
00003000
00000200
00000300
00022000
,
00000000
00000000
00033000
00001000
,
01000000
00100000
10000000
01000000
,
01000000
00100000
00100000
00010000
,
10000000
00100000
01000000
00010000
,
10000000
01000000
00100000
00001000
,
00000000
00011000
00000000
00000000
00000000
00000000
00010000
00000000
,
00000010
00000100
00000001
00001000
,
00000000
00001001
00000000
00000000
00000000
00000000
00000001
00000000
,
00000010
00000100
00010000
00001000
,
00000000
00011000
00000000
00000000
00000000
00000000
00001000
00000000
,
00100000
00010000
01000000
00100000
,
00100000
10000000
00010000
00000000
,
10000000
10000000
01000000
00100000
,
00001000
00001000
00010000
00000010
,
00000100
00000100
00000001
00002002
,
00003003
00000220
00000330
00002002
,
00003003
00001000
00000100
00020000
,
00030000
00022000
00033000
00022000
,
00033000
00001000
01000000
02200000
,
03300000
10010000
10010000
00200000
,
00300000
01100000
01100000
00000000
,
20020000
00000000
00000000
00000000
,
00000000
00000000
00000000
30030000
;

//--------------- dance-double - Ben Speirs + forcednature ----------------
#NOTEDATA:;
#STEPSTYPE:dance-double;
#DESCRIPTION:Ben Speirs + forcednature;
#DIFFICULTY:Medium;
#METER:12;
#RADARVALUES:0.513095,0.631667,0.475,0.9,0,431,374,57,108,0,0,0,0,0,0.513095,0.631667,0.475,0.9,0,431,374,57,108,0,0,0,0,0;
#CHARTNAME:;
#CHARTSTYLE:;
#CREDIT:Ben Speirs + forcednature;
#NOTES:
00000000
00000000
00000000
00000000
,
00000000
00000000
00000000
00000000
,
00000000
00000000
00000000
00000000
,
00000000
00000000
00000000
00000000
,
00000000
00000000
00000000
00000000
00000000
00000000
00000000
00001000
,
00020000
00000000
00000000
00030020
00000230
00000000
00000302
00000000
,
00002003
00000000
00000000
00000000
00000200
00000000
00000000
00000300
,
00000000
00000000
00000000
00000000
00000200
00000000
00000000
00000300
,
00000000
00000000
00000000
00000000
00000200
00000000
00000000
00000300
,
00000000
00000000
00000000
00000000
00000200
00000000
00000000
00000300
,
00000000
00003000
00000001
00000101
,
00000000
00000000
00001000
00001100
,
00000000
00000000
00010000
00011000
,
00000000
00000000
00001000
00100000
00001000
00000000
00100000
00010000
,
00100000
00000000
00000000
00010000
10000000
00000000
00010000
00000000
,
00010000
00000000
00100000
00002000
,
00013000
00000100
00001000
00002200
,
00003300
00000001
00000100
00000201
,
00000310
00001000
00000100
00020200
,
00030300
00000000
00012000
00000000
00103000
00010000
00100000
00000000
,
00010000
02000000
00100000
03100000
,
10000000
00000000
00010000
00000000
00100000
00001000
00100000
00000000
,
00001000
00000000
00010000
00000010
00000000
00000010
00000100
00000000
,
00000001
00001000
00000002
00000000
00000203
00000000
00002300
00000000
,
00023000
00000000
00230000
00000000
00000000
10300000
00020000
00000000
,
00000000
20030000
32000000
03020000
,
00032000
00000000
00003020
00000000
00000000
00000031
00002000
00000000
,
00003001
00000100
00000010
00000000
00000020
00000000
00000000
00001030
,
00000100
00020000
00032000
02003000
,
03020000
00230000
00000000
01000000
,
01300000
00000000
00100000
00010000
00100000
00000000
01000000
00000000
,
00100000
00010000
00000000
00000000
10000000
00000000
00100000
00000000
,
00010000
00012000
00013000
00020200
,
00030300
00001100
00000001
00000100
,
00001000
00021000
00031000
02002000
,
03003000
00000000
10010000
00000000
10000000
01000000
00100000
00000000
,
00010000
00000000
01000000
00001000
01000000
00000000
00001000
00010000
,
00001000
00000000
00010000
00000000
00000100
00000010
00000001
00000000
,
00001000
00002020
00003030
00000202
,
00000303
00000000
00001000
00000001
00001000
00000000
00001100
00000000
,
00000100
00000000
00010000
00001000
00010000
00000000
00011000
00000000
,
00001000
00000000
01000000
00010000
01000000
00000000
01010000
00000000
,
10000000
00000000
00010000
00100000
00010000
00100000
01000000
10000000
,
00100000
00000000
10010000
00000000
10000000
00100000
02000000
00000000
,
03010000
00000000
00100000
00000000
00001000
00010000
00000020
00000000
,
00000130
00000000
00000001
00000000
00001000
00000100
00000020
00000000
,
00000031
00000000
00001000
00000000
00000010
00010000
00002000
00000000
,
00013000
00011000
00200000
01000000
,
01000000
00000000
01300000
00000000
00100000
00001000
00020000
00000000
,
00031000
00011000
00000020
00000100
,
00000100
00000000
00000130
00000000
00000010
00010000
00002000
00000000
,
00013000
00101000
00200000
00320000
,
02030000
00000000
03200000
00000000
10300000
00010000
10000000
00000000
,
01000000
22000000
33000000
00220000
,
00330000
00002200
00003300
00000022
,
00000033
00000000
00000000
00000001
,
00001000
00000010
00000000
00000010
00000200
00000000
00000302
00000000
,
00001003
00000100
00000000
00000100
00020000
00000000
00032000
00000000
,
01003000
00100000
00000000
10000000
00010000
00000000
20000000
00000000
,
01000000
00020000
30030000
10100000
,
00010000
01000000
00000000
01000000
00200000
00000000
20300000
00000000
,
30010000
00100000
00000000
00100000
00002000
00000000
00023000
00000000
,
00030010
00000100
00000001
00000000
00001000
00000000
00002200
00000000
,
00003300
00000000
00000001
00001000
00000001
00001000
00000001
00000000
,
00001000
00000010
00010000
00000000
00010010
00000000
00011000
00000000
,
00010000
00001000
00100000
00000000
00110000
00000000
20010000
00000000
,
00000000
30200000
00000000
00000000
00320000
00000000
00032000
00000000
,
00000000
00003200
00000000
00000000
00000310
00000000
00001010
00000000
,
00000001
00000010
00000000
00000010
00000100
00000000
00010100
00000000
,
00010000
00001000
00000000
00001000
01000000
00000000
01020000
00000000
,
10030000
00000000
00010000
01000000
00100000
00000000
10100000
00000000
,
00100000
00000000
20020000
00000000
30030000
00000000
10000000
01000000
,
10000000
00000000
01000000
00100000
01000000
00000000
00200000
00000000
,
00302000
00000000
00023000
00000000
00030200
00000000
00001300
00000010
,
00001000
00000000
00000010
00000100
00000010
00000000
00001000
00000001
,
00001000
00000001
00001000
00000100
00010000
00001000
00200000
00000000
,
00000000
00300000
00000000
00110000
,
00000000
10010000
00000000
00000000
11000000
00000000
10000000
00000000
,
00020000
02030000
03002000
00013000
,
00000000
00011000
00000000
00000000
00010100
00000000
00000100
00000000
,
00002000
00003020
00000230
00000301
,
00000000
00000101
00000000
00000000
00001001
00000000
00001000
00000100
,
00000000
00000100
00000000
00010000
00001000
00000000
00001000
01000000
,
00000000
01000000
00000000
00010000
10000000
00000000
00010000
00000000
,
01010000
02010000
03001000
00010000
,
00010100
00020100
00030010
00001000
,
00001010
00002010
00003001
00001002
,
00000013
00000100
00002000
00000000
00003010
00000100
00000020
00000000
,
00010030
00001000
00020000
00000000
00032000
00000000
00203000
00000000
,
00310000
01000000
00020000
00000000
10030000
00100000
02000000
00000000
,
03010000
00100000
00001000
00000000
00011000
00000000
00010010
00000000
,
00000010
00010000
00001000
00000000
00011000
00000000
00101000
00000000
,
00100000
00001000
00010000
00000000
00011000
00000000
00001000
01000000
,
00200000
00000000
00000000
00000000
,
00000000
00000000
00000000
00300000
;

//--------------- dance-double - Ben Speirs + forcednature ----------------
#NOTEDATA:;
#STEPSTYPE:dance-double;
#DESCRIPTION:Ben Speirs + forcednature;
#DIFFICULTY:Hard;
#METER:15;
#RADARVALUES:0.62619,0.710625,0.533333,0.925,0.075,526,462,64,111,0,0,0,0,0,0.62619,0.710625,0.533333,0.925,0.075,526,462,64,111,0,0,0,0,0;
#CHARTNAME:;
#CHARTSTYLE:;
#CREDIT:Ben Speirs + forcednature;
#NOTES:
00000000
00000000
00000000
00000000
,
00000000
00000000
00000000
00000000
,
00000000
00000000
00000000
00000000
,
00000000
00000000
00000000
00000000
,
00000000
00000000
00000000
00000000
00000000
00000000
00000000
00010000
,
00002000
00000000
00000000
00003200
00000320
00002030
00023000
02030000
,
03200000
00000000
00000000
00000000
00002000
00000000
00000000
00003000
,
00000000
00000000
00000000
00000000
00002000
00000000
00000000
00003000
,
00000000
00000000
00000000
00000000
00002000
00000000
00000000
00003000
,
00000000
00000000
00000000
00000000
00002000
00000000
00000000
00003000
,
00000000
00300000
10100000
10020000
,
00130000
00000000
00101000
00021000
,
00030010
00000000
00010010
00001020
,
00001030
00000000
00000001
00000010
00000100
00001000
00000001
00000100
,
00000010
00001000
00000000
00000100
00000100
00000000
00010100
00000000
,
00010000
00001000
01000000
00000000
01001000
00000000
01020000
00000000
,
10030000
00100000
01100000
20010000
,
31000000
00100000
00110000
00102000
,
00013000
00000010
00001010
00000102
,
00001003
00000000
00002001
00000000
00003100
00000010
00000100
00000001
,
00000100
00010000
00002000
00000000
00103000
00000000
00001000
01000000
,
00100000
00000000
10020000
00000000
01030000
00100000
01000000
10000000
,
01000000
00010000
00100000
00001000
00000000
00001000
00010000
00000000
,
00000010
00010000
00002000
00000000
00003200
00000000
00000302
00000000
,
00000023
00000000
00002030
00000000
00000000
00013000
00200000
00000000
,
01300000
00002000
00023000
02030000
,
23000000
00000000
30200000
00000000
00000000
00310000
00002000
00000000
,
00013000
00000100
00000020
00000000
00000100
00000000
00000031
00000100
,
00000010
00001000
00000200
00000000
00020300
00000000
00032000
00000000
,
00203000
02300000
00010000
00010000
,
13000000
00000000
00010000
01000000
00100000
00000000
10100000
00000000
,
10000000
00010000
10000000
00000000
11000000
00000000
01000000
00100000
,
00002000
00000000
00023000
00000000
00030010
00000100
00002000
00000000
,
00003100
00000000
00000001
00000000
00000011
00000000
00000010
00000100
,
00020000
00000000
00032000
00000000
01003000
00100000
00020000
00000000
,
00130000
10000000
10100000
01100000
,
01010000
00000000
10000000
01000000
00100000
00010000
10000000
00100000
,
00010000
00001000
00011000
00010100
,
00001100
00000000
00000001
00000100
00000010
00001000
00000001
00000010
,
00001000
00000000
00000010
00000001
00000100
00000000
00000101
00000000
,
00001010
00000000
00001000
00000100
00010000
00000000
00010100
00000000
,
00010000
00000000
00001000
01000000
00100000
00000000
10100000
00000000
,
10000000
00000000
00010000
00100000
01000000
10000000
00100000
01000000
,
00001000
00010000
00000010
00000000
00001100
00000000
00000102
00000000
,
00001003
00000010
00010010
00012000
,
00103000
00010000
00110000
20100000
,
30010000
01000000
01010000
01002000
,
00013000
00011000
00002000
00023000
,
00030020
00000000
00000130
00001000
00000100
00000010
00000100
00000001
,
00001000
00010100
00020000
00032000
,
00203000
00000000
01300000
00010000
01000000
00100000
01000000
10000000
,
00010000
01001000
00002000
00023000
,
00030020
00000000
00000130
00001000
00000100
00000010
00000100
00000001
,
00001000
00002001
00003100
00021000
,
00030010
00012000
00103000
20010000
,
30100000
00000000
10000000
00010000
10000000
00010000
02000000
00000000
,
03100000
10000000
00100000
01000000
10000000
01000000
00020000
00000000
,
00130000
00001000
00100000
00010000
01000000
00001000
00020000
00000000
,
00030010
00001000
00000010
00000100
00001000
00000100
00000002
00000000
,
00001003
00002002
00003003
00000002
,
00000013
00000001
00000010
00000100
00000001
00000100
00002000
00000000
,
00003010
00010000
00000010
00001000
00000100
00010000
00002000
00000000
,
00103000
00010000
00100000
01000000
00010000
01000000
20000000
00000000
,
31000000
00000000
10000000
00010000
10000000
00010000
02000000
00000000
,
03010000
10000000
00010000
00100000
00001000
00010000
00000010
00000100
,
00000010
00001000
00000100
00000010
00000001
00001000
00000020
00000000
,
00010000
00020030
00000000
00001000
00032000
00000000
00203000
00000000
,
00010000
00320000
00000000
01000000
02030000
00000000
03100000
10000000
,
00100000
10000000
01000000
00100000
00010000
01000000
00001000
00010000
,
00001000
00010000
00000100
00000010
00000001
00001000
00000020
00000000
,
00000130
00000000
00000001
00000010
00000100
00000000
00002200
00000000
,
00003300
00000000
00020200
00000000
00030300
00000000
00010000
00001000
,
00010000
00001000
00000100
00001000
00000100
00001000
00010000
00001000
,
00010000
00001000
00010000
01000000
00010000
01000000
10000000
00100000
,
01000000
00010000
00100000
10000000
00100000
00010000
01000000
00001000
,
00010000
00000010
00000100
00001000
00000100
00000001
00000020
00000000
,
00000031
00000000
00001000
00000010
00010000
00000000
00020020
00000000
,
00030030
00022000
00000000
00033000
00101000
00000000
00100000
00000000
,
00010000
00000000
10000000
00010000
01000000
00000000
02020000
00000000
,
03030000
00022000
00000000
00033000
00010100
00000000
00000100
00000000
,
00001000
00000000
00000001
00000100
00000010
00000000
00001010
00000000
,
00010000
00001000
00000000
00100000
00010000
00100000
00001000
00002000
,
00000000
00023000
00000000
00030010
00000100
00000000
00000001
00000020
,
00000000
00002030
00000000
00013000
01000000
00000000
01100000
00000000
,
00020000
02030000
03001000
00010000
,
00000200
00002300
00003001
00000100
,
00000020
00020030
00031000
00012000
,
00103000
00010000
00100000
00020000
00000000
00000000
01030000
00001000
01000000
00002000
00000000
00000000
,
00013000
00001000
00010000
00001000
00000000
00000000
00101000
00000000
00000000
00021000
00000000
00000000
,
00030010
00001000
00000010
00002000
00000000
00000000
00003100
00010000
00000100
00020000
00000000
00000000
,
00031000
00010000
00001000
00010000
00000000
00000000
00011000
00000000
00000000
00101000
00000000
00000000
,
00100000
00010000
00100000
00001000
00000000
00000000
00011000
00000000
00000000
00010010
00000000
00000000
,
00000010
00001000
00000010
00010000
00000000
00000000
00011000
00000000
00000000
00001000
01000000
00010000
,
00200000
00000000
00000000
00000000
,
00000000
00000000
00000000
00300000
;
