#VERSION:0.83;
#TITLE:The Last Apocalypse;
#SUBTITLE:;
#ARTIST:BEMANI Sound Team "Sota F. feat. Yvya";
#TITLETRANSLIT:;
#SUBTITLETRANSLIT:;
#ARTISTTRANSLIT:Sota F. feat. Yvya;
#GENRE:NEO-CLASSICAL CORE;
#CREDIT:;
#MUSIC:The Last Apocalypse.ogg;
#BANNER:The Last Apocalypse.png;
#BACKGROUND:The Last Apocalypse-bg.png;
#CDTITLE:./CDTitles/bm IIDX 31 EPOLIS.png;
#SAMPLESTART:80.918;
#SAMPLELENGTH:15.013;
#SELECTABLE:YES;
#OFFSET:1.181;
#BPMS:0.000=190.000
,28.000=380.000
,34.000=190.000
,86.000=380.000
,87.000=190.000
,102.000=380.000
,103.000=190.000
,122.000=95.000
,122.500=190.000
,125.500=95.000
,126.000=190.000
,149.000=95.000
,149.500=190.000
,196.500=380.000
,197.500=95.000
,212.500=190.000
,238.000=380.000
,244.000=190.000
,284.000=95.000
,286.000=190.000
,290.000=95.000
,291.000=190.000
,296.000=95.000
,298.000=190.000
,302.000=95.000
,303.000=190.000
,308.000=95.000
,310.000=190.000
,314.000=95.000
,316.000=190.000
,320.000=95.000
,322.000=190.000
,326.000=95.000
,327.500=190.000
,332.000=380.000
,338.000=190.000
,363.000=380.000
,369.000=190.000
;
#STOPS:86.000=0.158
,102.000=0.158
,196.500=0.158
,212.500=0.158
,279.000=0.315
,291.000=0.158
,291.500=0.158
,303.000=0.316
,327.500=0.158
;
#TIMESIGNATURES:0.000=4=4,
32.000=3=4,
35.000=4=4,
119.000=3=4,
122.000=4=4,
242.000=3=4,
245.000=4=4,
277.000=3=4,
280.000=4=4,
284.000=2=4,
286.000=4=4,
290.000=2=4,
292.000=4=4,
296.000=2=4,
298.000=4=4,
302.000=2=4,
304.000=4=4,
308.000=2=4,
310.000=4=4,
314.000=2=4,
316.000=4=4,
320.000=2=4,
322.000=4=4,
326.000=2=4,
328.000=4=4,
336.000=3=4,
339.000=4=4,
367.000=3=4,
370.000=4=4
;
#DISPLAYBPM:190.000;
#BGCHANGES:0.000=The Last Apocalypse.mp4=1.000=0=0=0=StretchNoLoop====,
99999.000=-nosongbg-=1.000=0=0=0=StretchNoLoop====
;
#FGCHANGES:;

//--------------- dance-single - forcednature ----------------
#NOTEDATA:;
#STEPSTYPE:dance-single;
#DESCRIPTION:forcednature;
#DIFFICULTY:Beginner;
#METER:6;
#RADARVALUES:0,0,0,0,0;
#CREDIT:forcednature;
#NOTES:
0000
0000
0000
0000
,
0000
0000
0000
0000
,
0000
0000
0000
0000
,
0000
0000
0000
0000
,
0000
0000
0000
0000
,
1000
0000
1001
0000
,
0001
0000
1001
0000
,
2002
0000
0000
0000
,
0000
0000
3003
0001
,
0010
0100
1000
0001
,
0000
0100
0000
0000
,
0000
0100
0000
0001
,
0000
0010
0000
0100
,
0000
1000
0000
0010
,
0000
0100
0000
0000
,
0000
0100
0000
0001
,
0000
1000
0000
0200
,
0000
0300
0000
0010
,
0000
0001
0000
0100
,
0000
0001
0000
0010
,
0000
0100
0000
1000
,
0000
0000
1000
0001
,
0000
0100
0000
0001
,
0000
1000
0000
0100
,
0000
1000
0000
0020
,
0000
0030
0100
0000
,
0001
0000
0001
0000
,
0001
0010
0010
0000
,
0001
0000
0001
0000
,
0100
0010
0010
0000
,
1000
0000
1000
0000
0000
0000
0000
0001
,
0000
0001
0000
0000
0000
0000
0100
0000
,
0100
0000
0020
0000
,
0030
0000
1001
0000
,
1000
0000
0100
0000
,
1000
1000
0000
0000
,
0010
0000
0100
0000
,
0001
0000
0000
0000
0000
0000
0000
1000
,
0000
0000
0000
0001
0000
0000
0000
0010
,
0000
0010
0000
0000
0000
0000
0000
0100
,
0000
0000
0000
2000
0000
0000
0000
3000
,
0000
0001
0000
1000
0000
0000
0000
1001
,
0000
0000
0000
0000
0000
0000
0000
0001
,
0000
0000
0000
0010
0000
0000
0000
1001
,
0000
0000
0000
0000
0000
0000
0000
1000
,
0000
0000
0000
0100
0000
0000
0000
1001
,
0000
0000
0000
0000
0000
0000
0000
0001
,
0000
0000
0000
0100
0000
0000
0000
0010
,
0000
0000
0000
2000
0000
0000
0000
3000
,
0000
0001
0000
0020
0000
0000
0000
0000
,
0000
0030
0000
0200
0000
0000
0000
0000
,
0000
0300
0000
2000
0000
0000
0000
0000
,
0000
3000
0000
0002
0000
0003
0000
0200
,
0000
0300
0000
0000
0010
0000
0010
0000
,
0000
0000
1000
0000
,
0001
0000
0100
0100
,
0000
0000
0001
0000
,
1000
0000
1001
0000
,
0100
0000
1001
0000
,
0010
0000
2002
0000
,
0000
0000
0000
0000
,
3003
0001
0010
0100
,
1000
0001
0000
0100
,
0000
0001
0000
0010
,
0000
0100
0000
1000
,
0000
0001
0000
0000
,
0000
1000
0000
0010
,
0000
0100
0000
0010
,
0000
1000
0000
0100
,
0000
2000
0000
3000
,
0001
0100
0001
0100
,
0020
0000
1030
0100
,
1000
0100
0020
0000
,
0031
1000
0001
1000
,
0020
0000
0130
0001
,
0100
0001
0020
0030
,
0001
1000
0100
1000
,
0020
0000
1030
0100
,
0010
0001
0200
0000
,
0310
1000
0001
0010
,
0002
0000
0103
0010
,
1000
0000
0001
0000
0200
0000
0000
0300
,
0020
0000
0030
0000
,
2002
0000
0000
0000
,
0000
0000
3003
1001
,
0000
0000
0000
0001
,
0000
0010
0000
1001
,
0000
0000
0000
1000
,
0000
0010
0000
1001
,
0000
0100
0000
1001
,
0000
0010
0000
2002
,
0000
0000
0000
0000
,
0000
3003
0001
0010
,
0100
2000
0000
0000
,
0000
0000
3000
0000
;

//--------------- dance-single - forcednature ----------------
#NOTEDATA:;
#STEPSTYPE:dance-single;
#DESCRIPTION:forcednature;
#DIFFICULTY:Easy;
#METER:10;
#RADARVALUES:0,0,0,0,0;
#CREDIT:forcednature;
#NOTES:
0000
0000
0000
0000
,
0000
0000
0000
0000
,
0000
0000
0000
0000
,
0000
0000
0000
0000
,
0000
0000
0000
0000
,
1001
0000
0110
0000
,
1001
0000
0110
0000
,
2002
0000
0000
0000
,
0000
0000
3003
1000
,
0100
0010
0011
1001
,
0000
0000
0001
0000
0100
0000
0010
0100
,
0010
1000
0001
0010
,
0000
0000
0100
0000
0010
0000
0100
1000
,
0100
1000
0001
0100
,
0000
0000
0010
0000
1000
0000
0010
0100
,
0010
0100
0001
0010
,
0000
0100
0010
0200
,
2300
3002
0013
1001
,
1000
0010
0001
0010
,
1000
0000
0010
0100
0010
0000
0100
0000
,
0001
0100
1000
0200
,
0302
0013
1001
1000
,
1000
0001
1000
0000
0001
0000
0010
0000
,
0100
1000
0100
0010
,
0001
0010
0001
0000
0100
0000
0020
0000
,
2030
3001
1001
0000
,
0001
0010
0001
0000
1000
0010
1000
0000
,
0001
0010
0001
0000
1000
0000
0000
0000
,
0001
0100
0001
0000
1000
0100
1000
0000
,
0001
0100
0001
0000
1000
0000
0100
0000
,
0010
0000
0010
0000
0002
0103
0000
0010
,
0000
0010
0000
2000
3100
0000
0010
0000
,
0010
0000
0001
1000
,
0010
1001
1000
0100
,
0001
0000
0100
0000
1000
0100
1000
0000
,
0010
0100
0000
0001
,
0010
0000
0001
0000
1000
0001
1000
0000
,
0010
0000
0200
0301
0000
0001
0100
0001
,
0000
0010
0000
0100
0000
1000
0000
0010
,
0000
0100
0000
0000
0000
0001
0000
1000
,
0000
0100
0000
0010
0000
0001
0000
0100
,
0000
1001
0000
1000
0000
0010
0000
1010
,
0000
0001
0000
0100
0000
0001
0000
0101
,
0000
1000
0000
0100
0000
0010
0000
0110
,
0000
1000
0000
0001
0000
0100
0000
0110
,
0000
1000
0000
1001
0000
0001
0000
0101
,
0000
0001
0000
1001
0000
1000
0000
1100
,
0000
1000
0000
1001
0000
0001
0000
0011
,
0000
0001
0000
1000
0000
0010
0000
0100
,
0000
0110
0000
0002
0000
0013
0000
0200
,
0000
1300
0000
0020
0000
0230
0000
0302
,
1000
1003
0000
0200
0000
1300
0000
0010
,
0010
1000
0000
0002
0000
0103
0000
0001
,
1000
0010
0000
0000
1001
0000
1001
0000
,
0000
0000
0000
0000
1000
0100
0000
0010
,
0000
0010
0000
0000
0001
0001
1000
0000
,
0000
0000
0000
0000
0001
0100
0000
0010
,
0000
0010
0000
0000
1001
0000
0000
0000
,
0110
0000
1001
0000
,
0110
0000
2002
0000
,
0000
0000
0000
0000
,
3003
0001
0010
0100
,
0110
1001
1001
0001
,
0001
0100
0000
0010
0000
0010
0000
1000
,
0001
1001
1000
0100
,
0100
0010
0000
0001
0000
1000
0000
0010
,
0100
0110
0010
1000
,
1000
0001
0000
0010
0000
0010
0000
0001
,
0100
0010
1000
0001
,
0010
0100
0110
1001
,
1000
0100
1000
0000
0001
0100
0001
0000
,
0020
0000
0230
0000
1300
0010
1000
0000
,
0001
0010
0001
0000
0200
0000
0302
2003
,
3100
0010
0100
0000
1000
0001
1000
0000
,
0020
0230
0302
0000
0013
0001
0010
0000
,
0100
1000
0100
0000
2000
3001
1001
0000
,
1000
0010
0100
0000
0001
0010
0100
0000
,
2000
0000
3002
0203
0301
1000
0100
0000
,
0010
0001
1000
0000
0020
0230
0320
0230
,
0301
1000
0100
0000
0010
0001
1000
0000
,
0020
0230
0302
2003
3001
0010
0100
0000
,
0001
0100
1000
0000
0002
2003
3001
1001
,
2000
0100
0100
3000
,
2002
0000
0000
0000
,
0000
0000
3003
0101
,
0100
0000
0000
0110
0000
0000
1001
0000
,
1000
0001
0000
1100
,
0100
0000
0000
0110
0000
0000
1001
0000
,
0001
0100
0010
1001
,
0000
0110
0000
1001
,
0000
0110
0000
2002
,
0000
0000
0000
0000
,
0000
3003
0001
0010
,
0100
2002
0000
0000
,
0000
0000
3003
0000
;

//--------------- dance-single - forcednature ----------------
#NOTEDATA:;
#STEPSTYPE:dance-single;
#DESCRIPTION:forcednature;
#DIFFICULTY:Medium;
#METER:14;
#RADARVALUES:0,0,0,0,0;
#CREDIT:forcednature;
#NOTES:
0000
0000
0000
0000
,
0000
0000
0000
0000
,
0000
0000
0000
0000
,
0000
0000
0000
0000
,
0000
0000
0000
0000
,
1001
0100
1001
0010
,
0110
0000
0000
0000
1000
0000
0000
0000
0001
0000
0000
0001
0000
0000
0010
0000
,
2002
0000
0000
0000
,
0000
0000
0000
0000
3003
0000
1000
0100
,
0010
0000
0001
0000
0100
0000
0010
0100
0020
0000
0000
0000
1030
0000
0000
0000
,
1000
0001
0100
0010
1000
0000
0001
0010
,
0100
1000
0010
0100
0001
0000
1000
0000
,
1000
0010
0100
0001
1000
0000
0100
0010
,
0001
0100
0010
1000
0100
0000
0010
0010
,
0010
0001
0010
0000
0100
0000
1000
0100
,
0010
0001
0100
0010
1000
0000
0001
0000
,
0100
0001
1000
0010
0100
0000
0001
0001
,
1000
1000
0010
0000
0110
0000
1001
0000
,
1000
0100
0010
0100
0001
0000
0100
1000
,
0100
1000
0010
0100
0001
0000
0010
0001
,
0100
0001
0000
0001
1000
0000
0200
0000
,
0320
0000
0031
1000
1001
0000
0010
0010
,
0010
0100
0010
0000
1001
0000
1000
0100
,
0001
0100
1000
0000
0010
0000
0200
0000
,
0301
0000
1000
0000
0001
0000
1000
0000
0010
0000
0000
0000
0100
0000
0000
0010
,
0100
0000
0000
0001
1000
0000
0000
0000
0110
0000
0000
0000
1001
0000
0000
0000
,
0001
0100
0010
0100
1000
0100
0001
0100
,
1000
0100
0001
0100
0010
0000
0000
0000
,
1000
0100
0010
0100
0001
0100
1000
0100
,
0001
0100
1000
0100
0010
0000
1001
0000
,
0001
0100
1000
0100
0002
1003
0000
0001
,
0010
1000
0010
0002
1003
1000
0001
1000
,
0001
0000
0010
0000
0100
1000
0010
0100
,
0001
0000
1000
0001
1000
0000
0000
0000
0010
0000
0100
0000
0001
0000
0000
0000
,
0110
0000
0000
0000
1010
0000
0000
0000
0010
0000
0000
1000
0001
0000
0000
0000
,
0010
0001
0010
0100
0000
1000
0001
0100
,
0001
0000
1000
0000
0100
0000
0000
0000
0010
0000
0000
0100
0010
0000
0000
0000
,
0001
1000
0002
0103
0010
0010
0100
0010
,
1000
0001
0000
0010
0100
1000
0100
0001
,
0100
0000
1000
0000
0000
0000
0001
0000
0000
1000
0001
0000
0000
0000
0101
0000
,
0000
1010
0000
2000
0000
3002
0000
0103
,
0010
0100
0010
0000
0000
0000
1010
0000
0000
0000
0001
0000
0000
0000
1100
0000
,
0000
0001
0000
0010
0100
0100
1000
0100
,
0010
0100
0000
0011
0000
1000
0000
0101
,
0000
1000
0000
0010
0100
0100
0001
0100
,
0010
0100
0000
2010
0000
3001
0000
0012
,
0000
1003
0000
2100
0000
3001
0000
0102
,
0000
1003
0000
0001
0010
0100
1000
0010
,
0000
0000
0100
0000
0010
0000
1000
0000
0000
0001
1000
0000
0001
0000
0100
0000
,
0010
0100
0010
0000
0000
0000
2002
0000
0000
0000
3003
0000
0000
0000
1000
0000
,
0001
0010
0000
0100
0000
0020
0000
0031
,
1000
0010
0000
0100
0001
0200
0000
0310
,
1000
0020
0000
0130
0001
0020
0000
0130
,
0110
1001
0000
0000
1100
0000
1100
0000
,
0000
0000
0000
0000
1000
0010
0000
0110
,
0000
1001
0000
0000
0101
0101
0101
0000
,
0000
0000
0000
0000
0001
0010
0000
0110
,
0000
1001
0000
0000
2100
0000
3010
0000
,
0102
0013
2001
3010
,
0210
0301
2002
0000
,
0000
0000
0000
0000
,
3003
0000
0000
0000
1000
0000
0100
0000
0010
0000
0001
0000
0100
0000
0010
0100
,
0010
0000
1010
0000
1010
0000
1000
0100
,
0010
0100
0001
0100
1000
0001
1000
0010
,
0001
0000
0010
1000
0010
0100
1000
0100
,
0010
0000
1000
0000
0001
0000
0000
1000
0001
0000
0010
0000
0100
0000
0000
0000
,
1000
0000
0011
0000
0011
0000
0001
0100
,
0010
0100
1000
0100
0001
1000
0001
0010
,
1000
0000
0010
0001
0100
0010
1000
0100
,
0010
0000
0000
0000
0001
0000
0000
1000
0001
0000
0000
0100
0010
0000
0000
0000
,
1000
0010
1000
0000
0010
0000
0100
0000
0001
0100
0001
0000
0100
0000
0010
0000
,
2000
0000
0000
0000
3002
0000
0000
0000
0013
0100
0010
0000
0001
0000
1000
0000
,
0100
0010
0100
0000
1000
0000
0001
0000
0200
0000
0000
0000
0302
0000
2003
0000
,
3001
0010
0001
0000
0010
0000
0100
0000
1000
0010
1000
0000
0010
0000
0100
0000
,
0002
0000
0023
0000
0230
0000
2300
0000
3001
0100
0001
0000
0100
0000
0010
0000
,
1000
0100
1000
0000
0100
0000
0010
0000
0002
0000
1003
0000
1001
0000
0000
0000
,
1000
0010
0100
0000
0001
0000
1000
0000
0001
0010
0100
0000
1000
0000
0001
0000
,
0200
0000
0010
0000
0302
0000
1000
0000
0013
0100
1000
0000
0100
0000
0010
0000
,
0001
0000
1000
0000
0010
0000
0000
0000
0100
0000
0000
0000
0001
0000
0000
0000
0000
0000
0100
0000
0000
0010
0000
0000
1000
0000
0000
0001
0000
0000
0100
0000
,
0010
1000
0001
0000
0010
0000
0100
0000
0010
0001
1000
0000
0010
0000
0100
0000
,
0002
0000
0023
0000
0230
0000
2300
0000
3001
0100
0010
0000
1000
0000
0100
0000
,
0010
0100
1000
0000
0001
0000
0100
0000
0020
0000
2030
0000
3001
0000
1001
0000
,
2000
0000
0000
0000
0100
0000
0000
0000
0001
0000
0000
3001
0000
0000
0010
0000
,
2002
0000
0000
0000
,
0000
0000
3003
1100
,
1000
0000
0001
0000
0000
0000
0022
0000
0000
0033
0000
0000
0100
0000
1000
0000
,
0010
0000
0100
0000
0001
0000
0000
0001
0000
0000
1000
0000
1010
0000
0000
0000
,
1000
0000
0001
0000
0000
0000
0202
0000
0000
0303
0000
0000
0100
0000
0100
0000
,
0010
0000
1000
0000
0001
0000
0000
0010
0000
0000
0100
0000
0110
0000
0000
0000
,
1000
0110
0001
1001
,
0100
0000
0000
0000
0001
1000
0000
1000
0000
0000
0010
0000
2002
0000
0000
0000
,
0000
0000
0000
0000
,
0000
0000
3003
0000
1000
0100
0010
0001
,
0100
0000
0010
0100
0020
0000
0000
0000
0000
0000
0000
0000
0000
0000
0000
0000
,
0000
0000
0030
0000
;

//--------------- dance-single - forcednature ----------------
#NOTEDATA:;
#STEPSTYPE:dance-single;
#DESCRIPTION:forcednature;
#DIFFICULTY:Hard;
#METER:17;
#RADARVALUES:0,0,0,0,0;
#CREDIT:forcednature;
#NOTES:
0000
0000
0000
0000
,
0000
0000
0000
0000
,
0000
0000
0000
0000
,
0000
0000
0000
0000
,
0000
0000
0000
0000
,
1100
0000
0001
0100
0101
0000
1000
0100
,
1100
0000
0000
0000
0001
0000
0100
0000
0010
0100
0000
0110
0000
0000
1000
0000
,
2002
0000
0000
0000
,
0000
0000
0000
0000
0000
0000
0000
0000
3003
0000
0000
0000
1000
0100
1000
0100
,
0010
0001
0010
0001
1000
0100
0010
0001
0200
0000
0000
0000
0310
0000
1000
0000
,
1000
0100
1000
1000
0001
0010
0002
0203
,
2300
3200
0302
2003
3020
0230
0301
1000
,
1000
0000
0001
0000
0010
0000
0010
0000
0001
0000
1000
0000
0100
0000
1000
0100
,
1000
0000
0001
0100
0001
0000
0000
0000
1001
0000
0000
0000
1000
0000
1000
0000
,
1000
0000
0010
0000
0100
0000
0000
0001
0100
0000
0001
0000
2000
0000
3020
0000
,
0230
2300
3200
0320
2030
3002
0013
0010
,
0100
0000
0010
0000
0001
0000
0000
1000
0001
0000
0100
0000
0010
1000
0010
0000
,
0100
0001
0100
0000
0010
1000
0001
1000
0010
0000
0000
0000
1001
0000
0000
0000
,
1100
0000
0000
0000
0001
0000
0010
0000
0001
0000
0100
0010
0100
0000
0010
0000
,
1000
0000
0010
0000
0100
0000
1000
0000
0100
0000
0001
0000
1000
0001
1000
0001
,
1000
0000
0001
0000
0010
0000
0100
0010
0100
0000
1000
0000
0001
0000
0100
0000
,
0001
1000
0010
0100
0001
0000
1000
0000
1001
0000
0000
0000
0001
0000
0001
0000
,
0001
0000
0100
0000
1000
0000
0100
0000
0001
0000
0100
0000
0010
0000
1000
0010
,
1000
0000
0100
1000
0100
0000
0010
0001
0010
0000
0001
0000
1000
0001
1000
0001
,
0100
0000
0010
0000
1000
0010
1000
0000
0002
0000
0000
0000
0013
0100
0010
0000
,
0001
1000
0001
0000
0100
0010
0100
0010
1000
0000
0000
0000
1001
0000
0000
0000
,
0001
0010
0100
0000
1000
0100
0010
0000
0001
1000
0010
0000
0100
0001
1000
0000
,
0100
0010
0001
0000
0100
0000
0010
0000
1010
0000
0000
0000
1001
0000
0000
0000
,
1000
0010
0100
0000
0001
0100
0010
0000
1000
0001
0010
0000
0100
1000
0001
0000
,
0100
0010
1000
0000
0100
0000
0010
0000
0011
0000
0000
0000
1001
0000
0000
0000
,
1000
0001
0010
0000
0001
1000
0010
0000
0200
0000
0301
1000
0100
0000
1000
0001
,
0100
0000
0010
0000
1000
0000
0200
0000
0310
0001
0010
0001
0010
0000
0001
0000
,
0100
0000
0010
1000
0001
0000
0000
0000
1000
0100
0010
0000
0001
0100
0010
0000
,
1000
0000
0001
0000
1001
0000
0000
0000
1000
0000
0100
1000
0100
0000
0010
0000
,
1000
0000
0010
0000
0001
0000
0100
0000
0010
1000
0001
1000
0010
0000
0100
0000
,
0001
0000
0010
0000
0100
0000
1000
0000
0000
0000
0010
1000
0010
0000
0100
0001
,
0100
0000
0010
0000
1000
0000
0001
0000
0010
0100
1000
0100
0010
0000
0001
0000
,
0100
0001
0100
0000
0020
0000
1030
0000
0001
1000
0001
0000
0010
0000
0001
0000
,
0100
0000
1000
0000
0000
0000
0100
0001
0100
0001
0100
0000
0010
0000
1000
0000
,
0100
0000
0001
0000
0100
0000
0000
0000
1000
0100
1000
0000
0001
0010
0001
0000
,
1000
0000
0010
0000
0100
0000
0001
1000
0010
0000
1000
0001
0010
0000
0100
0010
,
0100
1001
0000
1100
1000
0010
0100
0110
,
0010
0100
0001
0011
0000
0010
1000
0010
,
0001
0000
0010
0000
0000
0000
0001
0000
0100
0000
0010
0100
0010
0000
1000
0000
,
0100
0000
1000
0001
1000
0000
0001
0000
0010
0000
0100
0000
1000
0000
0010
0100
,
0010
1000
0001
0102
0000
0013
0000
2100
,
0000
3010
0000
0201
0000
1300
0000
0021
,
0000
0000
1030
0000
0000
0000
0001
0000
0100
0000
0010
0100
0010
0000
1000
0000
,
0100
0000
1000
0001
1000
0000
0010
0000
0100
0001
1000
0000
0100
1000
0001
1000
,
0001
0010
0000
2002
0013
0200
3300
0002
,
0010
0200
0303
2000
3200
0320
0032
0203
,
0320
2030
3000
0002
0100
2003
0100
3002
,
0023
0230
0300
2000
3020
0230
0302
0023
,
0230
1300
0000
0000
1001
0000
1001
0000
,
0000
0000
0000
0000
0001
0100
0000
0110
,
0000
1001
0000
0000
1000
0001
1001
0000
,
0000
0000
0000
0000
0000
0000
0000
0000
1000
0100
1000
0000
0000
0000
0110
0000
,
0000
1001
0000
0000
0011
0000
0001
1000
,
1010
0000
1000
0001
0101
0000
0001
1000
,
0100
0010
0000
0010
0000
0000
0100
0000
2002
0000
0000
0000
0000
0000
0000
0000
,
0000
0000
0000
0000
,
3003
0000
0000
0000
0001
0100
0001
0100
0010
1000
0010
1000
0001
0100
0010
1000
,
0001
0000
0000
0000
1000
0100
1000
0000
0001
0100
0001
0000
1000
0000
0010
0000
,
0100
0000
0001
0000
0010
0001
0010
0001
0010
0000
0100
0000
1000
0000
0001
0000
,
0100
0000
0000
0000
0001
1000
0010
1000
0001
0000
0010
0000
0001
1000
0100
1000
,
0001
0000
0100
0000
0010
0000
1000
0100
0010
0000
0001
0100
0010
0000
0000
0000
,
1000
0000
0000
0000
1001
0000
0001
0010
0100
0000
0010
0100
1000
0000
1000
0000
,
0010
1000
0200
0302
0203
2300
3002
0203
,
0320
0000
2030
0000
3001
0010
0001
0010
0100
1000
0100
1000
0001
0000
0100
0010
,
1000
0000
0001
0000
0010
0000
0100
1000
0010
0000
0100
0001
0010
0000
0000
0000
,
1000
0100
1000
0100
0010
0001
0010
0001
1000
0010
1000
0010
0100
0001
0100
0001
,
2000
0000
3200
0000
1300
0001
0010
0000
0001
0100
0001
0100
0010
1000
0010
1000
,
0001
0000
0010
0000
0001
0000
0010
0000
0100
0000
1000
0000
0100
0000
1000
0000
0001
0000
0000
0100
0010
0000
1000
0010
0100
0000
0000
0000
0001
0000
0000
0000
,
1000
0001
1000
0001
0010
0100
0010
0100
1000
0001
1000
0001
0100
0000
0010
0000
,
2000
3200
0320
0032
0203
0320
2030
3002
0013
0100
0010
0100
1000
0001
1000
0001
,
0100
0000
0010
0000
0100
0000
0010
0000
1000
0000
0000
0000
0001
0000
0000
0000
0100
0000
0000
0010
1000
0000
0000
0001
0010
0000
0000
0000
0000
0000
0000
0000
,
1000
0100
1000
0100
0010
0001
0010
0001
1000
0010
0100
0001
0100
0010
1000
0001
,
0020
0000
0000
0000
0230
0000
0000
0000
1300
0000
0001
1000
0001
0000
0010
0000
0001
0000
0100
0000
0001
0000
0100
0000
0010
0000
1000
0000
0001
0000
0010
0000
,
0001
0000
1000
0000
0100
0000
1000
0000
0001
0000
0100
0000
0001
0000
1000
0000
0010
0000
0100
0000
0001
1000
0000
0010
0100
0000
0001
1000
0000
0010
0100
0000
,
0001
1000
0100
1000
0001
0100
0001
1000
0100
0010
0001
1000
0001
0010
0100
1000
,
0002
0000
0203
0000
0310
1000
0001
0010
0100
1000
0100
1000
0010
0100
0010
0100
,
0001
0010
0100
1000
0001
0100
0010
1000
0002
0000
2003
0000
3100
0000
0110
0000
,
1000
0000
1000
0000
0001
0000
1000
0000
0001
0100
0000
0100
0000
0000
0010
0000
,
0220
0000
0000
0000
,
0000
0000
0000
0000
0330
0000
0101
0001
,
0100
0001
0000
0011
0000
0010
0100
1000
,
0001
0000
1000
0000
0010
0100
0000
0110
0000
0000
0010
0000
1010
0000
1000
0000
,
0100
0000
1000
0000
0000
0000
1100
0000
0000
0000
0001
0000
1000
0001
1000
0001
,
1000
0000
0010
0000
0100
0001
0000
0001
0000
0000
0010
0000
0110
0000
0000
0000
,
1000
0010
0110
0000
0001
0010
0110
0000
,
1000
0000
0010
0000
0100
0001
0000
0001
0000
0000
0010
0000
0220
0000
0000
0000
,
0000
0000
0000
0000
,
0000
0000
0000
0000
0330
0000
0000
0000
1000
0100
1000
0100
0010
0001
0010
0001
,
1000
0100
0010
0001
0200
0000
0000
0000
0000
0000
0000
0000
0000
0000
0000
0000
,
0000
0000
0300
0000
;

//--------------- dance-single - forcednature ----------------
#NOTEDATA:;
#STEPSTYPE:dance-single;
#DESCRIPTION:forcednature;
#DIFFICULTY:Challenge;
#METER:18;
#RADARVALUES:0,0,0,0,0;
#CREDIT:forcednature;
#NOTES:
0000
0000
0000
0000
,
0000
0000
0000
0000
,
0000
0000
0000
0000
,
0000
0000
0000
0000
,
0000
0000
0000
0000
,
1001
0000
1000
0100
0110
0000
0001
0100
,
0110
0000
0000
0000
1000
0000
0100
0000
0010
0100
0000
0110
0000
0000
0010
0000
,
2002
0000
0000
0000
,
0000
0000
0000
0000
0000
0000
0000
0000
3003
0000
0000
0000
0001
1000
0100
1000
,
0001
0100
0010
1000
0001
0010
0100
1000
0010
0000
0000
0000
1001
0000
0000
0000
,
0100
0000
0001
0000
0001
0000
0010
0001
0010
0000
0100
0000
2000
0000
3002
0000
,
0203
0320
2030
3200
0320
0032
0103
0000
,
0010
0000
1000
0000
1000
0000
0100
1000
0100
0000
0010
0000
0001
0000
0100
0001
,
1000
0000
0100
1000
0001
0100
0001
0000
1000
0000
0010
0000
0100
0000
0100
0001
,
1000
0000
1000
0010
0100
0000
0001
0000
1000
0000
0010
0100
0002
0000
0023
0000
,
0230
0000
2300
0000
3002
0000
0203
0000
0320
0000
2030
0000
3100
0000
0000
1000
,
0100
0000
0010
0100
1000
0000
0010
0100
0001
0000
0010
0000
0002
0000
0203
0000
,
2300
0000
3200
0000
0301
0010
0100
1000
0010
0000
0000
0000
1001
0000
0000
0000
,
2000
0000
0100
0000
3002
0000
0100
0000
1003
0000
0010
0100
0002
0000
0010
0000
,
2003
0000
0010
0000
3001
0010
0100
0000
0110
0000
0010
0100
1000
0000
0010
1000
,
0010
1000
0010
0100
0001
0000
0010
0000
0100
0000
1000
0000
0010
0000
0010
0000
,
0010
0100
0001
1000
0010
0000
0100
0000
1001
0000
0000
0000
1100
0000
0100
0000
,
0110
0000
0010
0000
0011
0000
0000
0001
0100
0000
0010
0100
0010
0000
1000
0001
,
0100
0010
1000
0001
0010
0000
0100
1000
0001
0000
0100
0000
0010
1000
0001
1000
,
0010
0000
0100
0000
1000
0000
0100
0000
0002
0000
2003
0000
3001
0010
0100
0000
,
1000
0010
0100
0000
0001
1000
0100
0010
0001
0000
0000
0000
1001
0000
0000
0000
,
1000
0100
1000
0001
0100
0001
1000
0010
1000
0001
0010
0001
1000
0010
0100
0001
,
1000
0100
0010
0001
1000
0000
0001
0000
0100
0000
0000
0000
1001
0000
0000
0000
,
0001
0100
0001
1000
0100
1000
0001
0010
0001
1000
0010
1000
0001
0010
0100
1000
,
0001
0100
0010
1000
0100
1000
0100
0000
0010
0000
0000
0000
1001
0000
0000
0000
,
0001
0100
0001
1000
0100
1000
0001
0010
0200
0000
1300
0001
0100
0001
1000
0100
,
1000
0001
0010
0000
0100
0000
2000
0000
3001
1000
0000
1000
0001
0100
0001
1000
,
0100
1000
0001
0100
0010
0000
0000
0000
1000
0100
0010
0001
1000
0010
0100
0001
,
0010
0000
0100
0000
1001
0000
0000
0000
1000
0000
0100
1000
0100
0000
0010
0000
,
0100
0000
0001
0100
1000
0000
0100
0000
0010
0001
1000
0001
0010
0000
0100
0000
,
1000
0000
0010
0000
0100
0000
0001
0000
0000
0000
0010
0001
0010
0000
0001
0100
,
0001
0000
1000
0100
1000
0000
0001
0000
0100
0010
1000
0001
0100
0000
1000
0000
,
0100
0001
0100
0000
0020
0000
1030
0000
0001
1000
0100
0000
0001
0000
0100
0000
,
1000
0000
1100
0000
0000
0000
0001
0010
0100
1000
0001
0000
0100
0000
0010
0000
,
0001
0000
0010
0000
1000
0000
1000
0000
0100
1000
0100
0000
1000
0010
1000
0000
,
0001
0010
0001
0000
0100
0000
1000
0100
0001
0000
0100
0010
1000
0000
0100
0010
,
0001
1001
0000
1100
1000
0010
0100
0101
,
0001
0100
0010
0000
1000
0000
0100
0000
0010
0001
0100
0000
0010
1000
0100
0000
,
0001
0100
1000
0000
0100
0000
1100
0000
1000
0000
0010
1000
0001
0000
0101
0000
,
0100
0000
0001
0010
0100
0000
0110
0000
0010
0000
0011
0000
0001
0000
0100
0010
,
1000
0000
0100
0000
0010
0100
2000
0000
0010
0000
3001
0000
1000
0000
0002
0000
,
0010
1003
0001
0200
1000
0310
1000
0200
,
0001
0000
0310
0000
0001
0000
1001
0000
0000
1000
0010
1000
0001
0100
0001
0000
,
1000
0000
0100
1000
0100
0000
0010
0000
0001
1000
0010
1000
0001
0100
0001
1000
,
0100
0010
0001
0000
0000
0000
0201
0000
0320
0000
2030
0000
3000
0000
0200
0000
,
0320
0032
0003
2000
3020
0230
0302
0023
,
0230
0000
2300
0000
3000
0000
0020
0230
0302
0203
0320
0000
0030
0000
2000
3200
,
0320
0000
0230
0000
2300
0000
0000
0000
3002
0000
0000
0000
0103
0010
0100
0000
0010
0000
1000
0000
0001
0000
0010
0000
0100
0000
0000
0000
1000
0000
0010
0100
,
0001
0000
0010
0100
1000
0000
0000
0000
0000
0000
0000
0000
0000
0000
0000
0000
1001
0000
0000
0000
0000
0000
0000
0000
1001
0000
0000
0000
0000
0000
0000
0000
,
0000
0000
0000
0000
1100
1010
0000
0011
,
0000
0101
0000
0000
1001
1001
1001
0000
,
0000
0000
0000
0000
0000
0000
0000
0000
0001
1000
0100
0000
0000
0000
0110
0000
,
0000
0000
1001
0000
0000
0000
0000
0000
1100
0000
1000
0001
0100
0000
0010
0000
,
0101
0000
0001
1000
0100
0000
0010
0000
0011
0000
0001
1000
0010
0000
0100
0000
,
1010
0000
1000
0001
0010
0000
0100
0000
0220
0000
0000
0000
0000
0000
0000
0000
,
0000
0000
0000
0000
,
0330
0000
0000
0000
1000
0001
0100
0001
1000
0010
0100
0001
1000
0100
0010
0001
,
0100
0000
0000
0000
0010
1000
0010
1000
0001
0100
0001
0100
0010
1000
0001
0010
,
0001
0000
1000
0000
0100
0010
0100
0010
0001
1000
0001
1000
0010
0000
0100
0001
,
1000
0000
0001
0000
0010
0100
0010
0100
1000
0100
0010
0100
1000
0001
0010
0001
,
1000
0000
0100
0000
1000
0010
0100
0001
0010
0100
1000
0001
0100
0000
0000
0000
,
0010
0000
0000
0000
1000
0100
1000
0001
0100
0001
1000
0100
1000
0000
0001
0010
,
0100
0010
0002
0203
2300
3200
0302
0023
,
2030
0000
3020
0000
0031
1000
0001
1000
0010
0100
0001
0100
0010
1000
0001
1000
,
0100
0010
0100
0000
0110
0000
1001
0000
,
0001
0100
0010
1000
0100
0010
0001
0100
0010
1000
0001
0010
0100
1000
0010
0100
,
0002
0003
0010
0000
0001
0001
1000
1000
0020
0130
0001
1000
0001
0100
0010
1000
,
0100
0000
0010
0000
0001
0000
0100
0000
0010
0000
1000
0000
0100
0000
0010
0000
0002
0000
0003
0000
1000
0001
1000
0001
0100
0000
0000
0000
0010
0000
0000
0000
,
2000
3100
1000
0010
0100
0001
0010
0001
1000
0100
0010
0001
0100
0000
0010
0000
,
2000
3200
0320
0032
0203
0320
2030
3002
0013
0100
1000
0010
0100
0001
0010
0100
,
1000
0000
0010
0000
1000
0000
0001
0000
0010
0000
0000
0000
0001
0000
0000
0000
1000
0000
0010
0100
0001
0000
0010
0100
1000
0000
0000
0000
0000
0000
0000
0000
,
1000
0100
0001
0100
1000
0001
1000
0010
0100
1000
0100
0010
1000
0001
1000
0010
,
0200
0000
0302
0000
0013
0010
0100
0100
2000
3001
0010
0100
0001
0100
0010
0001
,
1000
0000
0100
0000
0010
0000
1000
0000
0010
0000
0100
0000
1000
0000
0001
0000
0200
0000
0310
0000
1000
0001
0000
0100
0010
0000
1000
0001
0000
0100
0010
0000
,
2000
3100
0001
0100
1000
0001
0010
0100
1000
0010
0001
0010
1000
0001
0100
0010
,
2000
0000
3002
0000
0013
0010
0100
0100
2000
3100
0010
0001
0100
1000
0100
0001
,
1000
0010
0100
0001
0010
1000
0010
0001
2000
0000
3200
0000
0320
0000
0031
0000
,
1000
0000
1000
0000
0010
0000
1000
0000
0100
0010
0000
0010
0000
0000
0001
0000
,
2002
0000
0000
0000
,
0000
0000
0000
0000
3003
0000
1100
0100
,
1000
0010
0100
0000
0001
0000
0101
0000
0000
0000
0010
0000
1001
0000
0001
0000
,
0010
0000
0100
0000
1000
0100
0000
1100
0000
0000
0001
0000
0101
0000
0100
0000
,
0001
0010
0100
0000
1000
0000
1100
0000
0000
0000
0010
0000
0001
1000
0100
1000
,
0001
0000
0100
0001
0100
0010
0000
0110
0000
0000
1000
0000
1001
0000
0001
0010
,
0100
0000
0010
0000
1001
0000
1000
0010
0100
0000
0010
0000
1001
0000
1000
0100
,
0010
0000
0100
0000
1000
0001
0000
0101
0000
0000
1010
0000
2002
0000
0000
0000
,
0000
0000
0000
0000
,
0000
0000
0000
0000
3003
0000
0000
0000
0001
1000
0100
1000
0001
0100
0010
1000
,
0001
0010
0100
1000
0020
0000
0000
0000
0000
0000
0000
0000
0000
0000
0000
0000
,
0000
0000
0030
0000
;

//--------------- dance-double - forcednature ----------------
#NOTEDATA:;
#STEPSTYPE:dance-double;
#DESCRIPTION:forcednature;
#DIFFICULTY:Easy;
#METER:10;
#RADARVALUES:0,0,0,0,0;
#CREDIT:forcednature;
#NOTES:
00000000
00000000
00000000
00000000
,
00000000
00000000
00000000
00000000
,
00000000
00000000
00000000
00000000
,
00000000
00000000
00000000
00000000
,
00000000
00000000
00000000
00000000
,
00011000
00000000
00011000
00000000
,
00011000
00000000
00011000
00000000
,
00022000
00000000
00000000
00000000
,
00000000
00000000
00033000
01000000
,
00100000
00010000
00001000
00011000
,
00000000
00000100
00001000
00000010
,
00000100
00000001
00000010
00001000
,
00000000
00000010
00000001
00000100
,
00000001
00000100
00000010
00001000
,
00000000
00000100
00010000
00001000
,
00100000
00001000
00010000
00001000
,
00000000
01000000
00010000
00200000
,
02300000
23000000
30010000
10010000
,
10000000
00100000
01000000
00100000
,
00010000
00000000
00001000
00010000
00001000
00000000
00010000
00000000
,
00000100
00001000
00000100
00000020
,
00000032
00000103
00001001
00001000
,
00001000
00000001
00001000
00000000
00000100
00000000
00010000
00000000
,
00001000
01000000
00010000
00100000
,
00010000
00100000
00010000
00000000
01000000
00000000
00200000
00000000
,
20300000
30010000
10010000
00000000
,
00010000
00100000
00010000
00000000
00100000
00001000
00100000
00000000
,
00001000
00010000
00001000
00000000
00010000
00000000
00000000
00000000
,
00000100
00001000
00000100
00000000
00001000
00000010
00001000
00000000
,
00000010
00000100
00000010
00000000
00000100
00000000
00000001
00000000
,
00000010
00000000
00000010
00000000
00000200
00010300
00000000
00001000
,
00000000
00001000
00000000
00200000
00310000
00000000
01000000
00000000
,
01000000
00000000
00100000
10000000
,
00010000
10010000
10000000
01000000
,
00010000
00000000
00001000
00000000
00010000
00001000
00010000
00000000
,
00001000
00000100
00000000
00000001
,
00000100
00000000
00001000
00000000
00010000
00001000
00010000
00000000
,
00010000
00000000
00200000
10300000
00000000
00100000
10000000
00100000
,
00000000
10000000
00000000
01000000
00000000
00010000
00000000
00001000
,
00000000
00010000
00000000
00000000
00000000
00001000
00000000
00000100
,
00000000
00000001
00000000
00000100
00000000
00000010
00000000
00001000
,
00000000
00001001
00000000
00000001
00000000
00000010
00000000
00001000
,
00000000
00010000
00000000
00001000
00000000
00010000
00000000
00100000
,
00000000
10000000
00000000
01000000
00000000
00010000
00000000
00001000
,
00000000
00010000
00000000
00001000
00000000
00000100
00000000
00000001
,
00000000
00001000
00000000
00001001
00000000
00000001
00000000
00000100
,
00000000
00000010
00000000
00000110
00000000
00000100
00000000
00001000
,
00000000
00010000
00000000
00011000
00000000
00001000
00000000
00100000
,
00000000
00010000
00000000
01000000
00000000
00100000
00000000
10000000
,
00000000
10010000
00000000
00020000
00000000
00130000
00000000
02000000
,
00000000
13000000
00000000
00020000
00000000
02030000
00000000
03002000
,
00010000
00013000
00000000
00000200
00000000
00001300
00000000
00000010
,
00000010
00001000
00000000
00000002
00000000
00000013
00000000
00000100
,
00001000
00000001
00000000
00000000
00001001
00000000
00001001
00000000
,
00000000
00000000
00000000
00000000
00001000
00000100
00000000
00010000
,
00000000
00010000
00000000
00000000
00001000
00001000
00001000
00000000
,
00000000
00000000
00000000
00000000
01000000
00010000
00000000
00100000
,
00000000
00100000
00000000
00000000
00011000
00000000
00000000
00000000
,
00011000
00000000
00011000
00000000
,
00011000
00000000
00022000
00000000
,
00000000
00000000
00000000
00000000
,
00033000
01000000
00100000
00010000
,
00011000
00000100
00000100
00001000
,
00000010
00001000
00000000
00000001
00000000
00000001
00000000
00000100
,
00000001
00000010
00000100
00010000
,
00010000
00001000
00000000
01000000
00000000
00010000
00000000
00100000
,
01000000
10000000
10000000
00100000
,
01000000
00010000
00000000
00100000
00000000
00100000
00000000
00001000
,
00010000
00000010
00001000
00000010
,
00000100
00000001
00001001
00000110
,
00001000
00000100
00001000
00000000
00000100
00010000
00000100
00000000
,
00020000
00000000
00032000
00000000
01003000
00010000
01000000
00000000
,
00010000
00100000
00010000
00000000
02000000
00000000
03020000
00000000
,
10030000
00100000
10000000
00000000
01000000
10000000
01000000
00000000
,
00200000
00000000
00302000
00000000
00013000
00001000
00010000
00000000
,
00000100
00001000
00000100
00000000
00002000
00000001
00003001
00000000
,
00001000
00000010
00000100
00000000
00000001
00000010
00000100
00000000
,
00020000
00000000
00032000
00000000
01003000
00010000
00100000
00000000
,
01000000
10000000
00010000
00000000
00200000
02300000
03200000
02300000
,
03100000
00001000
00010000
00000000
00000100
00001000
00000001
00000000
,
00000200
00000000
00000320
00000000
00000130
00001000
00010000
00000000
,
00001000
00010000
00100000
00000000
20000000
00010000
30010000
10010000
,
00020000
01000000
01000000
00030000
,
00022000
00000000
00000000
00000000
,
00000000
00000000
00033000
00001000
,
00000010
00000000
00000000
00000001
00000000
00000000
00001001
00000000
,
00001000
00000100
00000000
00010000
,
00001000
00000000
00000000
00011000
00000000
00000000
00010000
00000000
,
00100000
01000000
00001000
00011000
,
00000000
00011000
00000000
00011000
,
00000000
00011000
00000000
00022000
,
00000000
00000000
00000000
00000000
,
00000000
00033000
01000000
00100000
,
00010000
00022000
00000000
00000000
,
00000000
00000000
00033000
00000000
;

//--------------- dance-double - forcednature ----------------
#NOTEDATA:;
#STEPSTYPE:dance-double;
#DESCRIPTION:forcednature;
#DIFFICULTY:Medium;
#METER:14;
#RADARVALUES:0,0,0,0,0;
#CREDIT:forcednature;
#NOTES:
00000000
00000000
00000000
00000000
,
00000000
00000000
00000000
00000000
,
00000000
00000000
00000000
00000000
,
00000000
00000000
00000000
00000000
,
00000000
00000000
00000000
00000000
,
00011000
00000100
00011000
01000000
,
00011000
00000000
00000000
00000000
00000010
00000000
00000000
00000000
00010000
00000000
00000000
00010000
00000000
00000000
00001000
00000000
,
00022000
00000000
00000000
00000000
,
00000000
00000000
00000000
00000000
00033000
00000000
01000000
00010000
,
00100000
00001000
00010000
00000010
00001010
00000000
00001000
00000000
,
00000100
00000010
00000100
00001000
00000001
00000000
00000100
00000010
,
00000100
00001000
00010000
00000010
00010000
00000000
00001000
00000000
,
00001000
00100000
00010000
01000000
00010000
00000000
10000000
01000000
,
00100000
00001000
01000000
00010000
10000000
00000000
01000000
01000000
,
01000000
00010000
00001000
00000000
00000100
00000000
00000001
00000010
,
00000100
00010000
00000010
00001000
00000001
00000000
00000010
00000000
,
00001000
00010000
00001000
00100000
01000000
00000000
10000000
10000000
,
00010000
00010000
01000000
00000000
01100000
00000000
10010000
00000000
,
10000000
01000000
00100000
01000000
00010000
00000000
00001000
00000010
,
00001000
00000010
00000001
00001000
00000100
00000000
00000010
00000001
,
00000100
00000001
00000000
00000001
00001000
00000000
00000200
00000000
,
00020300
00000000
00031000
00010000
00011000
00000000
00000010
00000010
,
00000010
00001000
00000010
00000000
00001001
00000000
00000001
00000100
,
00001000
00000100
00000001
00000000
00000010
00000000
00000200
00000000
,
00010300
00000000
00001000
00000000
00010000
00000000
00001000
00000000
00100000
00000000
00000000
00000000
01000000
00000000
00000000
10000000
,
01000000
00000000
00000000
00100000
00010000
00000000
00000000
00000000
10010000
00000000
00000000
00000000
11000000
00000000
00000000
00000000
,
10000000
01000000
00100000
01000000
00010000
01000000
00010000
00001000
,
00000010
00000100
00000010
00000001
00000010
00000000
00000000
00000000
,
00000001
00000100
00000010
00000100
00001000
00000100
00001000
00010000
,
00100000
01000000
00100000
10000000
00100000
00000000
10010000
00000000
,
10000000
01000000
00010000
00000000
00002000
00003010
00000000
00000001
,
00000010
00001000
00000000
00020000
00031000
00001000
00010000
00001000
,
00010000
00000000
00100000
00000000
01000000
00100000
00010000
00001000
,
00010000
00000000
00011000
00000000
00001000
00000010
00001000
00000000
,
00011000
00000000
00000000
00000000
00010100
00000000
00000000
00000000
00000100
00000000
00000000
00001000
00000010
00000000
00000000
00000000
,
00000100
00000001
00000100
00001000
00000000
00010000
00001000
00010000
,
00100000
00000000
00000000
00000000
10000000
00000000
00000000
00000000
01000000
00000000
00000000
00100000
01000000
00000000
00000000
00000000
,
00100000
00001000
00020000
00030100
00001000
00001000
00000100
00000010
,
00000001
00000100
00000000
00000010
00001000
00000100
00010000
00001000
,
01000000
00000000
00010000
00000000
00000000
00000000
00100000
00000000
00000000
00010000
00100000
00000000
00000000
00000000
01100000
00000000
,
00000000
10010000
00000000
00020000
00000000
00230000
00000000
00301000
,
00010000
00001000
00010000
00000000
00000000
00000000
00011000
00000000
00000000
00000000
00000010
00000000
00000000
00000000
00011000
00000000
,
00000000
00000100
00000000
00010000
00001000
00001000
00100000
00010000
,
01000000
00001000
00000000
00011000
00000000
00100000
00000000
00011000
,
00000000
01000000
00000000
00001000
00010000
00010000
00000010
00001000
,
00000100
00010000
00000000
00002000
00000000
00000010
00000000
00023000
,
00000000
00100000
00000000
00032000
00000000
00000100
00000000
00023000
,
00000000
01000000
00000000
00031000
00100000
00010000
01000000
00001000
,
00000000
00000000
00010000
00000000
00000010
00000000
00001000
00000000
00000000
00000100
00001000
00000000
00000001
00000000
00000100
00000000
,
00000010
00000100
00000010
00000000
00000000
00000000
00002002
00000000
00000000
00000000
00003003
00000000
00000000
00000000
00001000
00000000
,
00000100
00010000
00000000
00002000
00000000
00103000
00000000
00010000
,
10000000
00100000
00000000
01000000
00010000
02000000
00000000
03001000
,
00010000
00002000
00000000
00003010
00000100
00000020
00000000
00000031
,
00001000
00001001
00000000
00000000
00001100
00000000
00001100
00000000
,
00000000
00000000
00000000
00000000
00010000
00001000
00000000
00010000
,
00000000
00011000
00000000
00000000
00100000
00010000
00110000
00000000
,
00000000
00000000
00000000
00000000
00001000
00010000
00000000
00001000
,
00000000
00011000
00000000
00000000
00011000
00000000
00000100
00000000
,
00011000
01000000
00011000
00000100
,
00011000
01000000
00022000
00000000
,
00000000
00000000
00000000
00000000
,
00033000
00000000
01000000
00010000
00100000
00001000
00010000
00000010
,
00001010
00000000
00000101
00000000
00000101
00000000
00000001
00000010
,
00000100
00000010
00000100
00010000
00001000
00100000
00001000
00010000
,
00001000
00000000
01000000
00010000
01000000
00100000
10000000
01000000
,
00100000
00000000
00010000
00000000
01000000
00000000
00000000
00001000
00010000
00000000
00000100
00000000
00010000
00000000
00000000
00000000
,
00001000
00000000
00011000
00000000
00011000
00000000
00010000
00100000
,
01000000
00100000
10000000
01000000
00100000
00010000
01000000
00001000
,
00010000
00000000
00000100
00001000
00000010
00000100
00000001
00000010
,
00001000
00000000
00000000
00000000
00010000
00000000
00000000
00010000
00001000
00000000
00000000
00100000
00010000
00000000
00000000
00000000
,
10000000
01000000
00100000
00010000
00001000
00000100
00000010
00000001
,
00000200
00000000
00000302
00002003
00003001
00000010
00000100
00001000
,
00010000
00100000
01000000
10000000
00020000
00000000
20030000
32000000
,
13000000
00100000
01000000
00010000
00001000
00000010
00000100
00000001
,
00000020
00000000
00000230
00000320
00000031
00000100
00000010
00001000
,
00010000
01000000
00100000
10000000
02000000
03100000
10010000
00000000
,
00010000
00100000
00010000
00000000
00100000
00000000
00001000
00000000
00010000
00001000
00010000
00000000
00000100
00000000
00001000
00000000
,
00000020
00000000
00000100
00000000
00000230
00000000
00000001
00000000
00000301
00001000
00000001
00000000
00001000
00000000
00000100
00000000
,
00010000
00000000
00001000
00000000
00010000
00000000
00000000
00000000
00001000
00000000
00000000
00000000
00100000
00000000
00000000
00000000
00000000
00000000
00010000
00000000
00000000
01000000
00000000
00000000
00010000
00000000
00000000
01000000
00000000
00000000
00010000
00000000
,
01000000
00100000
01000000
00000000
00100000
00000000
10000000
00000000
01000000
10000000
01000000
00000000
10000000
00000000
00010000
00000000
,
00200000
00000000
00302000
00000000
00023000
00000000
00030200
00000000
00001300
00000001
00001000
00000000
00000010
00000000
00001000
00000000
,
00000001
00000100
00000001
00000000
00000100
00000000
00000010
00000000
00002000
00000000
00003200
00000000
00010300
00000000
00011000
00000000
,
00002000
00000000
00000000
00000000
00100000
00000000
00000000
00000000
00010000
00000000
00000000
00013000
00000000
00000000
00001000
00000000
,
00022000
00000000
00000000
00000000
,
00000000
00000000
00033000
00101000
,
00001000
00000000
00010000
00000000
00000000
00000000
00022000
00000000
00000000
00033000
00000000
00000000
00001000
00000000
00000010
00000000
,
00000001
00000000
00000010
00000000
00000100
00000000
00000000
00000100
00000000
00000000
00000000
00000000
00001100
00000000
00000000
00000000
,
00010000
00000000
00001000
00000000
00000000
00000000
00220000
00000000
00000000
00330000
00000000
00000000
00010000
00000000
00010000
00000000
,
01000000
00000000
00010000
00000000
00100000
00000000
00000000
00100000
00000000
00000000
00001000
00000000
00011000
00000000
00000000
00000000
,
01000000
00011000
00000100
00011000
,
01000000
00000000
00000000
00000000
00001000
00000000
00000000
00001000
00000000
00000000
00010000
00000000
00022000
00000000
00000000
00000000
,
00000000
00000000
00000000
00000000
,
00000000
00000000
00033000
00000000
01000000
00010000
00100000
00001000
,
00010000
00000010
00002020
00000000
00000000
00000000
00000000
00000000
,
00000000
00000000
00003030
00000000
;

//--------------- dance-double - forcednature ----------------
#NOTEDATA:;
#STEPSTYPE:dance-double;
#DESCRIPTION:forcednature;
#DIFFICULTY:Hard;
#METER:17;
#RADARVALUES:0,0,0,0,0;
#CREDIT:forcednature;
#NOTES:
00000000
00000000
00000000
00000000
,
00000000
00000000
00000000
00000000
,
00000000
00000000
00000000
00000000
,
00000000
00000000
00000000
00000000
,
00000000
00000000
00000000
00000000
,
00011000
00100000
00011000
00000010
,
00011000
00000000
00000000
00000000
01000000
00000000
00000000
00000000
00001000
00010000
00000000
00001000
00000000
00000000
00010000
00000000
,
00022000
00000000
00000000
00000000
,
00000000
00000000
00000000
00000000
00000000
00000000
00000000
00000000
00033000
00000000
00000000
00000000
00000100
00001000
00000100
00010000
,
00001000
00100000
00010000
00100000
01000000
10000000
00100000
01000000
00020000
00000000
00000000
00000000
00130000
00000000
00001000
00000000
,
00001000
00010000
00001000
00001000
00010000
00000100
00002000
00003020
,
00000230
00002300
00023000
00230000
02300000
03020000
10030000
00100000
,
00100000
00000000
00010000
00000000
00100000
00000000
00100000
00000000
10000000
00000000
00010000
00000000
01000000
00000000
00010000
01000000
,
00010000
00000000
00100000
00001000
00100000
00000000
00000000
00000000
00011000
00000000
00000000
00000000
00000010
00000000
00000010
00000000
,
00000010
00000000
00001000
00000000
00000001
00000000
00000000
00000001
00000010
00000000
00000001
00000000
00002000
00000000
00003200
00000000
,
00000320
00002030
00023000
02030000
03200000
00320000
10030000
00000000
,
00100000
00000000
00100000
00000000
01000000
00000000
00000000
00010000
01000000
00000000
00001000
00000000
00010000
00001000
00010000
00000000
,
00000100
00001000
00000100
00000000
00000010
00000001
00001000
00000001
00000010
00000000
00000000
00000000
00000110
00000000
00000000
00000000
,
00010100
00000000
00000000
00000000
00010000
00000000
00001000
00000000
00100000
00000000
00010000
00100000
01000000
00000000
10000000
00000000
,
00100000
00000000
10000000
00000000
01000000
00000000
00100000
00000000
01000000
00000000
00010000
00000000
00001000
00010000
00001000
00010000
,
00001000
00000000
00010000
00000000
00000010
00000000
00001000
00000010
00001000
00000000
00000001
00000000
00000010
00000000
00000100
00000000
,
00001000
00000100
00010000
00001000
00100000
00000000
00010000
00000000
01010000
00000000
00000000
00000000
10000000
00000000
10000000
00000000
,
10000000
00000000
00100000
00000000
00010000
00000000
00100000
00000000
10000000
00000000
00010000
00000000
01000000
00000000
00001000
00010000
,
00001000
00000000
00010000
00000100
00010000
00000000
00000100
00001000
00000100
00000000
00000010
00000000
00000001
00001000
00000001
00000100
,
00000010
00000000
00001000
00000000
00000100
00001000
00000100
00000000
00020000
00000000
00000000
00000000
00031000
00010000
00001000
00000000
,
00100000
00010000
00100000
00000000
01000000
10000000
01000000
10000000
00010000
00000000
00000000
00000000
10010000
00000000
00000000
00000000
,
10000000
01000000
00100000
00000000
01000000
00100000
00010000
00000000
00100000
00001000
00010000
00000000
00001000
00010000
00000100
00000000
,
00001000
00000100
00000010
00000000
00000001
00000000
00001000
00000000
00001100
00000000
00000000
00000000
00001001
00000000
00000000
00000000
,
00000001
00000100
00000010
00000000
00000100
00000010
00001000
00000000
00000010
00010000
00001000
00000000
00010000
00001000
01000000
00000000
,
00010000
01000000
00100000
00000000
10000000
00000000
01000000
00000000
11000000
00000000
00000000
00000000
10010000
00000000
00000000
00000000
,
10000000
01000000
00100000
00000000
01000000
00100000
00001000
00000000
00020000
00000000
00031000
00010000
00000100
00000000
00001000
00000100
,
00000010
00000000
00000001
00000000
00001000
00000000
00000020
00000000
00000130
00000001
00000100
00000001
00000100
00000000
00001000
00000000
,
00010000
00000000
00001000
00010000
00001000
00000000
00000000
00000000
00100000
00010000
10000000
00000000
00100000
10000000
00010000
00000000
,
01000000
00000000
00100000
00000000
01100000
00000000
00000000
00000000
01000000
00000000
00001000
00010000
00001000
00000000
00010000
00000000
,
00000100
00000000
00000010
00000000
00000100
00000000
00001000
00000000
00000001
00000100
00000010
00000100
00000001
00000000
00001000
00000000
,
00000100
00000000
00000010
00000000
00001000
00000000
00010000
00000000
00000000
00000000
00001000
00100000
00001000
00000000
00010000
00000100
,
00010000
00000000
00001000
00000000
01000000
00000000
00010000
00000000
00100000
01000000
10000000
01000000
00100000
00000000
00010000
00000000
,
00100000
00001000
00010000
00000000
00002000
00000000
00013000
00000000
00000100
00001000
00000100
00000000
00000010
00000000
00000001
00000000
,
00000100
00000000
00000010
00000000
00000000
00000000
00001000
00000100
00001000
00000100
00001000
00000000
00000010
00000000
00010000
00000000
,
00001000
00000000
00100000
00000000
00001000
00000000
00000000
00000000
01000000
00010000
01000000
00000000
00100000
10000000
00100000
00000000
,
01000000
00000000
00001000
00000000
00010000
00000000
00000100
00001000
00000001
00000000
00000100
00000001
00001000
00000000
00000100
00000010
,
00000100
00001001
00000000
00000001
00000100
00001000
00010000
00000100
,
00000010
00001000
00010000
00011000
00000000
00001000
00100000
01000000
,
00100000
00000000
00001000
00000000
00000000
00000000
00010000
00000000
00100000
00000000
10000000
00100000
10000000
00000000
01000000
00000000
,
00100000
00000000
00010000
10000000
00010000
00000000
01000000
00000000
00001000
00000000
00010000
00000000
00000100
00000000
00010000
00001000
,
00010000
00010000
00000010
00002000
00000000
00000100
00000000
00000001
,
00000000
00000010
00000000
00023000
00000000
01000000
00000000
10000000
,
00000000
00000000
00100000
00000000
00000000
00000000
00031000
00000000
00000100
00000000
00001000
00000001
00001000
00000000
00000001
00000000
,
00000100
00000000
00000010
00000100
00000010
00000000
00001000
00000000
00000100
00010000
00001000
00000000
00100000
00010000
10000000
00000000
,
00100000
01100000
00000000
20000000
00000000
00200000
30300000
00002000
,
00000000
02000000
03003000
00002000
00023000
00032000
00003200
00000320
,
00002030
00003002
00000003
00000200
00000010
00002300
00010000
00203000
,
02300000
23000000
30000000
00200000
00320000
00032000
00023000
00030200
,
00002300
00003010
00000000
00000000
00001001
00000000
00001001
00000000
,
00000000
00000000
00000000
00000000
00010000
00011000
00000000
00010100
,
00000000
00101000
00000000
00000000
00010000
10000000
10010000
00000000
,
00000000
00000000
00000000
00000000
00000000
00000000
00000000
00000000
00010000
01000000
00010000
00000000
00000000
00000000
00110000
00000000
,
00000000
00101000
00000000
00000000
00011000
00000000
00100000
00000000
,
00011000
00000010
00011000
01000000
,
00001000
00010000
00000000
00010000
00000000
00000000
00001000
00000000
00022000
00000000
00000000
00000000
00000000
00000000
00000000
00000000
,
00000000
00000000
00000000
00000000
,
00033000
00000000
00000000
00000000
01000000
00010000
01000000
00001000
00010000
00000010
00001000
00000010
00000100
00000001
00000010
00000100
,
00002000
00000000
00000000
00000000
00003001
00000100
00000001
00000000
00001000
00000100
00001000
00000000
00000010
00000000
00010000
00000000
,
00001000
00000000
00100000
00000000
00010000
10000000
00010000
10000000
00010000
00000000
01000000
00000000
00100000
00000000
10000000
00000000
,
01000000
00000000
00000000
00000000
00100000
00001000
00010000
00000100
00010000
00000000
00001000
00000000
00010000
00000010
00001000
00000010
,
00010000
00000000
00001000
00000000
00100000
00000000
00010000
01000000
00100000
00000000
10000000
01000000
00100000
00000000
00000000
00000000
,
00001000
00000000
00000000
00000000
00011000
00000000
00010000
00000100
00001000
00000000
00000010
00010000
00001000
00000000
00001000
00000000
,
01000000
00001000
00020000
00230000
00320000
00032000
00003020
00002030
,
00023000
00000000
00032000
00000000
00103000
00010000
00100000
00010000
10000000
01000000
10000000
01000000
00100000
00000000
00010000
00100000
,
00001000
00000000
00010000
00000000
00000010
00000000
00001000
00000001
00000010
00000000
00000100
00001000
00000010
00000000
00000000
00000000
,
00000100
00000001
00000100
00000001
00001000
00000010
00001000
00000010
00010000
00001000
00010000
00001000
01000000
00010000
01000000
00010000
,
20000000
00000000
32000000
00000000
03100000
00010000
10000000
00000000
01000000
10000000
01000000
10000000
00010000
00100000
00010000
00100000
,
00001000
00000000
00010000
00000000
00001000
00000000
00010000
00000000
00000100
00000000
00001000
00000000
00000100
00000000
00001000
00000000
00000010
00000000
00000000
00000100
00000010
00000000
00001000
00000001
00000010
00000000
00000000
00000000
00000100
00000000
00000000
00000000
,
00001000
00000010
00001000
00000010
00010000
00001000
00010000
00001000
01000000
00010000
01000000
00010000
10000000
00000000
00100000
00000000
,
20000000
32000000
03200000
00320000
00032000
00003200
00000320
00000032
00000103
00000010
00000100
00000010
00001000
00000100
00001000
00000100
,
00010000
00000000
00001000
00000000
00100000
00000000
00010000
00000000
00100000
00000000
00000000
00000000
01000000
00000000
00000000
00000000
00100000
00000000
00000000
00001000
00010000
00000000
00000000
00000100
00000010
00000000
00000000
00000000
00000000
00000000
00000000
00000000
,
00000001
00000100
00000001
00000100
00000010
00001000
00000010
00010000
00001000
01000000
00010000
01000000
00100000
10000000
00100000
10000000
,
00020000
00000000
00000000
00000000
00230000
00000000
00000000
00000000
00301000
00000000
01000000
00010000
01000000
00000000
00010000
00000000
10000000
00000000
01000000
00000000
10000000
00000000
01000000
00000000
00100000
00000000
00010000
00000000
00100000
00000000
00001000
00000000
,
00010000
00000000
00000100
00000000
00001000
00000000
00000100
00000000
00000010
00000000
00000001
00000000
00000010
00000000
00000001
00000000
00001000
00000000
00000010
00000000
00010000
00001000
00000000
00010000
00000100
00000000
00010000
00001000
00000000
00010000
00000100
00000000
,
00000010
00000001
00000010
00000001
00001000
00000100
00010000
00001000
00100000
00010000
00100000
00010000
10000000
01000000
00100000
00010000
,
02000000
00000000
03200000
00000000
00310000
00001000
01000000
00010000
10000000
01000000
10000000
01000000
00100000
00001000
00010000
00000100
,
00000010
00000001
00000010
00000001
00000100
00000010
00001000
00000001
00000200
00000000
00002300
00000000
00013000
00000000
00011000
00000000
,
00001000
00000000
00001000
00000000
01000000
00000000
00001000
00000000
00010000
00000100
00000000
00000100
00000000
00000000
00010000
00000000
,
00022000
00000000
00000000
00000000
,
00000000
00000000
00000000
00000000
00033000
00000000
00001000
00000010
,
00000001
00000010
00000000
00000110
00000000
00000100
00010000
00001000
,
00100000
00000000
00010000
00000000
01000000
00100000
00000000
01100000
00000000
00000000
01000000
00000000
00010000
00000000
00100000
00000000
,
10000000
00000000
00100000
00000000
00000000
00000000
01100000
00000000
00000000
00000000
01000000
00000000
10000000
00010000
10000000
00010000
,
10000000
00000000
00100000
00000000
01000000
00001000
00000000
00001000
00000000
00000000
00010000
00000000
00011000
00000000
00000000
00000000
,
00000010
00011000
00100000
00011000
,
00000100
00000000
00000000
00000000
00010000
00001000
00000000
00001000
00000000
00000000
00010000
00000000
00022000
00000000
00000000
00000000
,
00000000
00000000
00000000
00000000
,
00000000
00000000
00000000
00000000
00033000
00000000
00000000
00000000
00000100
00001000
00000100
00010000
00001000
00100000
00010000
00100000
,
01000000
10000000
00100000
01000000
00020000
00000000
00000000
00000000
00000000
00000000
00000000
00000000
00000000
00000000
00000000
00000000
,
00000000
00000000
00030000
00000000
;

//--------------- dance-double - forcednature ----------------
#NOTEDATA:;
#STEPSTYPE:dance-double;
#DESCRIPTION:forcednature;
#DIFFICULTY:Challenge;
#METER:18;
#RADARVALUES:0,0,0,0,0;
#CREDIT:forcednature;
#NOTES:
00000000
00000000
00000000
00000000
,
00000000
00000000
00000000
00000000
,
00000000
00000000
00000000
00000000
,
00000000
00000000
00000000
00000000
,
00000000
00000000
00000000
00000000
,
00011000
00000000
00010000
00100000
01100000
00000000
00100000
00010000
,
00011000
00000000
00000000
00000000
00001000
00000000
00000010
00000000
00000001
00000010
00000000
00000110
00000000
00000000
00000100
00000000
,
00002002
00000000
00000000
00000000
,
00000000
00000000
00000000
00000000
00000000
00000000
00000000
00000000
00003003
00000000
00000000
00000000
00000001
00000100
00000010
00001000
,
00000100
00010000
00001000
00100000
00010000
01000000
00100000
10000000
01000000
00000000
00000000
00000000
10010000
00000000
00000000
00000000
,
00010000
00000000
00100000
00000000
01000000
00000000
00100000
01000000
10000000
00000000
00100000
00000000
20000000
00000000
32000000
00000000
,
03020000
00032000
00003200
00002300
00023000
02030000
13000000
00000000
,
00100000
00000000
01000000
00000000
00010000
00000000
00100000
01000000
10000000
00000000
01000000
00000000
00010000
00000000
00001000
00010000
,
00000100
00000000
00010000
00001000
00100000
00010000
00100000
00000000
00001000
00000000
00010000
00000000
00000010
00000000
00000010
00001000
,
00000001
00000000
00000001
00000100
00000010
00000000
00000000
00000000
00001000
00000000
00000100
00010000
00002000
00000000
00203000
00000000
,
02300000
00000000
23000000
00000000
32000000
00000000
03200000
00000000
00302000
00000000
00023000
00000000
00030100
00000000
00000000
00001000
,
00000100
00000000
00001000
00000010
00000100
00000000
00000001
00000010
00000100
00000000
00010000
00000000
00000020
00000000
00002030
00000000
,
00023000
00000000
02030000
00000000
03010000
00100000
01000000
10000000
00100000
00000000
00000000
00000000
10010000
00000000
00000000
00000000
,
00020000
00000000
01000000
00000000
00230000
00000000
00001000
00000000
00310000
00000000
01000000
00001000
00020000
00000000
00000100
00000000
,
00032000
00000000
00000010
00000000
00013000
00001000
00010000
00000000
00011000
00000000
00001000
00000010
00000001
00000000
00000010
00000100
,
00000010
00000100
00001000
00000100
00000001
00000000
00000100
00000000
00010000
00000000
00001000
00000000
01000000
00000000
01000000
00000000
,
01000000
00100000
10000000
00010000
01000000
00000000
00100000
00000000
00010000
00000000
00000000
00000000
00011000
00000000
00000100
00000000
,
00011000
00000000
00000010
00000000
00011000
00000000
00000000
00010000
00001000
00000000
00100000
00010000
01000000
00000000
00100000
10000000
,
00010000
00100000
00010000
10000000
01000000
00000000
00010000
00001000
00010000
00000000
00001000
00000000
00000010
00000100
00000010
00000001
,
00000100
00000000
00001000
00000000
00001000
00000000
00000100
00000000
00020000
00000000
02030000
00000000
03100000
10000000
00010000
00000000
,
00100000
00010000
10000000
00000000
01000000
00100000
00001000
00010000
00001000
00000000
00000000
00000000
00011000
00000000
00000000
00000000
,
00010000
00000100
00001000
00000010
00001000
00000100
00010000
00001000
01000000
00010000
00100000
00001000
01000000
00100000
01000000
00010000
,
00100000
00001000
00100000
00010000
00001000
00000000
00000100
00000000
00001000
00000000
00000010
00000000
00010000
00000000
00000000
00000000
,
00001000
01000000
00010000
00100000
00010000
01000000
00001000
00010000
00000100
00001000
00000010
00010000
00000100
00000010
00000100
00001000
,
00000010
00010000
00000010
00001000
00010000
00000000
01000000
00000000
00010000
00000000
00000000
00000000
10010000
00000000
00000000
00000000
,
00010000
01000000
00001000
00010000
00000100
00001000
00000100
00000010
00000002
00000000
00000103
00000010
00010000
00001000
00100000
00001000
,
00010000
01000000
00100000
00000000
01000000
00000000
20000000
00000000
30100000
01000000
00000000
01000000
00100000
00010000
00001000
00010000
,
00000100
00001000
00000100
00010000
00000010
00000000
00000000
00000000
00000100
00000010
00000100
00001000
00010000
00001000
00010000
00100000
,
01000000
00000000
00100000
00000000
10010000
00000000
00000000
00000000
10000000
00000000
01000000
10000000
01000000
00000000
00010000
00000000
,
01000000
00000000
00001000
00000000
00000100
00000000
00001000
00000000
00000010
00000100
00001000
00000100
00000010
00000000
00000100
00000000
,
00000001
00000000
00000010
00000000
00001000
00000000
00010000
00000000
00000000
00000000
00100000
00010000
00100000
00000000
00010000
00001000
,
00010000
00000000
00001000
00000010
00001000
00000000
00010000
00000000
00001000
01000000
00010000
01000000
00001000
00000000
00100000
00000000
,
01000000
10000000
01000000
00000000
20000000
00000000
30100000
00000000
00010000
00100000
10000000
00000000
00010000
00000000
01000000
00000000
,
00001000
00000000
00001000
00000000
00000000
00000000
00010000
00000010
00001000
00000010
00000100
00000000
00001000
00000000
00000100
00000000
,
00000001
00000000
00000010
00000000
00000100
00000000
00000100
00000000
00001000
00000100
00010000
00000000
00001000
01000000
00010000
00000000
,
00100000
00001000
00010000
00000000
00001000
00000000
00010000
00100000
00010000
00000000
00001000
00000010
00001000
00000000
00010000
00001000
,
00010000
00011000
00000000
00001000
00000010
00000001
00000100
00010000
,
00000100
00000000
00000001
00000000
00000010
00000000
00001000
00010000
00001000
00000000
00100000
00010000
00100000
00000000
00001000
00010000
,
00000100
00001000
00000010
00010000
00100000
10000000
01000000
00001000
,
01000000
00000000
10000000
00000000
00100000
00000000
00010000
00000000
00002000
00000000
01000000
00000000
00010000
00000000
00103000
00010000
,
00100000
00000000
00001000
00000000
00010000
00000100
00002000
00000000
00000100
00000000
00003001
00000000
00001000
00000000
00020000
00000000
,
01000000
10030000
00010000
00002000
00000010
00003001
00001000
00020000
,
00100000
00000000
10030000
00000000
00010000
00000000
10010000
00000000
00000000
10000000
01000000
10000000
00010000
00100000
00010000
00000000
,
00001000
00000000
00000100
00001000
00000010
00000000
00000100
00000000
00000001
00000010
00000100
00001000
00000100
00010000
00001000
00100000
,
00010000
10000000
00100000
00000000
00000000
00000000
02000000
00000000
03020000
00000000
00230000
00000000
00300000
00000000
00000200
00000000
,
00002300
00003020
00000030
00000200
00020300
02030000
03002000
00203000
,
02300000
00000000
23000000
00000000
30000000
00000000
02000000
03020000
00032000
00023000
00030020
00000030
00000000
00000000
00000200
00002300
,
00023000
00000000
00032000
00000000
00203000
00000000
00300000
00000000
02000000
00000000
03000000
00000000
10000000
00100000
01000000
00000000
00010000
00000000
00100000
00000000
01000000
00000000
00010000
00000000
00001000
00000000
00000000
00000000
00000010
00000000
00000100
00001000
,
00000010
00000000
00000100
00000001
00001000
00000000
00000000
00000000
00000000
00000000
00000000
00000000
00000000
00000000
00000000
00000000
00001001
00000000
00000000
00000000
00000000
00000000
00000000
00000000
00001001
00000000
00000000
00000000
00000000
00000000
00000000
00000000
,
00000000
00000000
00000000
00000000
00011000
00011000
00000000
00010010
,
00000000
00101000
00000000
00000000
10010000
10010000
10010000
00000000
,
00000000
00000000
00000000
00000000
00000000
00000000
00000000
00000000
00001000
00010000
00011000
00000000
00000000
00000000
01001000
00000000
,
00000000
00000000
00010100
00000000
00000000
00000000
00000000
00000000
00001100
00000000
00001000
00000010
00000100
00000000
00000001
00000000
,
00000011
00000000
00000010
00000100
00010000
00000000
00001000
00000000
00011000
00000000
00010000
00100000
01000000
00000000
00100000
00000000
,
10010000
00000000
10000000
01000000
00100000
00000000
00001000
00000000
00220000
00000000
00000000
00000000
00000000
00000000
00000000
00000000
,
00000000
00000000
00000000
00000000
,
00330000
00000000
00000000
00000000
10000000
00100000
01000000
00010000
00100000
00001000
00010000
00000100
00001000
00000010
00000100
00000001
,
00000010
00000000
00000000
00000000
00000100
00001000
00000100
00010000
00000100
00001000
00000100
00000010
00000001
00000100
00000010
00010000
,
00001000
00000000
00001000
00000000
00010000
00100000
01000000
00100000
10000000
00100000
01000000
00100000
00010000
00000000
00001000
00010000
,
00001000
00000000
00000100
00000000
00000001
00000010
00000100
00000010
00000001
00001000
00000100
00000010
00001000
00010000
00001000
00100000
,
00010000
00000000
10000000
00000000
01000000
00100000
00010000
01000000
00001000
00010000
00000010
00001000
00000100
00000000
00000000
00000000
,
00000010
00000000
00000000
00000000
00000001
00000100
00000010
00001000
00000100
00000010
00000100
00001000
00000010
00000000
00010000
00001000
,
00010000
00001000
02000000
03200000
00320000
00032000
00003200
00002300
,
00023000
00000000
00230000
00000000
10300000
01000000
00100000
01000000
00010000
01000000
00100000
01000000
10000000
00010000
00100000
00001000
,
00010000
00000010
00001000
00000000
00010100
00000000
00001001
00000000
,
00000001
00000100
00000001
00000100
00000010
00001000
00000010
00001000
00010000
01000000
00100000
10000000
00100000
01000000
00010000
10000000
,
02000000
03000000
00020000
00030000
00001000
00001000
00100000
00010000
01000000
00100000
01000000
00100000
00010000
00001000
00010000
00001000
,
00000100
00000000
00000010
00000000
00000100
00000000
00000001
00000000
00001000
00000000
00000010
00000000
00000100
00000000
00000001
00000000
00000020
00000000
00000030
00000000
00000100
00001000
00000100
00010000
00001000
00000000
00000000
00000000
00000100
00000000
00000000
00000000
,
00000001
00000010
00000001
00000010
00000100
00001000
00000100
00001000
00010000
00100000
01000000
10000000
00100000
00000000
01000000
00000000
,
20000000
32000000
03020000
00230000
00302000
00023000
00030020
00002030
00003001
00000100
00000001
00000010
00000100
00010000
00000100
00001000
,
00000010
00000000
00010000
00000000
00001000
00000000
00010000
00000000
00100000
00000000
00000000
00000000
01000000
00000000
00000000
00000000
10000000
00000000
01000000
00010000
01000000
00000000
00010000
00100000
00001000
00000000
00000000
00000000
00000000
00000000
00000000
00000000
,
00010000
00100000
00010000
00100000
10000000
00100000
00010000
00001000
00010000
00000100
00001000
00000100
00010000
00000010
00001000
00000001
,
00000200
00000000
00002300
00000000
00013000
00010000
00100000
10000000
02000000
03100000
00010000
01000000
00001000
00010000
00000100
00001000
,
00000010
00000000
00000100
00000000
00001000
00000000
00010000
00000000
00001000
00000000
00000100
00000000
00000010
00000000
00001000
00000000
00000002
00000000
00001003
00000000
00000100
00000010
00000000
00001000
00010000
00000000
01000000
00100000
00000000
00001000
00010000
00000000
,
00000020
00001030
00000001
00000010
00000100
00000010
00001000
00010000
00000100
00010000
00001000
00100000
00010000
01000000
00001000
00010000
,
00200000
00000000
20300000
00000000
31000000
01000000
00010000
00001000
00000020
00000031
00000100
00000010
00000100
00001000
00010000
00100000
,
10000000
00100000
01000000
00001000
00100000
01000000
00010000
00001000
00200000
00000000
00320000
00000000
00032000
00000000
00003010
00000000
,
00000100
00000000
00000100
00000000
00000001
00000000
00000100
00000000
00001000
00010000
00000000
00010000
00000000
00000000
00100000
00000000
,
20020000
00000000
00000000
00000000
,
00000000
00000000
00000000
00000000
30030000
00000000
11000000
01000000
,
00010000
00001000
00010000
00000000
00000100
00000000
00001100
00000000
00000000
00000000
00000010
00000000
00001001
00000000
00000001
00000000
,
00000100
00000000
00001000
00000000
00010000
00001000
00000000
00011000
00000000
00000000
01000000
00000000
01010000
00000000
00010000
00000000
,
00100000
01000000
10000000
00000000
00100000
00000000
10010000
00000000
00000000
00000000
00010000
00000000
00100000
00001000
00010000
00000100
,
00010000
00000000
00001000
00000010
00000001
00000010
00000000
00000110
00000000
00000000
00000100
00000000
00001001
00000000
00000001
00000100
,
00001000
00000000
00010000
00000000
00011000
00000000
00010000
00100000
10000000
00000000
00010000
00000000
10010000
00000000
10000000
01000000
,
00010000
00000000
00001000
00000000
00000100
00000010
00000000
00000110
00000000
00000000
00000100
00000000
00002002
00000000
00000000
00000000
,
00000000
00000000
00000000
00000000
,
00000000
00000000
00000000
00000000
00003003
00000000
00000000
00000000
00000001
00000100
00000010
00001000
00000100
00010000
00001000
00100000
,
00010000
01000000
00100000
10000000
02000000
00000000
00000000
00000000
00000000
00000000
00000000
00000000
00000000
00000000
00000000
00000000
,
00000000
00000000
03000000
00000000
;
