#VERSION:0.83;
#TITLE:The Clown of 24stairs;
#SUBTITLE:;
#ARTIST:Yu_Asahina;
#TITLETRANSLIT:;
#SUBTITLETRANSLIT:;
#ARTISTTRANSLIT:;
#GENRE:DISSOCIATIVE IDENTITY DISORDER;
#CREDIT:;
#MUSIC:The Clown of 24stairs.ogg;
#BANNER:The Clown of 24stairs.png;
#BACKGROUND:The Clown of 24stairs-bg.png;
#CDTITLE:./CDTitles/SDVX EXCEED GEAR.png;
#SAMPLESTART:77.195;
#SAMPLELENGTH:15.000;
#SELECTABLE:YES;
#OFFSET:-0.001;
#BPMS:0.000=204.000;
#STOPS:246.500=0.099
,246.833=0.098
,247.167=0.098
,247.500=0.098
,247.833=0.098
,248.167=0.098
,248.500=0.098
,248.833=0.098
,249.167=0.098
,255.500=0.098
,255.833=0.098
,256.167=0.098
,274.500=0.098
,274.833=0.098
,275.167=0.098
,275.500=0.098
,275.833=0.098
,276.167=0.098
,276.500=0.098
,276.833=0.098
,277.167=0.098
;
#TIMESIGNATURES:0.000=4=4,
52.000=9=4,
61.000=4=4,
201.000=7=4,
222.000=4=4,
246.000=5=4,
251.000=4=4,
255.000=3=4,
258.000=4=4,
274.000=5=4,
279.000=4=4,
331.000=5=4,
336.000=4=4
;
#BGCHANGES:0.000=../BGAs/20dr.mp4=1.000=0=0=0=StretchNoLoop====,
99999.000=-nosongbg-=1.000=0=0=0=StretchNoLoop====
;
#FGCHANGES:;

//--------------- dance-single - forcednature ----------------
#NOTEDATA:;
#STEPSTYPE:dance-single;
#DESCRIPTION:forcednature;
#CREDIT:forcednature;
#DIFFICULTY:Beginner;
#METER:6;
#RADARVALUES:0,0,0,0,0;
#NOTES:
0000
0000
0000
0000
,
0000
0000
0000
0000
,
0000
0000
0000
0000
,
0000
0000
0000
0000
,
0000
0000
0000
0000
,
2002
0000
3003
0000
,
0220
0000
0330
0000
,
1001
0000
0001
0000
,
0001
0000
0001
1000
,
0100
0000
0100
0000
,
0100
0000
0100
0010
,
0001
0000
1000
0000
,
0001
0000
1000
0010
,
0100
0000
0100
0000
,
0000
0010
0000
0000
0000
0010
0000
0000
,
0000
1001
0000
0000
,
0000
1000
0000
0001
,
0000
0200
0000
0000
,
0300
0020
0000
0000
,
0030
1001
0000
1000
,
0000
0001
0000
0000
,
0000
0100
0000
0001
,
0000
0100
0000
0001
,
0000
0010
0000
0000
,
0000
0100
0000
0000
,
0000
0010
0000
0100
,
0000
1000
0000
0100
,
0000
1000
0000
0000
,
0000
0010
0000
0010
,
0000
0100
0000
0000
,
0000
0001
0000
0001
,
0000
0020
0000
0000
,
0030
0200
0000
0000
,
0300
0001
1000
0001
,
1000
0002
0000
0000
,
0003
0020
0000
0000
,
0030
0200
0000
0000
,
0300
2000
0000
0000
,
3000
0020
0000
0000
,
0030
0200
0000
0000
,
0300
0002
0000
0000
,
0003
1000
0000
0001
,
0000
0010
0000
0000
,
0000
0100
0000
0100
,
0000
0010
0000
0001
,
0000
2000
0000
0000
,
3000
0010
0000
0010
,
0000
0100
0000
0010
,
0000
1000
0000
1000
,
0000
0001
0000
1000
,
0000
2002
0000
3003
,
0000
0220
0000
0000
0000
0330
0000
0000
,
2002
0000
0000
0000
3003
0000
0000
0220
,
0000
0000
0000
0330
0000
0000
0000
0001
,
0000
0001
0000
0001
0000
0000
0010
0000
,
0010
0000
0010
0000
0000
0100
0000
0100
,
0000
0100
0000
0000
2002
0000
0000
0000
,
0000
0000
3003
0000
0000
1000
0000
0000
,
0000
0010
0000
0000
0000
1000
0000
1000
,
0000
0010
0000
0000
0000
0100
0000
0000
,
0000
0001
0000
0000
0000
0010
0000
0001
,
0000
0010
0000
0000
0000
0100
0000
0100
,
0000
1000
0000
0010
0000
0000
0000
0220
,
0000
0000
0000
0330
0000
0000
0000
2002
,
0000
3003
0000
0000
0000
1000
0000
0000
,
0000
0100
0000
0000
0000
1000
0000
0000
,
0000
0010
0000
0000
0000
0100
0000
0000
,
0000
0100
0000
0000
0000
0002
0000
0000
,
0000
0003
0000
0000
0000
0010
0000
0010
,
0000
0001
0000
0100
0000
0000
0000
0220
,
0000
0000
0000
0330
0000
0000
0000
2002
,
0000
0000
0000
3003
0000
0000
0000
1000
,
0000
0000
0000
0100
0000
0000
0000
1000
,
0000
0000
0000
0010
0000
0000
0000
0100
,
0000
0000
0000
0010
0000
0000
0000
0100
,
0000
0000
0000
0001
0000
0000
0000
0010
,
0000
0000
0000
0001
0000
0000
0000
0010
,
0000
0000
0000
0100
0000
0000
0000
2000
,
0000
0000
0000
3000
0000
0000
0000
0002
,
0000
0000
0000
0003
0000
0000
0000
0220
,
0000
0000
0000
0330
0000
0000
0000
2002
,
0000
0000
0000
3003
0000
0000
0000
1000
,
0000
0001
0000
1000
0000
0001
0000
0010
,
0000
0100
0000
1000
0000
0001
0000
0000
,
0000
2002
0000
0000
0000
0000
0000
0000
,
0000
0000
0000
0000
,
0000
0000
0000
0000
,
0000
0000
0000
3003
0000
0000
0000
0000
;

//--------------- dance-single - forcednature ----------------
#NOTEDATA:;
#STEPSTYPE:dance-single;
#DESCRIPTION:forcednature;
#CREDIT:forcednature;
#DIFFICULTY:Easy;
#METER:10;
#RADARVALUES:0,0,0,0,0;
#NOTES:
0000
0000
0000
0000
,
0000
0000
0000
0000
,
0000
0000
0000
0000
,
0000
0000
0000
0000
,
0000
0000
0000
0000
,
2002
0000
0000
3003
,
0220
0000
0000
0330
,
2000
3001
2000
3001
,
2000
3001
0010
0110
,
0002
1003
0002
1003
,
0002
1003
0010
0110
,
2000
3100
0002
0103
,
2000
3200
0320
0032
,
0103
0000
0000
0000
0000
0000
0000
0110
0000
0000
0000
0000
0000
0000
0001
0000
,
0000
0000
0010
0000
0000
0000
0000
0000
0000
0110
0000
0000
0000
0000
0000
0000
,
2000
3010
0100
0000
,
0100
0000
0001
0000
0010
0001
0010
0000
,
0100
2000
0000
0000
,
3000
0000
0001
0000
0100
0001
0100
0000
,
0010
2002
3003
1000
,
0010
1000
0001
0010
,
0100
0020
0000
0001
,
0001
0001
0100
0130
,
0010
2002
3003
0001
,
0010
0001
1000
0010
,
0100
0020
0000
1000
,
1000
1000
0100
0130
,
0010
0000
1001
0000
1000
0100
0000
0100
,
1000
0010
0100
0001
,
0010
0000
1001
0000
0001
0010
0000
0010
,
0001
0100
0010
1000
,
0100
1002
0100
1000
,
0013
2001
0100
0001
,
3010
0220
0000
0000
,
0330
2000
0000
3001
,
0100
0020
0000
1030
,
0001
0020
0000
0130
,
1000
0002
0000
0103
,
0010
2000
0000
3100
,
0010
0002
0000
2003
,
0000
3020
0000
0230
,
0000
0301
1000
0100
,
0010
0002
0100
0000
,
0103
0002
0010
0000
,
0013
1001
0000
0110
,
0000
0001
0010
0100
,
1000
0000
0010
0000
0000
0010
0100
0000
,
0000
0100
0001
0000
0000
0001
1000
0000
,
0100
0000
0110
0000
0000
0010
0001
0000
,
0000
0001
0100
0000
0010
0000
1000
0000
,
0001
0000
2001
0000
0100
0000
0000
3100
,
0000
1002
0000
0100
0000
0000
0103
0000
,
2001
0000
0010
0000
0000
3010
0000
1002
,
0000
0023
0000
0230
0000
2300
0000
3010
,
0000
0100
0010
0100
0010
0000
1000
0000
,
0001
1000
0001
1000
0000
0100
0000
0010
,
0100
0010
0100
0000
0110
0000
0000
0010
,
0000
2002
0000
3003
0000
1000
0000
0100
,
0010
0000
0100
0000
1000
0000
0100
0010
,
0000
0001
0000
1000
0000
0001
0000
0100
,
0010
0000
0100
0000
0002
0000
0000
0013
,
0000
0000
0000
0100
0000
0000
0000
0000
0000
1000
0000
0000
0000
0000
0000
0001
0000
0100
0000
0001
0000
0100
0000
0010
,
0000
0100
0000
0010
0000
1000
0000
0010
0000
2000
0000
0000
0000
0000
0000
3000
0000
0000
0000
0000
0000
0001
0000
0000
,
0000
0000
0000
0010
0000
0000
0100
0000
0000
0010
0000
0000
0000
0000
0000
0001
0000
0000
0000
0000
0000
0100
0000
0100
,
0000
0000
0100
0000
0000
0000
0000
0000
0000
0000
0000
0000
2002
0000
0000
0000
0000
0000
0000
0000
0000
3003
0000
0000
0000
0000
0000
0000
0000
0000
1000
0000
0000
0000
0000
0000
0000
0000
0000
0000
0000
0000
0100
0000
0000
0000
0000
0000
,
0010
0000
0001
0010
0001
0000
1000
0010
,
1000
0000
0001
0010
0000
0001
0000
0100
,
0001
0000
0110
0000
1001
0000
1000
0010
,
1000
0000
0000
0020
0000
0000
0000
0000
0000
0130
0000
0000
0000
0000
0000
0001
0000
0001
0000
0001
0000
1000
0000
1000
,
0000
1000
0000
0100
0000
0010
0000
0010
0000
0200
0000
0000
0000
0000
0000
0300
0000
0000
0000
0000
0000
2001
0000
0000
,
0000
0010
0000
0000
0000
3010
0000
1000
,
0000
0100
0000
0000
0010
0000
0000
0000
2002
0000
0000
3003
0000
0000
0001
0000
,
0100
0001
0000
1000
0100
1000
0000
0010
,
0100
0010
0000
1000
0000
0001
0000
1000
,
0100
1000
0000
0001
0100
0001
0000
0010
,
0100
0010
0000
0001
1000
0001
0000
1000
,
0010
0100
0000
0010
0100
0001
0000
0010
,
0000
0001
0000
0000
0010
0000
0001
0000
0000
0000
0200
0000
0000
0000
0320
0000
,
0000
1000
0000
0230
0000
0001
0000
0310
,
0000
1000
0000
0000
0001
0000
1000
0000
0000
0000
0100
0000
0000
0000
0020
0000
,
0000
0001
0000
0000
0000
0031
0000
0200
,
0000
1000
0000
0010
0000
0310
0000
0100
,
0000
1000
0000
0000
0010
0000
0000
0000
0110
0000
0000
0000
1001
0000
0000
0000
,
0000
1000
0000
0001
0010
0100
1000
0000
,
0000
0002
0000
0000
0000
0000
0000
0000
,
0000
0000
0000
0000
0000
0000
0000
2000
,
0000
0000
0000
0000
,
0000
0000
0000
3003
0000
0000
0000
0000
;

//--------------- dance-single - forcednature ----------------
#NOTEDATA:;
#STEPSTYPE:dance-single;
#DESCRIPTION:forcednature;
#CREDIT:forcednature;
#DIFFICULTY:Medium;
#METER:14;
#RADARVALUES:0,0,0,0,0;
#NOTES:
0000
0000
0000
0000
,
0000
0000
0000
0000
,
0000
0000
0000
0000
,
0000
0000
0000
0000
,
0000
0000
0000
0000
,
2002
0000
0000
3003
,
0110
0000
0001
0010
0100
1000
0002
0000
,
0103
0000
0010
1000
0000
0010
0100
0000
0001
1000
0000
0001
,
0100
0000
0010
1000
0000
0010
0100
0000
0001
0010
0000
0100
,
1000
0000
0001
0100
0000
0001
1000
0000
0100
0010
0000
0100
,
1000
0000
0001
0100
0000
0001
1000
0000
1000
0100
0000
0100
,
0010
0000
0000
1001
0000
0000
0001
0000
0100
0001
0000
0001
,
1000
0000
0010
1000
0000
0100
1000
0000
0010
0100
0000
0001
,
0020
0000
0000
0130
0000
0000
0000
0020
0000
0000
0130
0000
0000
0000
1000
0000
,
0001
0000
0200
0000
0000
0310
0000
0000
0000
0200
0000
0000
0310
0000
0000
0000
,
1000
0001
1001
0000
1000
0100
1000
0010
,
0100
0000
0000
0001
0000
0000
0010
0000
0000
0000
0010
0000
0001
0000
0000
0000
0001
0000
0100
0000
0000
0000
0100
0000
,
0010
0000
0010
2000
0000
0000
0100
0000
0000
0000
0000
0000
,
0100
0000
3001
1000
0001
1000
0010
0100
,
0001
0000
1001
0000
1000
0100
0010
0100
,
0010
0000
0001
0000
1000
0000
0000
0010
0000
0000
0100
0000
0001
0000
1000
0000
,
0100
1000
0020
0000
1000
0000
0100
0000
,
0001
0100
1000
0100
,
0031
0000
0110
0000
0100
0001
0010
0001
,
1000
0000
0010
0000
1000
0000
0000
0001
0000
0000
0100
0000
0010
0000
1000
0000
,
0001
1000
0200
0000
0001
0000
0010
0000
,
1000
0010
0001
0010
,
1300
0000
0000
0000
0100
0000
0000
0010
0100
0000
0020
0000
0000
0000
0031
0000
,
0100
0001
1000
0100
1000
0010
0100
0001
,
0010
0000
0100
0000
1000
0000
0000
0001
1000
0000
0002
0000
0000
0000
0103
0000
,
0010
1000
0100
0010
0001
0100
0001
0010
,
0100
1000
0002
0000
0100
0000
1000
0000
,
0013
2001
0100
0001
,
3010
0220
0000
0000
,
0330
2000
3002
0203
,
0302
2003
3020
0230
,
0302
2003
3200
2300
,
3002
0023
0230
2300
,
3020
0230
0302
0023
,
0032
0000
0000
0000
1003
0000
0000
0100
0000
0000
0010
0000
0002
0000
0000
0000
,
0103
0010
2000
0000
0000
0000
3002
0000
,
0000
0000
0013
0000
0100
0000
0000
1000
0000
0000
0001
0000
0100
0000
0010
0000
,
0100
0000
0000
0000
1001
0000
0000
1000
0000
0000
0100
0000
1000
0000
0000
0010
,
0000
0000
1000
0000
0001
0000
0000
0010
0000
0000
0001
0000
0100
0000
0000
0010
,
0000
0000
0000
0000
0000
0000
1000
0000
0000
0010
0000
0000
2000
0000
0000
0000
0000
0000
0000
0000
0000
3000
0000
0000
0001
0000
0000
0000
0010
0000
0000
0000
0001
0000
0000
0000
0020
0000
0000
0000
0000
0000
0000
0000
0000
0030
0000
0000
,
0100
1000
0100
2000
0000
0000
3020
0000
0000
0230
0000
0000
,
0301
0000
0001
0000
1000
0000
0000
0000
0100
0000
1000
0100
2000
0000
0000
0000
,
3010
0000
0100
0010
0200
0000
0000
0000
0301
0000
0010
0001
0020
0000
0000
0000
,
0130
0000
1000
0000
0001
0000
0000
0000
0010
0000
0001
0010
0002
0000
0000
0000
,
0103
0000
0000
0000
0000
0000
0010
0000
0000
0100
0000
0000
0020
0000
0000
0000
0000
0000
0000
0000
0000
0000
0000
0000
1030
0000
0000
0000
0000
0000
0000
0000
1000
0000
0000
0000
0100
0000
0000
0000
0000
0000
0000
0000
0100
0000
0000
0000
,
0010
0000
0000
0000
0001
0000
1000
0000
0000
0010
0000
0000
0010
0000
0000
0100
0000
0000
0010
0000
0000
0010
0000
0000
,
1000
0001
0010
0010
0100
0010
0010
0001
,
1000
0100
0100
0010
0100
0100
1000
0001
,
0100
0010
1000
0100
0010
0001
1000
0002
,
0103
1000
0100
0001
0100
1000
0002
0013
,
1000
0010
0001
0010
1000
0002
0013
1000
,
0010
0000
0001
0000
0010
0000
0000
0000
0220
0000
0000
0330
0000
0000
1001
0000
,
0000
1100
0000
1010
0000
0001
0100
0001
,
0020
0000
2030
0000
3020
0000
0031
1000
,
0200
0000
0000
0000
0310
0000
0001
0000
1000
0001
2000
0000
0000
0000
3010
0000
,
0200
0000
0301
0010
0200
0000
0301
0100
,
1000
0000
0000
0010
0000
0000
0100
0000
0000
0001
0000
0000
0000
0000
0000
1000
0000
0100
0000
1100
0000
0001
0000
0010
,
0000
0011
0000
1000
0000
0010
0000
1010
0000
0202
0000
0000
0000
0000
0000
0303
0000
0000
0000
0000
0000
0001
0000
0000
,
0010
0000
0000
0100
0000
0000
1000
0000
0000
0001
0000
0000
0100
0000
0000
1000
0000
0000
0100
0000
0000
0001
0000
1000
,
0000
0000
1001
0000
0000
0000
0000
0000
0000
0000
0000
0000
0220
0000
0000
0000
0000
0000
0000
0000
0000
0000
0000
0000
0330
0000
0000
0000
0000
0000
1000
0000
0000
0000
0000
0000
0000
0000
0000
0100
0000
0000
1000
0000
0000
0000
0000
0000
,
0010
0100
0001
0010
0200
0000
0301
0100
,
2000
0000
0000
0000
3010
0000
0100
0000
0001
0000
0010
0000
0000
0001
0010
0000
,
0011
0000
0110
0000
2001
0000
3010
0010
,
0100
0000
0000
0001
0000
0000
0100
0000
0000
0010
0000
0000
0000
0000
0000
1000
0000
0100
0000
1100
0000
0001
0000
0100
,
0000
0101
0000
1000
0000
0010
0000
0110
0000
2002
0000
0000
0000
0000
0000
3003
0000
0000
0000
0000
0000
0001
0000
0000
,
0010
0100
0010
0000
0010
1000
0000
0010
,
0000
0001
0000
0000
0100
0000
0000
0000
0220
0000
0000
0000
0330
0000
0010
0000
,
1000
0100
1000
0001
1000
0010
1000
0100
,
0001
0100
0010
0100
1000
0100
0010
0001
,
0100
0001
1000
0001
0010
0001
0100
1000
,
0100
0001
0100
0010
1000
0001
1000
1001
,
0001
0100
0001
1000
0001
0010
0100
0110
,
0000
0010
0000
0000
0001
0000
0100
0000
0010
0000
1000
0000
0001
1000
0002
0000
,
0000
0010
0000
2003
0000
0010
0000
3001
,
0010
0100
1000
0001
0100
1000
0100
0002
,
0000
0010
0000
0000
0010
0000
0000
0000
0010
0000
0000
0000
1003
0000
2000
0000
,
0000
0010
0000
0000
3010
0000
1000
0000
0000
1001
0000
0000
0001
0000
0010
0000
,
0100
1000
0100
0010
0001
1000
0010
0001
,
0010
0000
1000
0000
0001
0000
0100
0000
0001
0000
0010
0000
0100
1000
0000
0000
,
0000
2002
0000
0000
0000
0000
0000
0000
,
0000
0000
0000
0000
0000
3000
0000
0020
,
0000
0000
0000
0000
,
0000
0000
0000
0033
0000
0000
0000
0000
;

//--------------- dance-single - forcednature ----------------
#NOTEDATA:;
#STEPSTYPE:dance-single;
#DESCRIPTION:forcednature;
#CREDIT:forcednature;
#DIFFICULTY:Hard;
#METER:17;
#RADARVALUES:0,0,0,0,0;
#NOTES:
0000
0000
0000
0000
,
0000
0000
0000
0000
,
0000
0000
0000
0000
,
0000
0000
0000
0000
,
0000
0000
0000
0000
,
2002
0000
0000
3003
,
0110
0000
0001
0010
0100
1000
0002
0000
,
1003
0100
0010
0001
0010
0100
1000
0100
0010
0001
0010
0100
,
1000
0100
0010
0001
0100
0010
1000
0010
0100
0001
0000
1000
,
0001
1000
0010
0100
0010
1000
0001
1000
0010
0100
0010
1000
,
0001
1000
0010
0100
0001
1000
0100
0010
0001
1000
0000
1000
,
0001
0010
0100
1000
0100
0010
0001
0100
0010
1000
0010
0100
,
0001
0010
0100
1000
0100
0010
0001
0100
0100
0010
1000
1000
,
0002
0010
0000
0010
0003
0000
0000
2000
0100
0000
0100
3000
0000
0000
1000
0000
,
0001
0000
2000
0010
0000
0010
3000
0000
0000
0002
0100
0000
0100
0003
0000
1000
,
0001
0000
0000
0010
0000
0000
0110
0000
0000
0000
0000
0000
1000
0000
0000
0001
0000
0000
1000
0000
0010
0000
1000
0000
,
0001
0010
0001
1000
0001
0010
0100
1000
0100
0010
0001
1000
,
0010
0000
1000
0000
0001
0000
0200
0000
0000
0000
0000
0000
0010
0000
0000
0000
0000
0000
0010
0000
0000
0010
0000
0000
,
0010
0000
0000
0000
0301
0000
1000
0010
1000
0000
0001
0100
0001
0000
1000
0000
,
0100
0000
0010
0001
1000
0000
0000
0000
0001
0000
0100
0000
1000
0000
0100
0000
,
0001
0000
1000
0000
0010
0000
0100
0010
0100
0000
0001
0000
0010
0000
0100
0000
,
1000
0100
0002
0000
0203
0000
2300
0000
,
3020
0000
0000
0000
0000
0000
0031
0000
0010
0000
0001
0000
0010
0000
1000
0000
0010
0000
1000
0000
0000
0100
0000
0000
,
0010
0000
0001
1000
0001
0000
0000
0000
1000
0000
0100
0000
0001
0000
0100
0000
,
1000
0000
0001
0000
0010
0000
0100
0010
0100
0000
1000
0000
0010
0000
0100
0000
,
0001
0000
0000
0100
0000
0000
2000
0000
0000
0000
0000
0000
3100
0000
0001
0000
0100
0000
0001
0000
0010
0000
0001
0000
,
0010
0000
0000
0000
0100
0000
0000
0000
0010
0000
0000
0000
0100
0000
0000
0000
1000
0000
0000
0000
0100
0000
0000
0000
0010
0000
0000
0000
0000
0000
0001
0000
0000
0010
0000
0000
0001
0000
0000
0000
0000
0000
0100
0000
0000
0000
0000
0000
,
0010
1000
0010
1000
0001
0000
0000
0010
0001
0000
0011
0000
0000
0000
0010
0001
,
0100
0000
0010
0000
1000
0000
0100
1000
0001
0000
0100
0000
0010
0100
0010
0100
,
0001
0000
1000
0000
0100
0000
0010
0100
1000
0000
1100
0000
0000
0000
1000
0010
,
0100
0000
0001
0000
0010
0001
0010
0001
0010
0000
0100
0000
1000
0001
1000
0001
,
0100
0000
0000
0010
0000
0000
2000
0000
0000
0000
0000
0000
3010
0000
0100
0000
0001
0000
0100
0000
0010
0000
1000
0000
,
0010
0100
0001
0020
0000
0000
0130
1000
0001
0100
0001
1000
,
0100
0000
0000
0010
0000
0000
0100
0000
0000
0010
0000
0000
0002
0000
0000
0000
0000
0000
0000
0000
0000
0000
0000
0000
1003
0000
0000
0000
0100
0000
0000
0000
0010
0000
0000
0000
0001
0000
0000
0000
0010
0000
0000
0000
0100
0000
0000
0000
,
1000
0010
2000
0000
3002
0000
0203
0000
,
0320
2030
3002
2003
,
3200
0320
0032
2003
,
3020
0000
0000
0000
0230
0000
0000
0000
0301
0020
0000
0030
0100
2000
0000
3000
,
0010
0100
0000
0001
2000
0000
0000
0000
3020
0000
0000
0000
0032
0000
0000
0000
,
0023
0000
0000
0000
1030
0000
0000
0001
0000
0000
1000
0000
0020
0000
0000
0000
,
1030
0100
0010
0002
0000
0000
0000
0000
0000
0203
0000
0000
,
0000
0300
0010
0100
0010
0000
0000
1000
0000
0000
0001
0000
0010
0000
0100
0000
,
1000
0000
0001
0000
1001
0000
0000
0000
1000
0000
0001
0000
0020
0000
0000
0230
,
0000
0000
2300
0000
3020
0000
0000
0230
0000
0000
0302
0000
0023
0000
0000
2030
,
0000
0000
0000
0000
0000
0000
3010
0000
0000
0001
0000
0000
0010
0000
0000
0000
0000
0000
0000
0000
0001
0000
0000
0000
0100
0000
0000
0000
0010
0000
0000
0000
1000
0000
0000
0000
0001
0000
0000
0000
0000
0000
0000
0000
1000
0000
0000
0000
,
0100
0010
0001
1000
0010
1000
0010
0100
0010
0100
0001
0100
,
0001
1000
0001
1000
0001
0000
0010
0000
0001
0000
0100
0001
1000
0000
0010
0000
,
1000
0000
0100
1000
0001
0000
0100
0001
1000
0000
0010
0100
0002
0000
0000
0000
,
0013
0000
0001
1000
0002
0000
0000
0000
1003
0000
0100
1000
0020
0000
0000
0000
,
0130
0000
0000
0000
0000
0000
0010
0000
0000
0100
0000
0000
0001
0000
0000
0000
1000
0000
0000
0000
0001
0000
0000
0000
1000
0000
0000
0000
0100
0000
0000
0000
1000
0000
0000
0000
0010
0000
0000
0000
0100
0000
0000
0000
0001
0000
0000
0000
,
0010
0000
0000
0000
0100
0000
0000
0000
1000
0000
0000
0000
0001
0000
0000
0000
0000
0000
0100
0000
0000
0000
0000
0000
0100
0000
0000
0000
0000
0000
0001
0000
0000
0000
0000
0000
0010
0000
0000
0100
0000
0000
1000
0000
0000
0000
0000
0000
,
0100
0000
0110
0000
1000
0000
0100
0000
0100
0000
1000
0000
0010
0100
0001
0000
,
1001
0000
1000
0000
0010
0000
0010
0000
1000
0100
0010
0000
0001
0000
0110
0000
,
0000
0000
0001
1000
0001
0000
1000
0100
1000
0000
0001
0100
0010
0000
1000
0100
,
1000
0100
1000
0100
1000
0100
1000
0100
1000
0100
1000
0000
0001
0100
0001
0100
,
0001
0100
0001
0100
0001
0100
0001
0100
0001
0000
0010
0100
0010
0100
0010
0100
,
0010
0100
0010
0100
1000
0001
1000
0001
0200
0000
0000
0000
0000
0000
0310
0000
,
0000
0000
0110
0000
0000
0000
1000
0100
0010
0001
1000
0000
0010
0000
0100
0000
,
0010
0000
1000
0000
0001
0000
0100
0000
2000
0000
0000
0000
3100
0001
0100
0000
,
0010
1000
0010
0000
0100
0000
0001
0000
0010
0000
0001
0000
1000
0000
0100
0000
,
1000
0000
0001
0000
0010
0000
1000
0000
0020
0000
0000
0000
0031
0000
1000
0001
,
1000
0000
0000
0001
0000
0000
0100
0000
0000
0000
0000
0000
0010
0000
0000
1000
0000
0000
0001
0000
0000
0000
0000
0000
0000
0000
0000
0000
0000
0000
0011
0000
0000
0000
0101
0000
0000
0000
0110
0000
0000
0000
1010
0000
0000
0000
1100
0000
,
0000
0000
0110
0000
0000
0000
0011
0000
0000
0000
1001
0000
0000
0000
1010
0000
0000
0000
0210
0000
0000
0000
0000
0000
0000
0000
0000
0000
0000
0000
0301
0000
0000
1000
0000
0000
0001
0000
0000
1000
0000
0000
0001
0000
0000
0000
0000
0000
,
0010
0000
0000
0000
0000
0000
0100
0000
0000
1000
0000
0000
0000
0000
0000
0100
0000
0000
0010
0000
0000
0000
0000
0000
0100
0000
0000
1000
0000
0000
0001
0000
0000
0000
0000
0000
0100
0000
0000
0000
0000
0000
0110
0000
0000
0000
1001
0000
,
0000
0000
0110
0000
0000
0000
0001
0000
0000
0000
0000
0000
1000
0000
0000
0000
0000
0000
0100
0000
0000
0010
0000
0000
0100
0000
0000
0010
0000
0000
0001
0000
0000
0000
0000
0000
0100
0000
0000
0001
0000
0000
1000
0000
0000
0000
0000
0000
,
0100
1000
0001
0000
0010
0100
1000
0000
0020
0000
0000
0000
0031
0000
0010
0000
,
1000
0010
1000
0000
0100
0010
0001
0000
0100
0000
0010
0000
1000
0001
0010
0000
,
0011
0000
0101
0000
2100
0000
3010
0010
,
0100
0000
0000
0000
0000
0000
0001
0000
0000
0000
0000
0000
0100
0000
0000
0000
0000
0000
0010
0000
0000
1000
0000
0000
0010
0000
0000
0000
0000
0000
1010
0000
0000
0000
0011
0000
0000
0000
0101
0000
0000
0000
0011
0000
0000
0000
1010
0000
,
0000
0000
1100
0000
0000
0000
0110
0000
0000
0000
1001
0000
0000
0000
1100
0000
0000
0000
0102
0000
0000
0000
0000
0000
0000
0000
0000
0000
0000
0000
0013
0000
0000
0100
0000
0000
0010
0000
0000
0100
0000
0000
1000
0000
0000
0000
0000
0000
,
0010
0100
0010
0001
0010
1000
0001
1001
,
0000
1100
0000
0000
0102
0000
0000
0000
1003
0100
1000
0100
0010
0001
1000
0000
,
0010
1000
0010
0000
0100
0001
0100
0000
0010
1000
0001
0000
0010
0001
1000
0000
,
0100
1000
0100
0000
0010
0001
0010
0000
0100
1000
0001
0000
0100
0001
1000
0000
,
0010
0100
0010
0000
0100
0001
0100
0000
0010
1000
0001
0000
0010
0001
1000
0000
,
0010
0000
0100
0001
0010
0000
0001
0010
0100
0000
0010
0100
1000
0000
0001
0000
,
0100
0010
1000
0000
0100
1000
0001
0000
0100
0001
1000
0000
0100
0010
0002
0000
,
0000
0203
0000
0000
0320
0000
2030
0000
0000
3000
0100
1000
0100
0010
0001
0000
,
0100
0000
0010
0000
0100
0000
0001
0000
0010
0000
0100
0000
0010
0001
1000
0000
,
1000
0000
1000
0000
1000
0000
0010
0100
0010
0100
0001
1000
0010
0100
0002
0000
,
0000
0100
0000
0000
1000
0000
0000
0000
0013
0000
0000
0000
0110
0000
2001
0000
,
0000
0100
0000
0000
3001
0000
0011
0000
0000
0110
0000
0000
1100
0000
1000
0000
,
0001
1000
0000
1000
0001
0000
0100
0010
0100
0010
1000
0010
0100
0001
1000
0000
,
0001
0000
1001
0000
1000
0000
0001
0010
0100
1000
0100
0010
0001
0100
0010
0000
,
0000
2002
0000
0000
0000
0000
0000
0000
,
0000
0000
0000
0000
0000
0003
0000
0020
,
0000
0000
0000
0000
,
0000
0000
0000
3030
0000
0000
0000
0000
;

//--------------- dance-double - forcednature ----------------
#NOTEDATA:;
#STEPSTYPE:dance-double;
#DESCRIPTION:forcednature;
#CREDIT:forcednature;
#DIFFICULTY:Easy;
#METER:11;
#RADARVALUES:0,0,0,0,0;
#NOTES:
00000000
00000000
00000000
00000000
,
00000000
00000000
00000000
00000000
,
00000000
00000000
00000000
00000000
,
00000000
00000000
00000000
00000000
,
00000000
00000000
00000000
00000000
,
00022000
00000000
00000000
00033000
,
00020200
00000000
00000000
00030300
,
00000200
00001300
00000200
00001300
,
00000200
00000310
00000001
00001001
,
00002000
00003010
00002000
00003010
,
00020000
00031000
00100000
00110000
,
20000000
31000000
00020000
01030000
,
20000000
32000000
03200000
00320000
,
01030000
00000000
00000000
00000000
00000000
00000000
00000000
00011000
00000000
00000000
00000000
00000000
00000000
00000000
00001000
00000000
,
00000000
00000000
00010000
00000000
00000000
00000000
00000000
00000000
00000000
00011000
00000000
00000000
00000000
00000000
00000000
00000000
,
00020000
00031000
00000010
00000000
,
00000010
00000000
00000001
00000000
00000010
00000100
00000010
00000000
,
00000100
00020000
00000000
00000000
,
00030000
00000000
00001000
00000000
00010000
00001000
00010000
00000000
,
00100000
02200000
03300000
01000000
,
00010000
10000000
00010000
00100000
,
00001000
00020000
00000000
00000100
,
00000100
00000100
00001000
00031000
,
00010000
00022000
00033000
00001000
,
00000010
00000001
00000010
00000100
,
00001000
00000020
00000000
00001000
,
00001000
00001000
00000100
00000130
,
00000010
00000000
00001001
00000000
00001000
00000100
00000000
00000100
,
00001000
00000010
00010000
00001000
,
00100000
00000000
10010000
00000000
00010000
01000000
00000000
01000000
,
00010000
00100000
00001000
00010000
,
00000010
00002000
00000001
00003100
,
00010000
00002000
01000000
00013000
,
00001000
00022000
00000000
00000000
,
00033000
00020000
00000000
00130000
,
01000000
00200000
00000000
10300000
,
00010000
00200000
00000000
01300000
,
10000000
00020000
00000000
00130000
,
00001000
00020000
00000000
00030010
,
00001000
00000200
00000000
00000320
,
00000000
00000032
00000000
00000203
,
00000000
00000310
00001000
00000100
,
00010000
00002000
01000000
00000000
,
01003000
00002000
00100000
00000000
,
00103000
00011000
00000000
00010000
,
00001000
00000010
00000000
00000100
,
00000010
00000000
00000001
00000000
00000000
00000001
00000100
00000000
,
00000000
00000100
00000010
00000000
00000000
00000010
00001000
00000000
,
00000100
00000000
00010000
00000000
00000000
00010000
00001000
00000000
,
00000000
00001000
00100000
00000000
00010000
00000000
01000000
00000000
,
00100000
00000000
20000000
00000000
01000000
00000000
00000000
31000000
,
00000000
00200000
00000000
00010000
00000000
00000000
00310000
00000000
,
00002000
00000000
00010000
00000000
00000000
00013000
00000000
00002000
,
00000000
00023000
00000000
00030200
00000000
00002300
00000000
00003010
,
00000000
00000100
00000010
00000100
00000010
00000000
00001000
00000000
,
00000001
00001000
00000001
00001000
00000000
00000100
00000000
00010000
,
00000100
00010000
00000100
00000000
00011000
00000000
00000000
00100000
,
00000000
20020000
00000000
30030000
00000000
10000000
00000000
01000000
,
00100000
00000000
01000000
00000000
00010000
00000000
00001000
00010000
,
00000000
00001000
00000000
00000010
00000000
00000001
00000000
00000010
,
00000100
00000000
00001000
00000000
00000020
00000000
00000000
00010030
,
00000000
00000000
00000000
00001000
00000000
00000000
00000000
00000000
00000000
00010000
00000000
00000000
00000000
00000000
00000000
00100000
00000000
01000000
00000000
00100000
00000000
10000000
00000000
00100000
,
00000000
10000000
00000000
01000000
00000000
10000000
00000000
01000000
00000000
00200000
00000000
00000000
00000000
00000000
00000000
00300000
00000000
00000000
00000000
00000000
00000000
00010000
00000000
00000000
,
00000000
00000000
00000000
00100000
00000000
00000000
00010000
00000000
00000000
00100000
00000000
00000000
00000000
00000000
00000000
00001000
00000000
00000000
00000000
00000000
00000000
00010000
00000000
00001000
,
00000000
00000000
00010000
00000000
00000000
00000000
00000000
00000000
00000000
00000000
00000000
00000000
00022000
00000000
00000000
00000000
00000000
00000000
00000000
00000000
00000000
00033000
00000000
00000000
00000000
00000000
00000000
00000000
00000000
00000000
00001000
00000000
00000000
00000000
00000000
00000000
00000000
00000000
00000000
00000000
00000000
00000000
00010000
00000000
00000000
00000000
00000000
00000000
,
00001000
00000000
00010000
00000100
00010000
00000000
00000100
00001000
,
00000100
00000000
00001000
00000010
00000000
00000100
00000000
00000001
,
00000100
00000000
00000010
00000000
00001001
00000000
00001000
00000001
,
00001000
00000000
00000000
00000002
00000000
00000000
00000000
00000000
00000000
00000003
00000000
00000000
00000000
00000000
00000000
00001000
00000000
00001000
00000000
00001000
00000000
00000100
00000000
00000100
,
00000000
00000100
00000000
00010000
00000000
00001000
00000000
00001000
00000000
00020000
00000000
00000000
00000000
00000000
00000000
00030000
00000000
00000000
00000000
00000000
00000000
00002000
00000000
00000000
,
00000000
00100000
00000000
00000000
00000000
00103000
00000000
00001000
,
00000000
00010000
00000000
00000000
00100000
00000000
00000000
00000000
02200000
00000000
00000000
03300000
00000000
00000000
01000000
00000000
,
00010000
01000000
00000000
00100000
10000000
00100000
00000000
10000000
,
01000000
10000000
00000000
01000000
00000000
00010000
00000000
00001000
,
00010000
00001000
00000000
00010000
00000100
00010000
00000000
00000100
,
00001000
00000100
00000000
00000010
00000000
00000001
00000000
00000100
,
00000001
00001000
00000000
00000100
00010000
00001000
00000000
00100000
,
00000000
00010000
00000000
00000000
00100000
00000000
00010000
00000000
00000000
00000000
02000000
00000000
00000000
00000000
03200000
00000000
,
00000000
10000000
00000000
02300000
00000000
00010000
00000000
03100000
,
00000000
10000000
00000000
00000000
00010000
00000000
10000000
00000000
00000000
00000000
01000000
00000000
00000000
00000000
00020000
00000000
,
00000000
00001000
00000000
00000000
00000000
00031000
00000000
00020000
,
00000000
00001000
00000000
00000100
00000000
00030100
00000000
00010000
,
00000000
00010000
00000000
00000000
00001000
00000000
00000000
00000000
00000010
00000000
00000000
00000000
00000110
00000000
00000000
00000000
,
00000000
00001001
00000000
00000001
00000010
00000100
00001000
00000000
,
00000000
00000020
00000000
00000000
00000000
00000000
00000000
00000000
,
00000000
00000000
00000000
00000000
00000000
00000000
00000000
00000200
,
00000000
00000000
00000000
00000000
,
00000000
00000000
00000000
00000330
00000000
00000000
00000000
00000000
;

//--------------- dance-double - forcednature ----------------
#NOTEDATA:;
#STEPSTYPE:dance-double;
#DESCRIPTION:forcednature;
#CREDIT:forcednature;
#DIFFICULTY:Medium;
#METER:15;
#RADARVALUES:0,0,0,0,0;
#NOTES:
00000000
00000000
00000000
00000000
,
00000000
00000000
00000000
00000000
,
00000000
00000000
00000000
00000000
,
00000000
00000000
00000000
00000000
,
00000000
00000000
00000000
00000000
,
00022000
00000000
00000000
00033000
,
00011000
00000000
00001000
00000010
00000100
00000010
00000002
00000000
,
00000103
00000000
00000010
00001000
00000000
00000010
00000100
00000000
00000001
00001000
00000000
00000100
,
00001000
00000000
00000010
00010000
00000000
00001000
00010000
00000000
00001000
00100000
00000000
00010000
,
01000000
00000000
00100000
10000000
00000000
00010000
10000000
00000000
01000000
00100000
00000000
01000000
,
10000000
00000000
00010000
01000000
00000000
00010000
00100000
00000000
00100000
00001000
00000000
00001000
,
00010000
00000000
00000000
00011000
00000000
00000000
00000100
00000000
00001000
00000100
00000000
00000100
,
00000010
00000000
00000001
00000010
00000000
00000100
00000010
00000000
00000001
00001000
00000000
00000010
,
00020000
00000000
00000000
00031000
00000000
00000000
00000000
00020000
00000000
00000000
00031000
00000000
00000000
00000000
01000000
00000000
,
00100000
00000000
00020000
00000000
00000000
00031000
00000000
00000000
00000000
00020000
00000000
00000000
00031000
00000000
00000000
00000000
,
00000100
00000010
00000110
00000000
00000100
00000001
00001000
00000100
,
00010000
00000000
00000000
00001000
00000000
00000000
00100000
00000000
00000000
00000000
00100000
00000000
00010000
00000000
00000000
00000000
00010000
00000000
01000000
00000000
00000000
00000000
01000000
00000000
,
00100000
00000000
00100000
20000000
00000000
00000000
01000000
00000000
00000000
00000000
00000000
00000000
,
01000000
00000000
30100000
01000000
00100000
01000000
00100000
00010000
,
00001000
00000000
00011000
00000000
00010000
00000100
00001000
00000100
,
00001000
00000000
00000001
00000000
00000100
00000000
00000000
00000010
00000000
00000000
00000010
00000000
00000100
00000000
00000000
00000000
,
00001000
00010000
00002000
00000000
01000000
00000000
00010000
00000000
,
00100000
00010000
01000000
00010000
,
00103000
00000000
01100000
00000000
01000000
10000000
00100000
10000000
,
01000000
00000000
00100000
00000000
00010000
00000000
00000000
00010000
00000000
00000000
01000000
00000000
00001000
00000000
00010000
00000000
,
00000010
00001000
00000200
00000000
00000001
00000000
00000010
00000000
,
00001000
00010000
00001000
00000010
,
00000301
00000000
00000000
00000000
00000100
00000000
00000000
00001000
00000100
00000000
00002000
00000000
00000000
00000000
00003010
00000000
,
00001000
00000010
00010000
00001000
00010000
00100000
01000000
00100000
,
10000000
00000000
00010000
00000000
10000000
00000000
00000000
01000000
10000000
00000000
02000000
00000000
00000000
00000000
03100000
00000000
,
00010000
00100000
00001000
00010000
00001000
00000010
00000100
00000010
,
00000001
00002001
00000100
00000001
,
00000010
00023000
01000000
10000000
,
00100000
00002000
00000000
00000000
,
00033000
00000200
00002300
00003020
,
00000230
00002300
00023000
00230000
,
02300000
03020000
00230000
02300000
,
03020000
00032000
00003020
00000230
,
00002300
00003002
00000203
00002300
,
00023000
00000000
00000000
00000000
00130000
00000000
00000000
01000000
00000000
00000000
00100000
00000000
20000000
00000000
00000000
00000000
,
31000000
00010000
00002000
00000000
00000000
00000000
00023000
00000000
,
00000000
00000000
00031000
00000000
00000010
00000000
00000000
00000001
00000000
00000000
00000100
00000000
00000010
00000000
00001000
00000000
,
00000010
00000000
00000100
00000000
00001001
00000000
00000000
00000001
00000000
00000000
00000100
00000000
00000001
00000000
00000000
00000010
,
00000000
00000000
00001000
00000000
00010000
00000000
00000000
00001000
00000000
00000000
00010000
00000000
00100000
00000000
00000000
10000000
,
00000000
00000000
00000000
00000000
00000000
00000000
01000000
00000000
00000000
10000000
00000000
00000000
02000000
00000000
00000000
00000000
00000000
00000000
00000000
00000000
00000000
03000000
00000000
00000000
00100000
00000000
00000000
00000000
00010000
00000000
00000000
00000000
00100000
00000000
00000000
00000000
00020000
00000000
00000000
00000000
00000000
00000000
00000000
00000000
00000000
00030000
00000000
00000000
,
00001000
00000100
00001000
00000200
00000000
00000000
00000320
00000000
00000000
00000032
00000000
00000000
,
00001003
00000000
00001000
00000000
00000001
00000000
00000000
00000000
00000100
00000000
00000010
00001000
00000020
00000000
00000000
00000000
,
00010030
00000000
00001000
00010000
00002000
00000000
00000000
00000000
00103000
00000000
00010000
00100000
00020000
00000000
00000000
00000000
,
01030000
00000000
00100000
00000000
10000000
00000000
00000000
00000000
01000000
00000000
00100000
00010000
00200000
00000000
00000000
00000000
,
00301000
00000000
00000000
00000000
00000000
00000000
00010000
00000000
00000000
00001000
00000000
00000000
00020000
00000000
00000000
00000000
00000000
00000000
00000000
00000000
00000000
00000000
00000000
00000000
00030100
00000000
00000000
00000000
00000000
00000000
00000000
00000000
00000100
00000000
00000000
00000000
00001000
00000000
00000000
00000000
00000000
00000000
00000000
00000000
00001000
00000000
00000000
00000000
,
00000010
00000000
00000000
00000000
00000010
00000000
00000100
00000000
00000000
00001000
00000000
00000000
00001000
00000000
00000000
00010000
00000000
00000000
00001000
00000000
00000000
00001000
00000000
00000000
,
00100000
01000000
00010000
00010000
00001000
00010000
00010000
00000010
,
00000100
00001000
00001000
00010000
00001000
00001000
00100000
01000000
,
10000000
00100000
01000000
00001000
00010000
00000010
00000100
00000002
,
00000103
00001000
00010000
00001000
00010000
00100000
20000000
31000000
,
00010000
00001000
00010000
00001000
00000010
00000002
00000103
00001000
,
00010000
00000000
00001000
00000000
00010000
00000000
00100000
00000000
02000000
00000000
00000000
03000000
00000000
00000000
01100000
00000000
,
00000000
10100000
00000000
01010000
00000000
00010000
01000000
00010000
,
00200000
00000000
02300000
00000000
03020000
00000000
00031000
00000010
,
00000200
00000000
00000000
00000000
00000310
00000000
00000001
00000000
00001000
00000001
00002000
00000000
00000000
00000000
00003010
00000000
,
00000200
00000000
00001300
00010000
00200000
00000000
01300000
00010000
,
10000000
00000000
00000000
01000000
00000000
00000000
10000000
00000000
00000000
00010000
00000000
00000000
00100000
00000000
00000000
01000000
00000000
00010000
00000000
00001000
00000000
00000010
00000000
00000001
,
00000000
00000100
00000000
00001000
00000000
00011000
00000000
00010000
00000000
00022000
00000000
00000000
00000000
00000000
00000000
00033000
00000000
00000000
00000000
00000000
00000000
00001000
00000000
00000000
,
00000010
00000000
00000000
00000100
00000000
00000000
00000010
00000000
00000000
00001000
00000000
00000000
00010000
00000000
00000000
01000000
00000000
00000000
00100000
00000000
00000000
01000000
00000000
10000000
,
00000000
00000000
11000000
00000000
00000000
00000000
00000000
00000000
00000000
00000000
00000000
00000000
00220000
00000000
00000000
00000000
00000000
00000000
00000000
00000000
00000000
00000000
00000000
00000000
00330000
00000000
00000000
00000000
00000000
00000000
00001000
00000000
00000000
00000000
00000000
00000000
00000000
00000000
00000000
00010000
00000000
00000000
00001000
00000000
00000000
00000000
00000000
00000000
,
00000100
00000010
00000100
00000001
00002000
00000000
00003001
00000010
,
00002000
00000000
00000000
00000000
00013000
00000000
00001000
00000000
00010000
00000000
00100000
00000000
00000000
10000000
00100000
00000000
,
10100000
00000000
01100000
00000000
20010000
00000000
31000000
01000000
,
00010000
00000000
00000000
00001000
00000000
00000000
00100000
00000000
00000000
00001000
00000000
00000000
00000000
00000000
00000000
00010000
00000000
00001000
00000000
00000010
00000000
00001000
00000000
00010000
,
00000000
00100000
00000000
00010000
00000000
00011000
00000000
00001000
00000000
00022000
00000000
00000000
00000000
00000000
00000000
00033000
00000000
00000000
00000000
00000000
00000000
00010000
00000000
00000000
,
00100000
10000000
00100000
00000000
00100000
00010000
00000000
00001000
,
00000000
00000010
00000000
00000000
00000001
00000000
00000000
00000000
00000220
00000000
00000000
00000000
00000330
00000000
00000100
00000000
,
00010000
00001000
00010000
00000010
00010000
00001000
00010000
00100000
,
01000000
00010000
00100000
01000000
10000000
00100000
00000000
01000000
,
00001000
00010000
00001000
00100000
00001000
00010000
00001000
00000010
,
00000100
00001000
00000010
00000100
00000001
00000010
00000000
00000110
,
00000000
00000100
00010000
00001000
00010000
00100000
00000000
01100000
,
00000000
01000000
00000000
00000000
00010000
00000000
00100000
00000000
00000000
00000000
00001000
00000000
00010000
00001000
00020000
00000000
,
00000000
00100000
00000000
00032000
00000000
00000010
00000000
00013000
,
00001000
00010000
00100000
10000000
01000000
00010000
00001000
00200000
,
00000000
01000000
00000000
00000000
01000000
00000000
00000000
00000000
00010000
00000000
00000000
00000000
00301000
00000000
00002000
00000000
,
00000000
00100000
00000000
00000000
00103000
00000000
00001000
00000000
00000000
00011000
00000000
00000000
00010000
00000000
00000010
00000000
,
00000100
00001000
00010000
00100000
01000000
00100000
00010000
00001000
,
00010000
00000000
01000000
00000000
00100000
00000000
01000000
00000000
10000000
00000000
01000000
00000000
00010000
00001000
00000000
00000000
,
00000000
00022000
00000000
00000000
00000000
00000000
00000000
00000000
,
00000000
00000000
00000000
00000000
00000000
00030000
00000000
00000020
,
00000000
00000000
00000000
00000000
,
00000000
00000000
00000000
00003030
00000000
00000000
00000000
00000000
;

//--------------- dance-double - forcednature ----------------
#NOTEDATA:;
#STEPSTYPE:dance-double;
#DESCRIPTION:forcednature;
#CREDIT:forcednature;
#DIFFICULTY:Hard;
#METER:18;
#RADARVALUES:0,0,0,0,0;
#NOTES:
00000000
00000000
00000000
00000000
,
00000000
00000000
00000000
00000000
,
00000000
00000000
00000000
00000000
,
00000000
00000000
00000000
00000000
,
00000000
00000000
00000000
00000000
,
00022000
00000000
00000000
00033000
,
00011000
00000000
00010000
00100000
01000000
00100000
20000000
00000000
,
30100000
01000000
00100000
00010000
00001000
00010000
00100000
01000000
00100000
00010000
00001000
00010000
,
00100000
01000000
00100000
00010000
00001000
00010000
00001000
00000100
00000010
00001000
00000000
00000001
,
00000100
00000010
00000100
00001000
00010000
00001000
00000100
00000010
00000100
00001000
00010000
00001000
,
00000100
00000010
00000100
00001000
00010000
00001000
00010000
00100000
01000000
00100000
00000000
00100000
,
10000000
01000000
00100000
00010000
00100000
01000000
00100000
00010000
00001000
00000100
00001000
00010000
,
00001000
00000100
00000010
00000001
00000010
00000100
00001000
00000010
00000010
00000100
00000001
00000001
,
00002000
00000100
00000000
00000100
00003000
00000000
00000000
00020000
00001000
00000000
00001000
00030000
00000000
00000000
00100000
00000000
,
00010000
00000000
20000000
00100000
00000000
00100000
30000000
00000000
00000000
02000000
00010000
00000000
00010000
03000000
00000000
00001000
,
00010000
00000000
00000000
00001000
00000000
00000000
00011000
00000000
00000000
00000000
00000000
00000000
00010000
00000000
00000000
00000100
00000000
00000000
00001000
00000000
00000010
00000000
00000100
00000000
,
00001000
00010000
00001000
00010000
00100000
01000000
00100000
00010000
00001000
00010000
00100000
10000000
,
00100000
00000000
01000000
00000000
00010000
00000000
00200000
00000000
00000000
00000000
00000000
00000000
01000000
00000000
00000000
00000000
00000000
00000000
01000000
00000000
00000000
01000000
00000000
00000000
,
01000000
00000000
00000000
00000000
00310000
00000000
00100000
00001000
00010000
00000000
00001000
00010000
00001000
00000000
00010000
00000000
,
00000100
00000000
00001000
00000001
00000010
00000000
00000000
00000000
00000100
00000000
00010000
00000000
00001000
00000000
00000010
00000000
,
00001000
00000000
00010000
00000000
00001000
00000000
01000000
00010000
01000000
00000000
00100000
00000000
10000000
00000000
00100000
00000000
,
01000000
10000000
02000000
00000000
03002000
00000000
00023000
00000000
,
00030020
00000000
00000000
00000000
00000000
00000000
00000130
00000000
00001000
00000000
00000100
00000000
00001000
00000000
00010000
00000000
00001000
00000000
00010000
00000000
00000000
00100000
00000000
00000000
,
01000000
00000000
00100000
10000000
00010000
00000000
00000000
00000000
10000000
00000000
01000000
00000000
00010000
00000000
00001000
00000000
,
00100000
00000000
00010000
00000000
01000000
00000000
00001000
00010000
00001000
00000000
00010000
00000000
00000010
00000000
00000100
00000000
,
00001000
00000000
00000000
00000100
00000000
00000000
00000002
00000000
00000000
00000000
00000000
00000000
00000013
00000000
00001000
00000000
00000010
00000000
00001000
00000000
00010000
00000000
00001000
00000000
,
00010000
00000000
00000000
00000000
01000000
00000000
00000000
00000000
00010000
00000000
00000000
00000000
01000000
00000000
00000000
00000000
00100000
00000000
00000000
00000000
01000000
00000000
00000000
00000000
00100000
00000000
00000000
00000000
00000000
00000000
01000000
00000000
00000000
10000000
00000000
00000000
00010000
00000000
00000000
00000000
00000000
00000000
01000000
00000000
00000000
00000000
00000000
00000000
,
00100000
10000000
00100000
10000000
00010000
00000000
00000000
00100000
00001000
00000000
00011000
00000000
00000000
00000000
00010000
00000100
,
00001000
00000000
00000010
00000000
00000100
00000000
00000010
00001000
00000001
00000000
00000010
00000000
00000100
00001000
00000100
00001000
,
00000001
00000000
00000100
00000000
00001000
00000000
00010000
00001000
00010000
00000000
00011000
00000000
00000000
00000000
00001000
00010000
,
00001000
00000000
00100000
00000000
00010000
01000000
00010000
01000000
00100000
00000000
10000000
00000000
01000000
00100000
01000000
00100000
,
00010000
00000000
00000000
01000000
00000000
00000000
00002000
00000000
00000000
00000000
00000000
00000000
01003000
00000000
00100000
00000000
00010000
00000000
00100000
00000000
00010000
00000000
00001000
00000000
,
00010000
00001000
00000100
00000020
00000000
00000000
00000130
00000001
00001000
00000100
00001000
00000001
,
00000100
00000000
00000000
00000010
00000000
00000000
00000100
00000000
00000000
00000010
00000000
00000000
00020000
00000000
00000000
00000000
00000000
00000000
00000000
00000000
00000000
00000000
00000000
00000000
00031000
00000000
00000000
00000000
00010000
00000000
00000000
00000000
00001000
00000000
00000000
00000000
00010000
00000000
00000000
00000000
00100000
00000000
00000000
00000000
01000000
00000000
00000000
00000000
,
00100000
10000000
00020000
00000000
00230000
00000000
02300000
00000000
,
03200000
00320000
00032000
00003200
,
00000320
00000032
00000023
00000230
,
00002300
00000000
00000000
00000000
00023000
00000000
00000000
00000000
00130000
02000000
00000000
03000000
10000000
00020000
00000000
00030000
,
01000000
00100000
00000000
10000000
00020000
00000000
00000000
00000000
00230000
00000000
00000000
00000000
02300000
00000000
00000000
00000000
,
03200000
00000000
00000000
00000000
00301000
00000000
00000000
00010000
00000000
00000000
00001000
00000000
00000200
00000000
00000000
00000000
,
00000310
00000100
00001000
00020000
00000000
00000000
00000000
00000000
00000000
00230000
00000000
00000000
,
00000000
00300000
01000000
00100000
01000000
00000000
00000000
00100000
00000000
00000000
10000000
00000000
01000000
00000000
00100000
00000000
,
00010000
00000000
00001000
00000000
00011000
00000000
00000000
00000000
00010000
00000000
00001000
00000000
00000200
00000000
00000000
00000320
,
00000000
00000000
00000230
00000000
00002300
00000000
00000000
00003002
00000000
00000000
00002003
00000000
00003020
00000000
00000000
00000230
,
00000000
00000000
00000000
00000000
00000000
00000000
00001300
00000000
00000000
00010000
00000000
00000000
00001000
00000000
00000000
00000000
00000000
00000000
00000000
00000000
00010000
00000000
00000000
00000000
00100000
00000000
00000000
00000000
01000000
00000000
00000000
00000000
00100000
00000000
00000000
00000000
00010000
00000000
00000000
00000000
00000000
00000000
00000000
00000000
00001000
00000000
00000000
00000000
,
00000100
00000010
00000100
00001000
00010000
00001000
00010000
00100000
00010000
00100000
10000000
00100000
,
10000000
00010000
10000000
00010000
10000000
00000000
01000000
00000000
00010000
00000000
00001000
00010000
00001000
00000000
00000010
00000000
,
00000001
00000000
00000100
00000001
00001000
00000000
00000100
00001000
00000001
00000000
00000100
00000010
00002000
00000000
00000000
00000000
,
00003100
00000000
00010000
00001000
00020000
00000000
00000000
00000000
00130000
00000000
01000000
00100000
20000000
00000000
00000000
00000000
,
31000000
00000000
00000000
00000000
00000000
00000000
00100000
00000000
00000000
01000000
00000000
00000000
00100000
00000000
00000000
00000000
00010000
00000000
00000000
00000000
00001000
00000000
00000000
00000000
00010000
00000000
00000000
00000000
00001000
00000000
00000000
00000000
00000100
00000000
00000000
00000000
00000010
00000000
00000000
00000000
00000001
00000000
00000000
00000000
00000010
00000000
00000000
00000000
,
00000100
00000000
00001000
00000000
00000001
00000000
00000100
00000000
00000000
00001000
00000000
00000000
00001000
00000000
00000000
00010000
00000000
00000000
00100000
00000000
00000000
00100000
00000000
00000000
,
10000000
01000000
00010000
00010000
00001000
00000010
00000010
00000001
,
00000100
00001000
00001000
00100000
00010000
00010000
10000000
01000000
,
00000000
00000000
00100000
01000000
00100000
00000000
00010000
00100000
00001000
00000000
00010000
00001000
01000000
00000000
00010000
00100000
,
00010000
00100000
00010000
00100000
00010000
00100000
00010000
00100000
00010000
00100000
00010000
00100000
00001000
00010000
00001000
00010000
,
00001000
00010000
00001000
00010000
00001000
00010000
00001000
00010000
00001000
00010000
00000100
00001000
00000100
00001000
00000100
00001000
,
00000100
00001000
00000100
00001000
00000010
00001000
00000010
00001000
00000002
00000000
00000000
00000000
00000000
00000000
00000013
00000000
,
00000000
00000000
00000110
00000000
00000000
00000000
00000001
00000010
00000100
00001000
00000001
00000000
00000100
00000000
00001000
00000000
,
00010000
00000000
00001000
00000000
00010000
00000000
00100000
00000000
20000000
00000000
00000000
00000000
31000000
00100000
00010000
00000000
,
01000000
00001000
00010000
00000000
00000010
00000000
00010000
00000000
00001000
00000000
00000010
00000000
00000100
00000000
00001000
00000000
,
00010000
00000000
00100000
00000000
01000000
00000000
00010000
00000000
00002000
00000000
00000000
00000000
00003100
00000000
00000010
00000100
,
00000010
00000000
00000000
00000100
00000000
00000000
00000001
00000000
00000000
00000000
00000000
00000000
00000010
00000000
00000000
00000100
00000000
00000000
00001000
00000000
00000000
00000000
00000000
00000000
00000000
00000000
00000000
00000000
00000000
00000000
00001010
00000000
00000000
00000000
00001100
00000000
00000000
00000000
00010100
00000000
00000000
00000000
00011000
00000000
00000000
00000000
01001000
00000000
,
00000000
00000000
01010000
00000000
00000000
00000000
00110000
00000000
00000000
00000000
01100000
00000000
00000000
00000000
11000000
00000000
00000000
00000000
10200000
00000000
00000000
00000000
00000000
00000000
00000000
00000000
00000000
00000000
00000000
00000000
01300000
00000000
00000000
00010000
00000000
00000000
01000000
00000000
00000000
00010000
00000000
00000000
01000000
00000000
00000000
00000000
00000000
00000000
,
00001000
00000000
00000000
00000000
00000000
00000000
00010000
00000000
00000000
00001000
00000000
00000000
00000000
00000000
00000000
00100000
00000000
00000000
00001000
00000000
00000000
00000000
00000000
00000000
00010000
00000000
00000000
00000100
00000000
00000000
00001000
00000000
00000000
00000000
00000000
00000000
00000010
00000000
00000000
00000000
00000000
00000000
00000110
00000000
00000000
00000000
00010010
00000000
,
00000000
00000000
00101000
00000000
00000000
00000000
00100000
00000000
00000000
00000000
00000000
00000000
00010000
00000000
00000000
00000000
00000000
00000000
01000000
00000000
00000000
00100000
00000000
00000000
01000000
00000000
00000000
00100000
00000000
00000000
10000000
00000000
00000000
00000000
00000000
00000000
01000000
00000000
00000000
00100000
00000000
00000000
00010000
00000000
00000000
00000000
00000000
00000000
,
01000000
00001000
00010000
00000000
00000010
00001000
00000100
00000000
00000020
00000000
00000000
00000000
00001030
00000000
00000010
00000000
,
00000001
00000010
00000001
00000000
00000100
00000010
00001000
00000000
00000100
00000000
00010000
00000000
00001000
00010000
00100000
00000000
,
01000000
00000000
01100000
00000000
20010000
00000000
31000000
01000000
,
00010000
00000000
00000000
00000000
00000000
00000000
00001000
00000000
00000000
00000000
00000000
00000000
00000010
00000000
00000000
00000000
00000000
00000000
00000100
00000000
00000000
00000010
00000000
00000000
00000001
00000000
00000000
00000000
00000000
00000000
00000101
00000000
00000000
00000000
00001010
00000000
00000000
00000000
00001100
00000000
00000000
00000000
00010100
00000000
00000000
00000000
01001000
00000000
,
00000000
00000000
01010000
00000000
00000000
00000000
00110000
00000000
00000000
00000000
11000000
00000000
00000000
00000000
10100000
00000000
00000000
00000000
02100000
00000000
00000000
00000000
00000000
00000000
00000000
00000000
00000000
00000000
00000000
00000000
03010000
00000000
00000000
00100000
00000000
00000000
00010000
00000000
00000000
00100000
00000000
00000000
01000000
00000000
00000000
00000000
00000000
00000000
,
00010000
00001000
00000100
00001000
00010000
00001000
00000100
00000110
,
00000000
00001001
00000000
00000000
00000021
00000000
00000000
00000000
00000130
00001000
00000100
00001000
00000001
00000100
00000010
00000000
,
00001000
00000010
00001000
00000000
00000100
00001000
00000100
00000000
00010000
00001000
00100000
00000000
00010000
01000000
00001000
00000000
,
00010000
00001000
00010000
00000000
00001000
00100000
00010000
00000000
01000000
00100000
10000000
00000000
01000000
00100000
00010000
00000000
,
00100000
00001000
00100000
00000000
00001000
00010000
00001000
00000000
00000100
00000010
00001000
00000000
00000001
00000010
00000001
00000000
,
00001000
00000000
00000010
00000100
00001000
00000000
00000100
00001000
00010000
00000000
00001000
00010000
00100000
00000000
01000000
00000000
,
00100000
01000000
00100000
00000000
10000000
00100000
10000000
00000000
01000000
00100000
00010000
00000000
00100000
00001000
00020000
00000000
,
00000000
00032000
00000000
00000000
00003200
00000000
00000320
00000000
00000000
00000030
00000100
00000001
00000100
00000010
00001000
00000000
,
00000100
00000000
00000010
00000000
00000100
00000000
00000001
00000000
00000100
00000000
00010000
00000000
00001000
00100000
00010000
00000000
,
00010000
00000000
00010000
00000000
00010000
00000000
01000000
00100000
01000000
00100000
10000000
00010000
01000000
00100000
20000000
00000000
,
00000000
32000000
00000000
00000000
03020000
00000000
00000000
00000000
00032000
00000000
00003000
00000000
00011000
00000000
00010200
00000000
,
00000000
00000320
00000000
00000000
00000031
00000000
00000101
00000000
00000000
00000110
00000000
00000000
00001010
00000000
00001000
00000000
,
00000100
00010000
00000000
00010000
00001000
00000000
01000000
00010000
01000000
00010000
00100000
00010000
00100000
00001000
00010000
00000000
,
00000000
00000000
00011000
00000000
00000000
00000000
00000001
00001000
00000001
00001000
00000010
00000100
00001000
00010000
00100000
00000000
,
00000000
02200000
00000000
00000000
00000000
00000000
00000000
00000000
,
00000000
00000000
00000000
00000000
00000000
00300000
00000000
00000200
,
00000000
00000000
00000000
00000000
,
00000000
00000000
00000000
03000300
00000000
00000000
00000000
00000000
;
