#VERSION:0.83;
#TITLE:天空の夜明け;
#SUBTITLE:;
#ARTIST:Cuvelia;
#TITLETRANSLIT:Tenkuu no yoake;
#SUBTITLETRANSLIT:;
#ARTISTTRANSLIT:;
#GENRE:ANTHEM;
#CREDIT:;
#MUSIC:Tenkuu no yoake.ogg;
#BANNER:Tenkuu no yoake.png;
#BACKGROUND:Tenkuu no yoake-bg.png;
#CDTITLE:./CDTitles/bm IIDX 19 Lincle.png;
#SAMPLESTART:104.375;
#SAMPLELENGTH:15.000;
#SELECTABLE:YES;
#OFFSET:1.208;
#BPMS:0.000=150.000;
#STOPS:163.750=1.200;
#TIMESIGNATURES:0.000=4=4,
160.000=5=4,
165.000=4=4
;
#BGCHANGES:0.000=Tenkuu no yoake.mp4=1.000=0=0=0=StretchNoLoop====,
99999.000=-nosongbg-=1.000=0=0=0=StretchNoLoop====
;
#FGCHANGES:;

//--------------- dance-single - forcednature ----------------
#NOTEDATA:;
#STEPSTYPE:dance-single;
#DESCRIPTION:forcednature;
#DIFFICULTY:Beginner;
#METER:3;
#RADARVALUES:0,0,0,0,0;
#CREDIT:forcednature;
#NOTES:
0000
0000
0000
0000
,
0000
0000
0000
0000
,
0000
0000
0000
0000
,
0000
0000
0000
0000
,
0000
0000
0000
0000
,
0000
0000
0000
0000
,
0000
0000
0000
0000
,
0000
0000
0000
0000
,
0000
0000
0000
0000
,
1000
0000
0000
0000
,
0000
0000
0000
0000
,
0001
0000
0000
0000
,
0100
0000
0000
0000
,
0010
0000
0000
0000
,
1000
0000
0000
0000
,
0001
0000
0000
0000
,
0010
0000
0000
0000
,
2002
0000
0000
0000
,
0000
0000
0000
0000
,
0000
0000
0000
0000
,
0000
0000
3003
0000
,
1000
0000
1000
0000
,
0001
0000
0001
0000
,
0100
0000
0010
0000
,
0110
0000
0000
0000
,
1001
0000
0000
0000
,
0001
0000
0010
0000
,
0100
0000
0000
0000
,
0010
0000
0001
0000
,
1000
0000
0000
0000
,
0010
0000
0100
0000
,
0001
0000
0000
0000
,
0100
0000
0010
0000
,
1001
0000
0000
0000
,
1000
0000
1000
0000
,
0100
0000
1000
0000
,
0010
0000
0000
0000
,
1001
0000
0000
0000
,
0001
0000
0001
0000
,
0100
0000
0001
0000
,
0010
0000
0100
0000
,
0000
1001
0000
0000
,
0000
1000
0000
0000
,
0000
0010
0000
0000
,
0000
1000
0000
0000
,
0000
0100
0000
0000
,
0000
1000
0000
0000
,
0000
0001
0000
0000
,
0000
1000
0000
0010
,
0000
0110
0000
0000
,
0000
0001
0000
0001
,
0000
0010
0000
0000
,
0000
0001
0000
1000
,
0000
0100
0000
0000
,
0000
0110
0000
0000
,
0000
1001
0000
0110
,
0000
0001
0000
1000
,
0000
2002
0000
0000
,
0000
0000
0000
0000
,
0000
0000
0000
0000
,
0000
0000
0000
3003
,
0000
0001
0000
0000
,
0000
0010
0000
0000
,
0000
0100
0000
0000
,
0000
1000
0000
0000
,
0000
1001
0000
0001
,
0100
0001
0000
0100
,
0000
0010
0000
1000
,
0010
1000
0000
0001
,
0000
1001
0000
0000
,
0000
1000
1000
0100
,
0000
1000
0000
0010
,
0000
0100
0000
0001
,
0000
1001
0000
0000
,
0000
1000
0000
0100
,
0000
0010
0001
0010
,
0000
2002
0000
0000
,
0000
0000
0000
0000
,
0000
3003
0000
0000
;

//--------------- dance-single - forcednature ----------------
#NOTEDATA:;
#STEPSTYPE:dance-single;
#DESCRIPTION:forcednature;
#DIFFICULTY:Easy;
#METER:9;
#RADARVALUES:0,0,0,0,0;
#CREDIT:forcednature;
#NOTES:
0000
0000
0000
0000
,
0000
0000
0000
0000
,
0000
0000
0000
0000
,
0000
0000
0000
0000
,
0000
0000
0000
0000
,
0000
0000
0000
0000
,
0000
0000
0000
0000
,
0000
0000
0000
0000
,
0000
0000
0000
0000
,
2000
0000
0000
3000
,
0200
0000
0000
0300
,
0020
0000
0000
0030
,
0002
0000
0000
0003
,
0200
0000
0000
0300
,
0020
0000
0000
0030
,
2000
0000
0000
3000
,
0002
0000
0000
0003
,
1001
0000
1000
1000
,
0100
0000
1000
0010
,
1000
0000
0001
0001
,
0100
0000
0001
0001
,
0010
0000
0001
0000
0010
0001
0010
0000
,
0001
0000
0100
0000
0001
0100
0001
0000
,
0100
0010
0100
0000
0010
0100
0010
0000
,
2002
0000
3003
0000
,
1000
0100
1000
0000
0001
0000
0010
0000
,
0100
0010
0001
1000
,
0001
0100
0001
0000
0010
0001
0010
0000
,
0100
1000
0010
0100
,
0001
0100
0001
0000
1000
0000
0100
0000
,
1000
0010
1000
0000
0010
0000
0100
0000
,
0001
1000
0001
0000
1000
0100
1000
0000
,
0010
0100
0110
0001
,
0100
1001
0010
1001
,
1000
0110
0001
0110
,
0100
1001
0010
1001
,
0001
0110
1000
0110
,
0100
1001
0010
1001
,
1000
0110
0001
0110
,
0010
1001
0100
1001
,
0110
0000
1001
0000
0001
1000
0001
1000
,
0000
0010
0100
0001
,
0100
0000
0010
0000
0100
0010
0100
0000
,
0001
0100
0001
0000
1000
0000
0100
0000
,
0010
0000
0100
0000
1000
0100
1000
0000
,
0010
1000
0010
0000
0100
0000
0001
0000
,
0100
0000
0010
0000
1000
0001
1000
0000
,
0100
1000
0100
0000
0010
0000
0010
0000
,
0001
0200
0320
2030
,
3002
0000
0103
0010
0100
0000
0010
0000
,
1000
0000
0100
1000
0100
0000
0010
0000
,
0001
0000
0100
0001
0100
0000
0010
0000
,
1000
0000
0001
0010
0001
0000
0010
0000
,
0100
0110
1000
0010
,
0100
0110
0001
0010
,
0100
1001
0100
1001
,
0010
0000
0110
0000
1000
0001
1000
0000
,
0001
2002
0000
0000
,
0000
0000
0000
0000
,
0000
0000
0000
0000
,
0000
0000
0000
3003
,
0000
2000
0000
3020
,
0000
0230
0302
2003
,
3020
0230
0000
0302
,
0000
0023
0230
2300
,
3000
0000
0001
1000
0010
0000
0100
0000
,
0001
0000
0010
0100
1000
0000
0010
0000
,
0100
0000
0001
1000
0100
0000
0010
0100
,
1000
0000
0001
0010
0100
0000
0010
0001
,
1000
1001
0001
0100
,
0010
0000
1000
0000
0001
0010
0001
0010
,
0100
0000
0010
0000
0001
1000
0100
0000
,
1000
0000
0010
0100
0001
0000
0010
0100
,
1000
0000
1001
0000
0001
0010
0100
0000
,
0010
0100
1000
0000
0100
1000
0001
0000
,
0100
0000
0010
1000
0100
0000
0010
0001
,
0100
2002
0000
0000
,
0000
0000
0000
0000
,
0000
3003
0000
0000
;

//--------------- dance-single - forcednature ----------------
#NOTEDATA:;
#STEPSTYPE:dance-single;
#DESCRIPTION:forcednature;
#DIFFICULTY:Medium;
#METER:13;
#RADARVALUES:0,0,0,0,0;
#CREDIT:forcednature;
#NOTES:
0000
0000
0000
0000
,
0000
0000
0000
0000
,
0000
0000
0000
0000
,
0000
0000
0000
0000
,
0000
0000
0000
0000
,
0000
0000
0000
0000
,
0000
0000
0000
0000
,
0000
0000
0000
0000
,
0000
0000
0000
0000
,
0002
0000
0000
0003
,
0020
0000
0000
0030
,
0200
0000
0000
0300
,
2000
0000
0000
3000
,
0020
0000
0000
0030
,
0200
0000
0000
0300
,
0002
0000
0000
0003
,
2000
0000
0000
3000
,
1001
0000
0001
0010
0000
0010
0001
0000
,
0100
0000
0000
0100
0000
0000
0010
0000
1000
0000
0001
0000
1000
0000
0000
0000
,
0100
0000
0000
0100
0000
0000
1000
0000
0010
0000
1000
0000
0010
0000
0000
0000
,
0100
0000
0000
0100
0000
0000
0001
0000
0010
0000
0001
0000
0010
0000
0000
0000
,
0100
1000
0010
1000
0100
1000
0010
0000
,
0100
0001
0010
0001
0100
0001
0010
0000
,
0100
0000
0000
1000
0100
0000
0000
1000
0010
0000
0010
0000
0100
0000
0001
0000
,
2002
0000
3003
0000
,
0001
0010
0100
0000
1000
0000
0010
0000
1000
0000
0000
0000
0001
0000
0010
0000
,
0100
0010
0001
0001
0100
0100
1000
1000
,
0100
0001
0100
0000
0001
0000
0010
0000
0001
1000
0001
0000
1000
0000
0100
0000
,
0010
0000
0000
0010
0000
0000
0001
0000
1000
0000
1000
0000
0010
0000
1000
0000
,
0001
0010
0100
0000
1000
0000
0010
0000
1000
0000
0000
0000
0001
0000
0010
0000
,
0001
0000
0100
0100
1000
1000
0100
0100
,
0001
0100
0001
0000
0010
0000
0001
0000
1000
0010
1000
0000
0100
0000
1000
0000
,
0010
0000
0000
0010
0000
0000
0100
0000
0001
0000
0001
0000
1000
0000
0001
0000
,
1001
0000
0000
1000
0100
0000
0010
0000
0100
0000
1000
0000
0010
0000
0100
0000
,
0001
0000
0000
0010
0100
0010
0000
0100
0010
0100
0000
0010
0100
0000
1000
0000
,
0001
0000
1000
0001
1000
0000
0010
0000
0100
0000
0001
0100
0001
0000
0010
0000
,
0100
0000
1000
0100
0000
1000
0100
0000
1000
0000
0010
0000
0100
0000
0001
0000
,
1001
0000
0000
0000
1000
0000
0010
1000
0010
0000
0100
0010
0100
0000
0001
0000
,
0010
0000
0000
0000
0001
0000
1000
0001
1000
0000
0100
1000
0001
0000
0100
0000
,
0110
0000
0010
1000
1100
0000
0001
0010
,
0110
0000
0000
0000
1001
0000
0000
0000
1000
0000
0100
0000
1000
0001
1000
0001
,
0000
0000
1000
0100
0001
0100
1000
0001
,
1000
0010
0001
0010
1000
0001
1000
0100
,
0001
0100
1000
0010
0100
1000
0100
0010
,
1000
0001
0100
0010
0001
0010
0100
0001
,
1000
0000
0001
0100
1000
0100
0001
1000
,
0001
0010
1000
0010
0001
1000
0001
0100
,
1000
0100
0001
0010
0100
0001
0100
0100
,
1000
0000
0100
0000
1000
0000
0000
1000
0010
0000
0000
0010
0100
0000
0000
0100
,
0002
0000
0000
0000
1003
0000
0100
1000
0100
0000
1000
0000
0010
0000
0100
0000
,
0001
0000
0010
0000
0100
0000
0010
0100
0010
0000
0001
0000
1000
0000
0010
0000
,
0001
0000
0010
0000
1000
0000
0010
1000
0010
0000
0100
0000
0001
0000
1000
0000
,
0100
0000
1000
0000
0010
0000
0100
0010
0100
0000
0001
0000
0010
0000
0001
0010
,
0100
0000
1000
0000
1100
0000
0000
0001
0010
0000
0100
0000
0010
0000
0001
0000
,
1000
0000
0010
0000
0110
0000
0000
0001
1000
0000
0100
0000
1000
0000
0001
0000
,
0010
0000
0100
0000
0110
0000
0000
0010
0001
0000
0100
0000
0110
0000
0000
0010
,
1000
0000
0100
0000
1000
0000
0000
0010
0100
0000
0000
0001
1000
0000
0010
0000
,
0100
0010
0100
0010
0200
0000
0000
0000
0000
0000
0300
0000
0002
0000
0000
0000
,
0000
0003
2000
0000
0000
3000
0020
0000
,
0000
0030
2000
0000
0000
3000
0200
0000
,
0000
0300
0020
0000
0000
0030
0002
0000
,
0000
0003
0200
0000
0320
0000
2030
0000
,
3002
0000
0023
0000
0130
1000
0010
0100
,
0001
0000
0010
0000
0200
0000
0000
0000
0310
0000
0000
0001
2000
0000
0000
0000
,
3020
0000
0230
0000
0302
0000
1003
0100
,
0010
0000
0000
0000
0100
0000
1000
0100
0010
0000
0001
0000
1000
0000
0010
1000
,
0001
0000
0100
0000
0010
0000
1000
0001
0010
0000
0100
0000
0010
0000
0001
1000
,
0100
0000
1000
0000
0010
0000
0100
0001
1000
0000
0100
0000
1000
0000
0100
0010
,
0001
0000
1000
0000
0010
0000
0100
0001
1000
0000
0010
0000
0100
0000
0001
0010
,
0100
0000
0010
0000
0110
0000
0000
0001
1000
0000
0000
0100
1000
0000
0000
0010
,
0100
0000
0000
0001
0010
0000
0000
0000
0100
1000
0100
0000
1000
0010
1000
0000
,
0010
0000
0100
0000
0001
0000
0000
0010
0001
0000
0000
0100
0010
0000
1000
0000
,
0001
0000
0000
0010
0100
0000
0000
1000
0010
0000
0000
0100
0001
0000
1001
0000
,
0000
0100
0110
0000
1000
0100
1000
0010
,
0100
0001
0010
0100
1000
0010
0100
0001
,
0010
0000
0001
0000
0100
0000
0010
0100
0010
0000
1000
0010
1000
0000
0100
1000
,
0100
0000
0000
0010
0002
0000
0000
0000
0000
0000
0000
0000
0000
0000
0000
0000
,
0000
0000
0000
0000
,
0000
0003
0000
0000
;

//--------------- dance-single - forcednature ----------------
#NOTEDATA:;
#STEPSTYPE:dance-single;
#DESCRIPTION:forcednature;
#DIFFICULTY:Hard;
#METER:16;
#RADARVALUES:0,0,0,0,0;
#CREDIT:forcednature;
#NOTES:
0000
0000
0000
0000
,
0000
0000
0000
0000
,
0000
0000
0000
0000
,
0000
0000
0000
0000
,
0000
0000
0000
0000
,
0000
0000
0000
0000
,
0000
0000
0000
0000
,
0000
0000
0000
0000
,
0000
0000
0000
0000
,
2000
0000
0000
3000
,
0020
0000
0000
0030
,
0200
0000
0000
0300
,
0002
0000
0000
0003
,
0020
0000
0100
0130
,
0200
0000
1000
1300
,
2000
0000
0010
3010
,
0002
0000
0010
0103
,
0101
0000
0000
1000
0000
0000
0010
0000
0100
0000
0100
0000
0001
0000
1000
0000
,
0100
0000
0000
1000
0000
0000
0001
0000
0010
0000
0000
0100
0000
0010
0000
0000
,
0001
0000
0000
0100
0000
0000
0001
0000
1000
0000
1000
0000
0010
0000
1000
0000
,
0001
0000
0000
0010
0000
0000
0100
0000
0000
0010
0000
0010
0000
0000
0100
0000
,
1000
0001
1000
0000
0001
0000
0100
0001
0100
0000
0001
0000
0100
0010
0100
0000
,
0010
1000
0010
0000
1000
0000
0100
1000
0100
0000
0010
0000
0001
0010
0001
0000
,
0100
0000
0001
0100
0000
0010
0100
0000
0010
1000
0010
1000
0001
0000
0100
0000
,
2002
0000
0000
0000
0000
0000
3003
0000
1000
0100
0000
0100
0010
0001
0010
0000
,
0001
0100
0010
1000
0001
0000
0100
0000
0001
0000
0010
0000
0100
0010
0001
1000
,
0100
0000
1000
0001
0000
1000
0010
0000
0100
0010
0100
0000
0001
0100
0001
0000
,
1000
0100
0010
0100
1000
0000
0001
0000
0010
0100
0010
0001
1000
0000
0010
0000
,
0100
0000
0001
0100
0000
0010
0100
0010
1000
0000
1000
0000
0100
0000
1000
0000
,
0010
0100
0001
1000
0010
0000
0100
0000
0001
0000
1000
0000
0100
1000
0100
0010
,
0001
0000
0100
0001
0000
0100
0010
0000
1000
0100
1000
0000
0001
0010
0001
0000
,
0100
0001
1000
0001
0100
0000
0010
0000
1000
0001
0010
0001
1000
0000
0100
0000
,
0010
0000
0100
0010
0000
0001
0010
0001
0010
0000
0100
0000
1100
0000
0001
0000
,
0100
0010
0100
0010
1000
0000
0001
0100
0010
0100
0010
0100
0001
0000
1000
0001
,
1000
0000
0100
1000
0100
0010
0100
1000
0100
0010
0100
1000
0001
0010
0001
0000
,
1000
0000
0010
0100
0010
0000
1000
0000
0100
1000
0010
0000
0100
0001
0010
0000
,
0100
0010
0001
0010
0100
0010
0001
0000
0100
0010
1000
0000
0100
0010
0001
0000
,
1000
0010
1000
0000
0001
0010
0001
0000
1000
0100
1000
0001
0100
0001
1000
0000
,
0010
1000
0001
0000
0010
0001
1000
0000
0100
1000
0001
0000
0100
0001
1000
0000
,
0010
0100
0010
0100
0001
0100
0010
0000
1000
0010
1000
0010
0100
0001
1000
0000
,
0100
0010
0001
0010
0100
1000
0100
0010
0001
0000
0011
0000
0010
0001
1000
0010
,
0000
0000
0000
0000
0100
0001
0000
0001
0100
0000
1000
0000
0100
0000
0001
0000
,
0010
0000
1000
0000
0010
0001
0000
0001
0010
0000
1000
0000
0010
0000
0001
0000
,
0100
0000
1000
0000
0100
0001
0000
0001
1000
0000
0010
0000
1000
0100
0000
0100
,
1000
0000
0001
0000
0010
0100
0000
0100
0010
0000
0001
0000
1000
0000
0010
0000
,
0001
0000
1000
0000
0100
0001
0000
0001
0100
0000
0010
0000
1000
0000
0100
0000
,
0001
0000
0100
0000
1000
0010
0000
0010
1000
0000
0001
0000
0010
0000
1000
0000
,
0010
0000
0001
0000
1000
0100
0000
0100
1000
0000
0001
0000
0010
0000
1000
0000
,
0010
0000
0001
0000
0100
0000
0000
0010
1000
0000
0000
0100
0010
0000
0001
0000
,
0100
0010
0100
0010
1000
0000
0001
0010
0100
0000
0010
0001
1000
0000
0010
0000
,
0110
0000
0001
0000
1000
0000
0100
0010
0001
0000
0100
0010
1000
0000
0100
0000
,
1100
0000
0001
0000
0010
0100
1000
0000
0010
0100
0001
0000
1000
0100
1000
0000
,
0010
0100
0000
0001
0010
0000
0001
1000
0001
0000
0100
0000
0010
0000
1000
0100
,
0010
0000
0001
0000
1001
0000
0000
0000
1000
0100
0010
0000
0100
1000
0010
0000
,
0100
0001
0010
0000
0001
1000
0010
1000
0001
0100
0010
0100
0001
0000
1000
0100
,
0010
0000
0001
0000
1000
0010
0100
0010
0001
0000
0010
0000
1000
0100
0010
0100
,
0001
0000
0100
0000
1000
0000
0010
0100
0001
0000
0010
0100
1000
0000
1100
0000
,
0100
0010
0001
1000
0020
0000
0000
0000
0000
0000
0030
0000
2000
0000
0000
0000
,
0000
3000
0002
0000
0000
0003
0020
0000
,
0000
0030
0200
0000
0000
0300
2000
0000
,
0000
3000
0002
0000
0000
0003
0200
0000
,
0000
0300
0020
0000
2030
0000
3200
0000
,
2300
0000
0000
0000
3002
0000
0000
0000
0013
0100
0010
0000
0100
1000
0100
0000
,
1000
0001
1000
0000
0002
0000
0000
0000
0103
0000
0000
0010
2000
0000
0000
0000
,
3002
0000
0023
0000
0230
0000
1300
0010
,
0110
0000
0000
0000
0001
0000
1000
0100
0010
0000
1000
0000
0010
0000
0001
0100
,
0010
0000
0001
0000
0010
0000
1000
0001
0100
0000
1000
0000
0100
0000
0001
1000
,
0100
0000
0001
0000
0100
0000
0010
0001
0100
0000
0010
0000
0001
0000
0010
1000
,
0100
0000
0010
0000
1000
0000
0010
0001
0100
0000
1000
0000
0100
0000
0010
1000
,
0100
0000
0001
0000
0110
0000
0000
0010
0001
0000
0000
0001
0100
0000
0000
0010
,
1000
0000
0000
1000
0100
0000
0000
0000
1000
0010
0100
0001
1000
0100
0010
0001
,
1000
0010
0100
0001
0010
0000
0100
1000
0001
0000
0100
0001
0010
0000
0100
1000
,
0001
0000
0100
0000
1000
0000
0100
0001
1000
0000
0010
0100
0001
0000
0011
0000
,
0000
0000
0100
0000
1001
0000
0000
0000
0001
0100
0010
1000
0001
0010
0100
1000
,
0001
0100
0010
1000
0100
0010
0100
0010
0001
1000
0001
1000
0010
0100
0001
0100
,
0010
0000
1000
0000
0001
0010
0100
0010
0001
1000
0100
1000
0001
0010
0100
1000
,
0010
0000
0100
0001
0020
0000
0000
0000
0000
0000
0000
0000
0000
0000
0000
0000
,
0000
0000
0000
0000
,
0000
0030
0000
0000
;

//--------------- dance-double - forcednature ----------------
#NOTEDATA:;
#STEPSTYPE:dance-double;
#DESCRIPTION:forcednature;
#DIFFICULTY:Easy;
#METER:9;
#RADARVALUES:0,0,0,0,0;
#CREDIT:forcednature;
#NOTES:
00000000
00000000
00000000
00000000
,
00000000
00000000
00000000
00000000
,
00000000
00000000
00000000
00000000
,
00000000
00000000
00000000
00000000
,
00000000
00000000
00000000
00000000
,
00000000
00000000
00000000
00000000
,
00000000
00000000
00000000
00000000
,
00000000
00000000
00000000
00000000
,
00000000
00000000
00000000
00000000
,
00002000
00000000
00000000
00003000
,
02000000
00000000
00000000
03000000
,
00020000
00000000
00000000
00030000
,
00200000
00000000
00000000
00300000
,
02000000
00000000
00000000
03000000
,
20000000
00000000
00000000
30000000
,
00200000
00000000
00000000
00300000
,
02000000
00000000
00000000
03000000
,
10010000
00000000
00010000
00010000
,
00100000
00000000
00001000
00010000
,
00000100
00000000
00001000
00001000
,
00000010
00000000
00000100
00000100
,
00000001
00000000
00000010
00000000
00000001
00001000
00000001
00000000
,
00001000
00000000
00000100
00000000
00010000
00001000
00010000
00000000
,
00001000
00100000
00001000
00000000
00100000
00010000
00100000
00000000
,
20020000
00000000
30030000
00000000
,
00010000
01000000
00010000
00000000
00100000
00000000
00001000
00000000
,
00010000
00000010
00001000
00000100
,
00001000
00000001
00001000
00000000
00000010
00001000
00000010
00000000
,
00000100
00000001
00000010
00000100
,
00001000
00000100
00001000
00000000
00000100
00000000
00010000
00000000
,
00001000
00010000
00001000
00000000
00100000
00000000
00010000
00000000
,
01000000
00010000
01000000
00000000
00100000
10000000
00100000
00000000
,
10000000
01000000
01100000
00100000
,
00001000
00011000
00000100
00011000
,
00100000
00011000
00000010
00011000
,
01000000
10010000
00100000
10010000
,
00010000
01100000
10000000
01100000
,
00010000
00011000
00000010
00000110
,
00000100
00001001
00000010
00000110
,
00001000
00011000
00100000
10010000
,
01100000
00000000
10010000
00000000
00010000
10000000
00010000
00100000
,
00000000
00001000
00010000
00000100
,
00010000
00000000
00001000
00000000
00100000
00010000
00100000
00000000
,
01000000
10000000
01000000
00000000
10000000
00000000
00100000
00000000
,
01000000
00000000
00010000
00000000
00100000
00010000
00100000
00000000
,
00001000
00010000
00001000
00000000
00010000
00000000
00000010
00000000
,
00001000
00000000
00000001
00000000
00000100
00000001
00000100
00000000
,
00000010
00001000
00000010
00000000
00001000
00000000
00001000
00000000
,
00000100
00020000
00032000
00203000
,
00320000
00000000
10030000
00100000
10000000
00000000
01000000
00000000
,
10000000
00000000
00010000
00100000
00010000
00000000
00100000
00000000
,
00001000
00000000
00010000
00001000
00010000
00000000
00000100
00000000
,
00001000
00000000
00000010
00001000
00000010
00000000
00000100
00000000
,
00000001
00000110
00001000
00000100
,
00010000
00011000
00100000
00010000
,
01000000
10010000
00100000
10010000
,
00001000
00000000
00011000
00000000
00010000
00001000
00010000
00000000
,
00000100
00002002
00000000
00000000
,
00000000
00000000
00000000
00000000
,
00000000
00000000
00000000
00000000
,
00000000
00000000
00000000
00003003
,
00000000
00002000
00000000
00003200
,
00000000
00020300
00032000
00203000
,
00320000
20030000
00000000
30200000
,
00000000
02300000
03002000
00023000
,
00030000
00000000
00000010
00001000
00000001
00000000
00000010
00000000
,
00000100
00000000
00001000
00000100
00010000
00000000
00001000
00000000
,
00100000
00000000
00010000
10000000
00100000
00000000
01000000
00001000
,
00010000
00000000
00000010
00001000
00000100
00000000
00000010
00000001
,
00001000
00000110
00000001
00000100
,
00001000
00000000
00010000
00000000
00100000
01000000
00100000
01000000
,
00010000
00000000
10000000
00000000
01000000
00100000
00010000
00000000
,
01000000
00000000
00001000
00010000
00001000
00000000
00010000
00000010
,
00001000
00000000
00001001
00000000
00000001
00000010
00000100
00000000
,
00000010
00000100
00001000
00000000
00000100
00010000
00001000
00000000
,
01000000
00000000
00100000
10000000
01000000
00000000
00100000
00001000
,
00010000
00022000
00000000
00000000
,
00000000
00000000
00000000
00000000
,
00000000
00033000
00000000
00000000
;

//--------------- dance-double - forcednature ----------------
#NOTEDATA:;
#STEPSTYPE:dance-double;
#DESCRIPTION:forcednature;
#DIFFICULTY:Medium;
#METER:14;
#RADARVALUES:0,0,0,0,0;
#CREDIT:forcednature;
#NOTES:
00000000
00000000
00000000
00000000
,
00000000
00000000
00000000
00000000
,
00000000
00000000
00000000
00000000
,
00000000
00000000
00000000
00000000
,
00000000
00000000
00000000
00000000
,
00000000
00000000
00000000
00000000
,
00000000
00000000
00000000
00000000
,
00000000
00000000
00000000
00000000
,
00000000
00000000
00000000
00000000
,
00020000
00000000
00000000
00030000
,
00002000
00000000
00000000
00003000
,
00000200
00000000
00000000
00000300
,
00000020
00000000
00000000
00000030
,
00002000
00000000
00000000
00003000
,
00000200
00000000
00000000
00000300
,
00000020
00000000
00000000
00000030
,
00000002
00000000
00000000
00000003
,
00001001
00000000
00001000
00000010
00000000
00000010
00010000
00000000
,
00001000
00000000
00000000
00001000
00000000
00000000
01000000
00000000
00010000
00000000
01000000
00000000
00100000
00000000
00000000
00000000
,
10000000
00000000
00000000
10000000
00000000
00000000
01000000
00000000
10000000
00000000
00010000
00000000
00100000
00000000
00000000
00000000
,
00001000
00000000
00000000
00001000
00000000
00000000
00010000
00000000
00000010
00000000
00001000
00000000
00000010
00000000
00000000
00000000
,
00000100
00001000
00010000
00001000
00000100
00001000
00010000
00100000
,
10000000
01000000
10000000
00010000
10000000
01000000
10000000
00010000
,
00100000
00000000
00000000
01000000
00100000
00000000
00000000
00010000
00100000
00000000
00100000
00000000
00001000
00000000
00010000
00000000
,
00022000
00000000
00033000
00000000
,
00000010
00001000
00000100
00000000
00000001
00000000
00000100
00000000
00001000
00000000
00000000
00000000
00000001
00000000
00000010
00000000
,
00000100
00010000
00001000
00001000
00100000
00010000
01000000
00100000
,
10000000
01000000
10000000
00000000
00010000
00000000
01000000
00000000
00100000
10000000
00100000
00000000
10000000
00000000
01000000
00000000
,
00010000
00000000
00000000
00010000
00000000
00000000
00001000
00000000
00010000
00000000
00010000
00000000
00100000
00000000
10000000
00000000
,
00100000
10000000
01000000
00000000
00010000
00000000
00001000
00000000
00010000
00000000
00000000
00000000
01000000
00000000
10000000
00000000
,
00100000
00000000
00010000
00010000
00001000
00001000
00000100
00000001
,
00000010
00000001
00000010
00000000
00000100
00000000
00001000
00000000
00000010
00001000
00000010
00000000
00010000
00000000
00001000
00000000
,
00100000
00000000
00000000
00100000
00000000
00000000
01000000
00000000
00010000
00000000
00010000
00000000
00001000
00000000
00010000
00000000
,
00011000
00000000
00000000
00000100
00001000
00000000
00000010
00000000
00000100
00000000
00001000
00000000
00000100
00000000
00000001
00000000
,
00001000
00000000
00000000
00000010
00000000
00000100
00000000
00001000
00000000
00010000
00000000
00100000
01000000
00000000
00010000
00000000
,
10000000
00000000
01000000
10000000
00010000
00000000
00100000
00000000
01000000
00000000
00010000
00001000
00010000
00000000
00001000
00000000
,
00000010
00000000
00000100
00001000
00000000
00000100
00001000
00000000
00000010
00000000
00000100
00000000
00000001
00000000
00000010
00000000
,
00001001
00000000
00000000
00000000
00000001
00000000
00000100
00000001
00000100
00000000
00000010
00001000
00000001
00000000
00000010
00000000
,
00001000
00000000
00000000
00000000
00010000
00000000
00001000
00010000
00001000
00000000
00100000
00010000
10000000
00000000
01000000
00000000
,
01100000
00000000
00100000
00001000
00011000
00000000
00000100
00001000
,
00001010
00000000
00000000
00000000
00000101
00000000
00000000
00000000
00000001
00000000
00000010
00000000
00000001
00001000
00000001
00001000
,
00000000
00000000
00000001
00000100
00001000
00010000
00100000
01000000
,
00100000
10000000
01000000
00010000
00001000
00000010
00000100
00000010
,
00000001
00000100
00001000
00000100
00000001
00000010
00001000
00010000
,
00100000
10000000
01000000
00010000
01000000
10000000
00100000
00010000
,
00001000
00000000
00000100
00001000
00010000
01000000
00010000
00001000
,
00000010
00000100
00010000
00000010
00000100
00000001
00000010
00001000
,
00010000
00100000
10000000
01000000
00100000
00001000
01000000
01000000
,
00100000
10000000
02000000
00000000
03020000
00000000
00032000
00000000
,
00003020
00000000
00000000
00000000
00000031
00000000
00000100
00000001
00000010
00000000
00001000
00000000
00000010
00000000
00000001
00000000
,
00000100
00000000
00001000
00000000
00010000
00000000
00001000
00100000
00010000
00000000
01000000
00000000
00100000
00000000
10000000
00000000
,
01000000
00000000
00010000
00000000
00001000
00000000
00100000
00010000
01000000
00000000
00100000
00000000
10000000
00000000
01000000
00000000
,
00010000
00000000
00001000
00000000
00000010
00000000
00000100
00001000
00000010
00000000
00000100
00000000
00000001
00000000
00000010
00000100
,
00001000
00000000
00000010
00000000
00001001
00000000
00000000
00000001
00000100
00000000
00001000
00000000
00000100
00000000
00000001
00000000
,
00000010
00000000
00001000
00000000
00011000
00000000
00000000
01000000
00010000
00000000
00100000
00000000
10000000
00000000
00100000
00000000
,
00010000
00000000
01000000
00000000
01100000
00000000
00000000
00100000
10000000
00000000
01000000
00000000
01100000
00000000
00000000
00100000
,
00001000
00000000
00010000
00000000
00000100
00000000
00000000
00001000
00000010
00000000
00000000
00000100
00000001
00000000
00000010
00000000
,
00000100
00000010
00000100
00000010
00000200
00000000
00000000
00000000
00000000
00000000
00000300
00000000
00020000
00000000
00000000
00000000
,
00000000
00030000
00002000
00000000
00000000
00003000
00200000
00000000
,
00000000
00300000
02000000
00000000
00000000
03000000
00020000
00000000
,
00000000
00030000
00002000
00000000
00000000
00003000
00000020
00000000
,
00000000
00000030
00000002
00000000
00000203
00000000
00002300
00000000
,
00023000
00000000
02030000
00000000
13000000
00100000
01000000
00001000
,
00010000
00000000
00000010
00000000
00000200
00000000
00000000
00000000
00000301
00000000
00000000
00000010
00000200
00000000
00000000
00000000
,
00020300
00000000
00032000
00000000
00203000
00000000
01300000
10000000
,
00100000
00000000
00000000
00000000
01000000
00000000
00010000
10000000
01000000
00000000
00010000
00000000
00001000
00000000
00010000
00001000
,
00100000
00000000
00010000
00000000
01000000
00000000
00001000
00010000
00000010
00000000
00000100
00000000
00001000
00000000
00000100
00000001
,
00001000
00000000
00000010
00000000
00000010
00000000
00001000
00000100
00000010
00000000
00000100
00000000
00010000
00000000
00001000
00100000
,
00010000
00000000
01000000
00000000
00100000
00000000
10000000
01000000
00010000
00000000
00001000
00000000
00100000
00000000
00010000
00100000
,
01000000
00000000
00100000
00000000
01100000
00000000
00000000
00010000
10000000
00000000
00000000
01000000
00010000
00000000
00000000
00001000
,
00010000
00000000
00000000
00000010
00001000
00000000
00000000
00000000
00000001
00000100
00000001
00000000
00000100
00000010
00001000
00000000
,
00000100
00000000
00000010
00000000
00001000
00000000
00000000
00100000
00010000
00000000
00000000
01000000
00100000
00000000
10000000
00000000
,
00010000
00000000
00000000
00100000
00001000
00000000
00000000
00010000
00000100
00000000
00000000
00001000
00000010
00000000
00000110
00000000
,
00000000
00000100
00001001
00000000
00000001
00000010
00000100
00001000
,
00000010
00000100
00001000
00010000
00100000
01000000
10000000
01000000
,
00010000
00000000
00100000
00000000
01000000
00000000
10000000
01000000
00010000
00000000
00000000
00001000
00010000
00000000
00001000
00000010
,
00000001
00000000
00000000
00000100
00000020
00000000
00000000
00000000
00000000
00000000
00000000
00000000
00000000
00000000
00000000
00000000
,
00000000
00000000
00000000
00000000
,
00000000
00000030
00000000
00000000
;

//--------------- dance-double - forcednature ----------------
#NOTEDATA:;
#STEPSTYPE:dance-double;
#DESCRIPTION:forcednature;
#DIFFICULTY:Hard;
#METER:17;
#RADARVALUES:0,0,0,0,0;
#CREDIT:forcednature;
#NOTES:
00000000
00000000
00000000
00000000
,
00000000
00000000
00000000
00000000
,
00000000
00000000
00000000
00000000
,
00000000
00000000
00000000
00000000
,
00000000
00000000
00000000
00000000
,
00000000
00000000
00000000
00000000
,
00000000
00000000
00000000
00000000
,
00000000
00000000
00000000
00000000
,
00000000
00000000
00000000
00000000
,
00002000
00000000
00000000
00003000
,
00020000
00000000
00000000
00030000
,
00200000
00000000
00000000
00300000
,
20000000
00000000
00000000
30000000
,
02000000
00010000
00100000
10000000
,
03020000
00001000
00000010
00001000
,
00030200
00000001
00000010
00001000
,
00020300
00000010
00001000
01030000
,
01100000
00000000
00000000
00100000
00000000
00000000
00010000
00000000
10000000
00000000
10000000
00000000
00100000
00000000
00010000
00000000
,
00001000
00000000
00000000
00001000
00000000
00000000
00000100
00000000
00000001
00000010
00000000
00000010
00000001
00001000
00000000
00000000
,
00000100
00000000
00000000
00000100
00000000
00000000
00000010
00000000
00001000
00000000
00001000
00000000
00010000
00000000
00001000
00000000
,
00010000
00000000
00000000
00010000
00000000
00000000
01000000
00000000
10000000
00100000
00000000
00100000
01000000
00010000
00000000
00000000
,
00100000
00010000
00100000
00001000
00010000
00000000
00000010
00001000
00000010
00000000
00000100
00000000
00000001
00000010
00000001
00000000
,
00001000
00000100
00010000
00001000
00010000
00000000
00001000
01000000
00010000
00000000
00100000
00000000
01000000
00100000
01000000
00000000
,
10000000
00000000
00100000
01000000
00010000
00000000
00100000
01000000
00010000
00001000
00010000
00001000
00000010
00000000
00000100
00000000
,
00000220
00000000
00000000
00000000
00000000
00000000
00000330
00000000
00000001
00000100
00000000
00001000
00000100
00000001
00000100
00000000
,
00000010
00000100
00001000
00010000
00001000
00000000
00100000
00000000
00010000
00000000
00100000
00000000
01000000
10000000
00010000
00100000
,
10000000
00000000
00100000
00010000
00100000
00000000
00001000
00000000
00010000
00000100
00001000
00000000
00000001
00001000
00000010
00000000
,
00000100
00001000
00010000
00100000
01000000
00000000
00001000
00000000
00010000
00100000
01000000
10000000
01000000
00000000
00010000
00000000
,
00100000
00000000
01000000
10000000
00000000
01000000
00010000
01000000
00010000
00000000
00010000
00000000
00001000
00000000
00000100
00000000
,
00000010
00000100
00001000
00010000
00100000
00000000
01000000
00000000
00010000
00000000
10000000
00000000
01000000
10000000
01000000
00100000
,
00010000
00000000
01000000
00010000
01000000
00000000
00001000
00000000
00010000
00100000
00010000
00000000
00001000
00000010
00001000
00000000
,
00010000
00001000
01000000
00010000
00100000
00000000
00001000
00000000
00010000
00100000
01000000
00100000
10000000
00000000
01000000
00000000
,
00100000
00000000
00010000
00100000
00000000
00001000
00010000
00000100
00001000
00000000
00001010
00000000
00000110
00000000
00000101
00000000
,
00000001
00000010
00000100
00001000
00000001
00000000
00000100
00000000
00001000
00010000
00001000
00010000
00100000
01000000
00010000
00000000
,
10000000
00000000
00000000
01000000
00010000
00001000
00010000
01000000
00010000
00001000
00100000
00001000
00010000
00000100
00010000
00000000
,
00001000
00000000
00000010
00000100
00000010
00000000
00000001
00000000
00000100
00001000
00010000
00000000
00100000
00010000
00001000
00000000
,
00000100
00000010
00001000
00000100
00010000
00001000
00100000
00010000
01000000
00100000
10000000
00000000
01000000
00100000
00010000
00000000
,
10000000
01000000
00010000
00000000
01000000
10000000
00010000
00000000
00100000
01000000
00010000
01000000
00100000
00001000
00010000
00000000
,
00000010
00001000
00000100
00000000
00000010
00000001
00000100
00000000
00001000
00010000
00100000
00000000
00010000
00001000
00010000
00000000
,
00100000
01000000
00010000
01000000
00100000
10000000
00010000
10000000
01000000
00100000
00010000
00100000
00001000
00010000
00000100
00000000
,
00001000
00000010
00000100
00001000
00010000
00100000
01000000
00100000
10000000
00000000
11000000
00000000
01000000
00100000
01000000
00010000
,
00000000
00000000
00000000
00000000
00001000
00000010
00000000
00000010
00000001
00000000
00000010
00000000
00001000
00000000
00010000
00000000
,
01000000
00000000
10000000
00000000
00100000
00010000
00000000
00010000
00100000
00000000
10000000
00000000
01000000
00000000
00010000
00000000
,
00001000
00000000
00000100
00000000
00000001
00001000
00000000
00001000
00000001
00000000
00000010
00000000
00000100
00010000
00000000
00010000
,
00001000
00000000
00100000
00000000
00010000
01000000
00000000
01000000
00100000
00000000
10000000
00000000
01000000
00000000
00010000
00000000
,
00001000
00000000
00000010
00000000
00000100
00001000
00000000
00001000
00000001
00000000
00000100
00000000
00001000
00000000
00010000
00000000
,
01000000
00000000
00010000
00000000
00001000
00100000
00000000
00100000
00001000
00000000
00010000
00000000
00100000
00000000
10000000
00000000
,
01000000
00000000
00010000
00000000
00001000
00010000
00000100
00000000
00010000
00001000
01000000
00000000
01010000
00000000
00110000
00000000
,
00101000
00011000
00020000
00000000
00030200
00000000
00002300
00000000
,
00203000
00000000
00000000
00000000
10300000
00010000
01000000
00100000
10000000
00000000
01000000
00010000
00001000
00000000
00100000
00000000
,
00110000
00000000
00001000
00000000
00010000
00000100
00001000
00000010
00000100
00000000
00000001
00000100
00001000
00000000
00010000
00000000
,
00011000
00000000
00100000
00000000
00010000
01000000
10000000
00000000
01000000
00010000
10000000
00000000
01000000
00010000
00001000
00000000
,
00000010
00000100
00000000
00001000
00000010
00000000
00000100
00000010
00000100
00000000
00000001
00000000
00000010
00000000
00001000
00010000
,
00001000
00000000
00010000
00000000
00101000
00000000
00000000
00000000
10000000
01000000
00010000
00000000
00001000
00010000
00100000
00000000
,
00010000
00001000
00000100
00000000
00000001
00001000
00000010
00000100
00000010
00010000
00001000
00010000
00000100
00000000
00010000
00001000
,
00100000
00010000
00100000
00000000
01000000
10000000
00100000
00000000
00010000
00000000
00001000
00000000
00000100
00000001
00000010
00000000
,
00001000
00000000
00010000
00000000
01000000
00000000
00100000
00010000
01000000
00000000
00100000
10000000
01000000
00000000
01100000
00000000
,
00100000
00010000
00001000
00000100
00000020
00000000
00000000
00000000
00000000
00000000
00000030
00000000
00000002
00000000
00000000
00000000
,
00000000
00000003
00000200
00000000
00000000
00000300
00002000
00000000
,
00000000
00003000
00020000
00000000
00000000
00030000
00200000
00000000
,
00000000
00300000
20000000
00000000
00000000
30000000
02000000
00000000
,
00000000
03000000
00020000
00000000
00032000
00000000
00003020
00000000
,
00000230
00000000
00000000
00000000
00002300
00000000
00000000
00000000
00003010
00001000
00000010
00000000
00000100
00000001
00000100
00000000
,
00000010
00010000
00001000
00000000
02000000
00000000
00000000
00000000
03100000
00000000
00000000
10000000
00020000
00000000
00000000
00000000
,
00230000
00000000
02300000
00000000
03020000
00000000
00030100
00001000
,
00001100
00000000
00000000
00000000
00000001
00000000
00001000
00000010
00000001
00000000
00000010
00000000
00001000
00000000
00010000
01000000
,
00100000
00000000
10000000
00000000
01000000
00000000
00010000
01000000
10000000
00000000
00100000
00000000
00010000
00000000
00001000
00000100
,
00000010
00000000
00001000
00000000
00000001
00000000
00000010
00001000
00010000
00000000
00100000
00000000
00010000
00000000
00001000
00010000
,
01000000
00000000
10000000
00000000
00100000
00000000
00010000
00001000
00010000
00000000
00001000
00000000
00000100
00000000
00000001
00001000
,
00000100
00000010
00000110
00000000
00000002
00000000
00002003
00000000
,
00023000
00000000
00000000
00000000
10030000
00000000
00000000
00000000
00010000
00100000
01000000
00100000
00001000
00010000
00000100
00000010
,
00000100
00001000
00000010
00000100
00000001
00000000
00000010
00001000
00010000
00000000
01000000
00010000
00001000
00000000
00010000
00001000
,
00100000
00000000
01000000
00000000
10000000
00000000
00010000
01000000
10000000
00000000
01000000
00010000
00100000
00000000
00110000
00000000
,
00000000
00000000
00001000
00000000
00010100
00000000
00000000
00000000
00000001
00000010
00000001
00001000
00000010
00000100
00001000
00010000
,
00001000
01000000
00010000
00100000
01000000
10000000
01000000
00100000
00010000
00001000
00010000
00001000
00000100
00000010
00000001
00001000
,
00000010
00000000
00000100
00000000
00001000
00010000
00100000
01000000
00100000
10000000
00010000
10000000
01000000
00010000
00001000
00010000
,
00001000
00000010
00000100
00000010
00000002
00000000
00000000
00000000
00000000
00000000
00000000
00000000
00000000
00000000
00000000
00000000
,
00000000
00000000
00000000
00000000
,
00000000
00000003
00000000
00000000
;
