#VERSION:0.83;
#TITLE:T-REX vs Velociraptor (In the Far east euphoria);
#SUBTITLE:;
#ARTIST:RoughSketch & TARACHINE;
#TITLETRANSLIT:;
#SUBTITLETRANSLIT:;
#ARTISTTRANSLIT:;
#GENRE:RAVECORE;
#CREDIT:;
#MUSIC:T-REX vs Velociraptor (In the Far east euphoria).ogg;
#BANNER:T-REX vs Velociraptor (In the Far east euphoria).png;
#BACKGROUND:T-REX vs Velociraptor (In the Far east euphoria)-bg.png;
#CDTITLE:./CDTitles/bm IIDX 27 HEROIC VERSE.png;
#SAMPLESTART:84.982;
#SAMPLELENGTH:15.000;
#SELECTABLE:YES;
#OFFSET:0.192;
#BPMS:0.000=200.000;
#STOPS:;
#TIMESIGNATURES:0.000=4=4;
#BGCHANGES:4.000=T-REX vs Velociraptor (In the Far east euphoria).mp4=1.000=0=0=0=StretchNoLoop====,
99999.000=-nosongbg-=1.000=0=0=0=StretchNoLoop====
;
#FGCHANGES:;

//--------------- dance-single - forcednature ----------------
#NOTEDATA:;
#STEPSTYPE:dance-single;
#DESCRIPTION:forcednature;
#DIFFICULTY:Beginner;
#METER:5;
#RADARVALUES:0,0,0,0,0;
#CREDIT:forcednature;
#NOTES:
0000
0000
0000
0000
,
0000
0000
0000
0000
,
0000
0000
0000
0000
,
0000
0000
0000
0000
,
0000
0000
0000
0000
,
2002
0000
0000
0000
,
0000
0000
0000
0000
,
0000
0000
0000
0000
,
0000
0000
0000
3003
,
0000
0000
1000
0000
,
0000
0000
0001
0000
,
0000
0000
0100
0000
,
0000
0000
0010
0000
,
1001
0000
1000
0000
,
0000
0000
0100
0000
,
0000
0000
1000
0000
,
0000
0000
0010
0000
,
1001
0000
0100
0000
,
0000
0000
0001
0000
,
0010
0000
0010
0000
,
0100
0000
1000
0000
,
0001
0000
0001
0000
,
0001
0000
0000
0000
,
0100
0000
0010
0000
,
1000
1000
0000
0000
,
0100
0000
1000
0000
,
0001
0000
0000
0000
,
0010
0000
0100
0000
,
1000
1000
0000
0000
,
0010
0000
0100
0000
,
0001
0000
0001
0000
,
0010
0000
0100
0000
,
1000
0000
1000
0000
,
0001
0000
0001
0001
,
0001
0000
0100
0000
,
0010
0000
1000
0000
,
0001
0000
0000
0000
,
0100
0000
0100
0100
,
0000
0100
0100
0000
,
0001
0000
0001
0001
,
0000
0001
0001
0000
,
1000
0000
1000
1000
,
0000
1000
1000
0000
,
0010
0000
0010
0010
,
0000
0010
0000
0000
,
1000
0000
1000
0000
,
1000
0000
0100
0000
,
0001
0000
0001
0000
,
0001
0000
0010
0000
,
1000
0000
0010
0000
,
0100
0000
0001
0000
,
0010
0010
0010
0000
,
0100
0000
1000
0000
,
0002
0000
0000
0000
,
0000
0000
0000
0000
,
0000
0000
0000
0000
,
0000
0000
0000
0000
,
0003
0000
0000
0000
,
0000
0000
0000
0000
,
0000
0000
0000
0000
,
0000
0000
0000
0000
,
1001
0000
0000
0000
,
1000
0000
0000
0000
,
0010
0000
0000
0000
,
0100
0000
0000
0000
,
0001
0000
0000
0000
,
0010
0000
0000
0000
,
0001
0000
0001
0000
,
1000
0000
0000
0000
,
1001
0000
0000
0000
,
1000
1000
0010
0100
,
0001
0000
0000
0000
,
0010
0000
0000
0000
,
0001
0000
0001
0000
,
1000
0000
0100
0000
,
1000
0000
0000
0000
,
0010
0000
0010
0000
,
0100
0000
0001
0000
,
1000
0000
0000
0000
,
0110
0000
0000
0000
,
0001
0000
1000
0000
,
0100
0000
1000
0000
,
0001
0000
0010
0000
,
1001
0000
0000
0000
,
1000
0000
0010
0000
,
1000
0000
0001
0000
,
0100
0000
0010
0000
,
2000
0000
0000
0000
,
3000
0000
0000
0000
,
0001
0000
0001
0000
,
0010
0010
0010
0000
,
0100
0000
0100
0000
,
1000
1000
1000
0000
,
0010
0000
0010
0000
,
0100
0100
0100
0000
,
0001
0000
1000
0000
,
0100
0100
0100
0000
,
0010
0000
0000
0000
;

//--------------- dance-single - forcednature ----------------
#NOTEDATA:;
#STEPSTYPE:dance-single;
#DESCRIPTION:forcednature;
#DIFFICULTY:Easy;
#METER:9;
#RADARVALUES:0,0,0,0,0;
#CREDIT:forcednature;
#NOTES:
0000
0000
0000
0000
,
0000
0000
0000
0000
,
0000
0000
0000
0000
,
0000
0000
0000
0000
,
0000
0000
0000
0000
,
2002
0000
0000
0000
,
0000
0000
0000
0000
,
0000
0000
0000
0000
,
0000
0000
0000
3003
,
0001
0000
0101
0000
,
1000
0000
1100
0000
,
0001
0000
0011
0000
,
1000
0010
0100
0001
,
1000
0000
1001
0000
,
0001
0001
0010
0000
,
0100
0000
1001
0000
,
1000
1000
0010
0000
,
0100
0000
0110
0000
,
0001
0001
1000
0000
,
0100
0010
0001
0010
,
0001
0100
0010
0000
,
1001
0000
0000
1001
0000
0000
0000
0000
,
1000
0100
0010
0000
,
1001
0000
0000
1001
0000
0000
0000
0000
,
0001
0100
0010
0000
,
0110
0000
0000
0110
0000
0000
0000
0000
,
1000
0001
0010
0000
,
0110
0000
0000
0110
0000
0000
0000
0000
,
0100
1000
0001
0010
,
1001
0000
0000
0110
0000
0000
0000
0000
,
1000
0010
0100
0001
,
1001
0000
0000
0110
0000
0000
0000
0000
,
0001
0010
0100
1000
,
0010
0000
0000
0010
0000
0010
0000
0010
,
0000
0100
0001
1000
,
0100
0100
1000
1000
,
0001
0010
1001
0000
,
0001
0000
0000
0001
0000
0001
0000
0001
,
0000
0001
0001
0000
,
0100
0000
0000
0100
0000
0100
0000
0100
,
0000
0100
0100
0000
,
0010
0000
0000
0010
0000
0010
0000
0010
,
0000
0010
0010
0000
,
1000
0000
0000
1000
0000
1000
0000
1000
,
0000
1000
0000
0000
,
0001
0000
0010
0001
0000
0010
0001
0000
,
1000
0100
0000
1000
0100
0000
1000
0000
,
0001
0000
0100
0001
0000
0100
0001
0000
,
1000
0010
0000
1000
0010
0000
0000
0000
,
1000
0000
0000
0100
0000
0000
1000
0000
0100
0000
0000
0010
0000
0000
0100
0000
,
0010
0000
0000
0001
0000
0000
0010
0000
0001
0000
0000
0000
1000
0000
0000
0000
,
0010
0110
1001
0110
,
1000
0000
0100
0000
0010
0001
0010
0000
,
0002
0000
0000
0000
,
0000
0000
0000
0000
0000
0003
0100
0000
,
0020
0030
1000
0001
,
0010
0200
0000
0000
,
0300
1000
0001
0100
,
0020
0000
0030
2000
0000
0000
0000
3000
,
0002
0003
0020
0230
,
2300
3002
0203
0300
,
1001
0100
0000
0100
,
1000
0010
0000
0010
,
0100
0001
0000
0001
,
0010
0100
0000
0100
,
1001
0010
0000
0010
,
0001
0100
0000
0100
,
0010
1000
0000
1000
,
0001
0010
0000
0100
,
1000
1000
0001
0001
,
0100
0010
0110
0000
,
0001
0000
1000
0000
0100
1000
0100
0000
,
1000
0001
0010
0001
,
1000
0010
0100
0010
,
1000
0001
0100
0001
,
1000
0000
0100
0000
1000
0001
1000
0000
,
0001
0010
0100
0010
,
0001
0100
0010
0100
,
0001
0000
0001
1000
0000
1000
0001
0000
,
1000
0000
0010
0000
1000
0001
1000
0000
,
0010
0100
0001
0010
,
0001
1000
0100
1000
,
0010
1000
0010
0000
0100
0000
0001
0000
,
0010
0000
0001
0000
1000
0001
1000
0000
,
0100
1000
0010
0100
,
0001
0100
0001
0000
0010
0000
0001
0000
,
1000
0000
0010
0000
0100
0010
0100
0000
,
0002
0000
0000
0003
,
0020
0000
0000
0030
,
0100
1000
0010
0100
,
0110
1001
0110
0000
,
0100
0001
0010
0100
,
1100
0000
1100
0000
0001
0010
0001
0000
,
1000
0000
0010
0000
0100
0010
0100
0000
,
0001
0000
0000
0000
0010
0000
0000
0000
0100
0000
0000
0100
0000
0000
1000
0000
,
0001
0000
0100
0001
0100
0000
0010
0100
,
0020
1000
0130
0010
,
2002
0000
3003
0000
;

//--------------- dance-single - forcednature ----------------
#NOTEDATA:;
#STEPSTYPE:dance-single;
#DESCRIPTION:forcednature;
#DIFFICULTY:Medium;
#METER:13;
#RADARVALUES:0,0,0,0,0;
#CREDIT:forcednature;
#NOTES:
0000
0000
0000
0000
,
0000
0000
0000
0000
,
0000
0000
0000
0000
,
0000
0000
0000
0000
,
0000
0000
0000
0000
,
2002
0000
0000
0000
,
0000
0000
0000
0000
,
0000
0000
0000
0000
,
0000
0000
0000
3003
,
1000
1000
0100
0100
,
0010
0010
0001
0001
,
0100
0100
0010
0010
,
1000
0000
2000
0000
3002
0000
0013
0010
,
0100
0000
0010
0001
0000
0100
0001
0100
,
0000
0010
1000
0000
0100
0000
1000
0000
,
0001
0000
1000
0010
0000
0100
0010
0100
,
0000
0001
0010
0000
0001
1000
0001
0000
,
1000
0000
0100
1000
0000
0010
1000
0010
,
0000
0100
0010
0000
0100
0000
0001
0000
,
0010
0001
0010
0001
0100
0010
0100
0010
,
1000
0100
1000
0100
0010
0000
1001
0000
,
1000
0100
0001
0100
1000
0001
0010
0000
,
0011
0000
0011
0000
0100
0010
1000
0000
,
0001
0100
1000
0100
0001
1000
0010
0000
,
1100
0000
1100
0000
0001
0010
1000
0000
,
0010
0001
0100
0001
1000
0010
0001
0000
,
1010
0000
1010
0000
0001
0100
1000
0000
,
0100
0001
0010
0001
1000
0010
1000
0000
,
0100
0010
0001
0010
0200
0000
0000
0000
,
1300
0010
0100
0010
1000
0100
0001
0000
,
1100
0000
1000
0001
0100
0100
0010
0100
,
0001
1000
0010
0100
0001
0100
1000
0000
,
0100
0100
0001
0000
0011
0000
2000
0000
,
3100
0001
0000
0101
0000
1100
0000
0010
,
1000
1000
0001
0100
0001
0001
1000
0100
,
0010
0001
0010
0001
0100
0010
0100
0010
,
1000
0100
1000
0100
0010
0000
1001
0000
,
1000
0100
0000
1000
0001
0100
1000
0100
,
0000
0001
1000
0000
0100
0100
0020
0000
,
0031
0100
0000
0001
1000
0100
0001
0100
,
0000
1000
0001
0000
0100
0100
0010
0010
,
1000
0100
0000
1000
0001
0100
1000
0100
,
0000
0001
1000
0000
0100
0100
0020
0000
,
0031
0100
0000
0001
1000
0100
0001
0100
,
0000
1000
0001
0000
0200
0000
0320
0000
,
1030
0100
1000
0001
0100
0001
1000
0100
,
1000
0001
0100
0001
0010
0100
0010
0000
,
0001
0100
0001
1000
0100
1000
0001
0100
,
0001
1000
0100
1000
0020
0000
0230
0000
,
0301
0000
0000
0001
0000
0000
1000
0000
0100
0000
0000
0100
0000
0000
0010
0000
,
0001
0000
0000
0001
0000
0000
0100
0000
0010
0000
1000
0000
0200
0000
0000
0000
,
1300
0010
0000
0000
1000
0010
0000
0000
0100
0001
0000
0000
0100
0001
0000
0000
,
1000
0100
1000
0010
0100
0001
0010
0001
,
0200
0000
0000
0000
,
0000
0000
0000
0000
0300
0010
1000
0001
,
1000
0200
0300
0020
0030
0002
0003
0200
,
0000
0310
1000
0002
0000
0000
0000
0000
,
0003
0020
0230
2300
,
3002
0000
0103
0020
0000
0000
0000
1030
,
0002
0000
0013
0200
0300
2000
3000
0020
,
0000
0130
0001
2000
0000
0000
0000
3000
,
0001
0020
0000
0230
0000
2300
0000
3020
,
0000
0230
0000
0300
0001
0010
0001
0000
,
0010
0000
0100
0000
1000
0100
1000
0000
,
0010
0000
1000
0000
0010
0100
0010
0000
,
1000
0200
0000
0320
0000
0130
1000
0002
,
0000
0003
0100
0000
0010
0100
0010
0000
,
1000
1000
0200
0000
0310
0001
0020
0000
,
0031
0100
0001
0100
0010
1000
0001
0000
,
0010
0010
0100
0010
0100
0100
0010
0000
,
0110
0000
1001
0000
1000
0010
0200
0000
,
0301
0010
0100
0010
0001
0100
0010
0100
,
0001
0000
0011
0000
1000
0100
0001
0000
,
0100
1000
0010
1000
0100
0001
0100
0000
,
1000
1000
0001
0010
0001
0100
1000
0000
,
0100
0001
1000
0010
1000
0001
0010
0001
,
0100
0000
0110
0000
0010
1000
0001
0000
,
0010
0100
0001
0100
1000
0001
0010
0000
,
0001
0000
0001
0000
0000
0100
0000
0000
0010
0000
0000
1000
0000
0000
0001
0000
,
0010
0100
1000
0100
1000
0010
0100
0010
,
1000
0000
1100
0000
0001
0010
1000
0010
,
0001
1000
0100
1000
0010
0100
0001
0000
,
0011
0000
1000
0100
0002
0000
0103
1000
,
0010
0100
0001
0010
0100
1000
0001
0100
,
0010
0000
0110
0000
1000
0001
0100
0000
,
0010
1000
0100
1000
0001
0100
0010
0000
,
1000
1000
0100
1000
0010
0100
0001
0010
,
0200
0000
0000
0300
,
2000
0010
0010
3001
,
1000
0100
0010
0001
1000
0010
0100
0001
,
0010
0010
0010
0000
0110
0000
1001
0000
,
0001
0100
0010
1000
0001
0001
0001
0010
,
0100
0000
0110
0000
1000
1000
0001
0001
,
0100
0010
0100
0010
1000
0100
1000
0001
,
0010
0000
0100
0000
0100
0000
0010
0000
0001
0000
0000
0001
0000
0000
0001
0000
,
1000
0010
1000
0010
0100
0001
0100
0001
,
0010
0100
1000
0010
0100
0001
0010
0000
,
2002
0000
3003
0000
;

//--------------- dance-single - forcednature assist by extraordiberry ----------------
#NOTEDATA:;
#STEPSTYPE:dance-single;
#DESCRIPTION:forcednature assist by extraordiberry;
#DIFFICULTY:Hard;
#METER:17;
#RADARVALUES:0,0,0,0,0;
#CREDIT:forcednature assist by extraordiberry;
#NOTES:
0000
0000
0000
0000
,
0000
0000
0000
0000
,
0000
0000
0000
0000
,
0000
0000
0000
0000
,
0000
0000
0000
0000
,
2002
0000
0000
0000
,
0000
0000
0000
0000
,
0000
0000
0000
0000
,
0000
0000
0000
3003
,
0202
0300
2000
3000
,
0020
0030
2000
3000
,
0200
0300
0020
0030
,
2000
0000
0003
0000
3002
0000
0013
0010
,
0100
1000
0010
1000
0001
0010
0001
0100
,
0000
0010
1000
0001
0010
0000
0100
0010
,
0001
0000
1000
0010
0100
0000
0001
0010
,
0100
1000
0100
0010
0001
0100
0001
0010
,
0110
0000
1000
0001
0010
0000
0100
1000
,
0001
0000
0100
0000
0010
0000
1000
0001
,
0010
0000
0010
0000
0010
0000
0010
0100
1000
0000
1000
0000
1000
0000
1000
0001
,
0100
0010
1000
0010
0100
0100
0002
0000
,
1003
0000
0100
1000
0100
0000
0010
0000
0001
0000
0100
0000
0010
0000
0100
0000
,
0010
1000
1100
0000
1000
0010
0200
0000
,
0301
0000
0010
0001
0010
0000
0100
0000
1000
0000
0010
0000
0010
0000
1000
0000
,
0100
0000
0001
0000
0100
0000
1000
0000
0001
0010
0001
0010
0100
0000
0000
0000
,
1000
0010
0100
0010
1000
0001
0100
1000
,
0100
0000
0000
0000
0101
0000
0000
0000
0001
0000
0010
0000
0100
0000
0010
0100
,
1000
0010
1000
0010
0100
1000
0100
0001
,
1000
0000
1000
0000
0010
0000
1000
0000
0001
0100
0001
0100
0010
1000
0010
1000
,
0001
0000
0010
0001
0010
0100
0001
0100
,
1000
0000
0000
0000
1100
0000
0000
0000
0001
0000
0001
1000
0001
0000
1000
0001
,
1000
0010
0100
0001
0100
0010
1000
0001
,
0010
0000
0010
0000
0010
0000
0000
0000
0100
1000
0100
1000
0002
0000
0000
0000
,
0103
0110
0000
1010
0000
1100
0000
0001
,
0010
0000
0010
0000
0010
0000
0001
0010
0100
0000
0100
0000
0100
0000
0100
0000
,
1000
0010
1000
0010
0100
0001
0100
0001
,
0010
0000
0100
0000
0010
0000
0100
0000
1000
0000
0001
0000
0100
0010
0100
0010
,
1000
0100
0000
1000
0010
1000
0010
1010
,
0000
0001
0100
0000
0001
0010
0011
0000
,
0001
0100
0000
0001
0010
0001
0010
0011
,
0000
1000
1010
0000
2000
3200
0320
0032
,
1003
1100
0000
0001
0100
0001
0100
0101
,
0000
0000
0001
0000
0010
0000
0001
1000
0100
0000
0100
0000
1000
0000
0000
0000
,
0010
0110
0000
0100
0001
0010
0001
0011
,
0000
1000
1010
0000
1000
1000
0001
0010
,
0001
0100
0001
0100
0001
0000
1000
0010
1000
0010
1000
0000
0001
0100
0001
0100
,
0001
0000
1000
0010
1000
0010
1000
0000
0001
0100
0001
0100
0010
0000
0000
0000
,
1000
0100
1000
0100
1000
0000
0001
0010
0001
0010
0001
0000
1000
0100
1000
0100
,
1000
0000
0001
0010
0001
0010
0001
0000
1000
0000
0010
0000
0100
0000
0001
0000
,
1000
0000
0000
1100
0000
0000
0001
0010
0001
0000
0000
0101
0000
0000
1000
0000
,
0010
0000
0000
0110
0000
0000
0001
0010
0001
0000
0001
0000
0200
0000
0000
0000
,
0310
1000
0010
0000
1000
0100
1000
0000
0001
0100
0001
0000
0010
0001
0010
0000
,
0100
0000
0010
0100
1000
0000
0100
0000
1000
0010
1000
0000
0010
0100
0010
0100
,
0002
0000
0000
0000
,
0000
0000
0000
0000
0003
0010
0100
1000
,
0001
0200
0300
0020
0030
2000
3000
0200
,
0000
0310
0001
2000
0000
0000
0000
0000
,
3000
0020
0230
0302
,
0023
0000
0130
2000
0000
0000
0000
3010
,
0200
0000
0301
0020
0030
0002
0003
2000
,
0000
0000
3100
0000
0001
0000
0200
0000
0000
0000
1300
0001
1000
0001
1000
0001
,
0020
0000
0100
0100
0100
0000
1030
0000
,
0010
0000
0001
0000
0000
0001
0000
0000
0100
0000
0000
0010
0000
0000
1000
0000
,
0000
0000
0100
0000
0000
0100
0000
0000
1000
0000
0000
0010
0000
0000
0100
0000
,
0000
0000
0001
0000
0000
0001
0000
0000
0010
0000
0000
0001
0000
0000
1000
0000
,
0020
0100
0000
0100
0000
1000
1000
1030
,
0000
0000
0010
0000
0000
0100
0000
0000
0001
0000
0000
0001
0000
0000
0010
0000
,
0000
0000
0100
0000
0000
1000
0000
0000
1000
0000
0000
0010
0000
0000
0100
0000
,
0000
0000
0001
0000
0000
0001
0000
0000
0010
0000
0000
0100
0000
0000
1000
0000
,
0010
0000
0010
0000
0100
0000
0010
0100
0010
0000
1000
0000
0001
0000
0010
0000
,
0100
1000
0100
0000
1000
0000
0010
0000
0100
0001
0100
0001
2000
0000
0000
0000
,
3010
0000
0100
0010
0100
0000
0001
0000
0010
0000
0001
0010
0100
0000
1000
0000
,
0010
0000
0010
0000
1000
0000
0010
0100
0001
0000
0001
0000
0010
0000
0001
0000
,
0100
0000
0010
0000
0100
0010
1000
0000
0100
0000
1000
0100
1000
0000
0001
0000
,
0010
0100
0010
0100
1000
0000
0100
0010
0001
0000
0000
0100
0001
0000
0100
0000
,
0010
0000
1000
0000
0100
0000
1000
0000
0001
0000
0010
0100
0010
0000
0100
0000
,
1000
0000
1000
0000
0010
0000
1000
0001
0100
0000
0010
0100
0010
0000
1000
0000
,
0001
0000
0010
0000
0010
0000
0001
0000
0100
0010
0100
0000
0010
0000
0010
0000
,
1000
0000
0100
1000
0000
0010
0100
0000
0001
0010
0000
0001
0100
0001
0100
0000
,
0010
0000
1000
0010
1000
0000
0010
0100
0001
0000
0010
0001
0010
0000
0100
0000
,
1000
0000
1000
0000
0010
0000
1000
0001
0100
0000
0010
0000
0010
0000
0100
0000
,
0001
0000
0010
0000
0001
0010
0100
0000
1000
0000
0100
1000
0000
0010
0100
0010
,
0100
0000
0000
0001
0010
0000
0001
1000
0200
0000
0000
0000
1300
0010
0100
0001
,
1000
0100
0100
1000
0010
0100
0001
0010
,
0001
0000
0001
0100
0010
0000
0010
0100
0001
0000
1000
0010
1000
0000
0000
0000
,
0001
0000
0010
0000
0001
1000
0001
1000
0100
0000
1000
0000
0010
0000
0100
0000
,
0001
0010
0001
0010
0001
0000
0100
0000
0010
1000
0010
1000
0001
0100
0001
0100
,
0020
0000
0000
1000
0000
0000
1000
0000
0000
0000
0000
0000
0030
0000
0100
0000
,
0002
0000
0013
0100
2000
0000
3000
0000
,
0001
0100
0101
0001
1000
0010
1010
0000
,
1001
0000
1001
0000
1001
0000
0000
0001
0010
0000
0100
0010
0100
0000
1000
0000
,
0010
0100
0110
0001
1000
0100
0110
0010
,
0001
0000
0000
0000
0100
0000
0001
0100
0010
0000
0010
0000
1010
0000
0010
0000
,
1000
0000
0100
0000
1100
0000
1000
0000
0001
0000
0010
0100
0010
0000
0001
0000
,
0100
0000
0001
0100
0001
0000
1000
0000
0010
0000
0000
0110
0000
0000
1010
0000
,
1000
0000
0100
1000
0100
0000
0010
0000
0001
0000
0100
0001
0100
0000
0010
0000
,
1000
0100
1000
0100
0010
0100
0010
0100
0010
0001
1000
0100
0020
0000
0000
0000
,
0032
0000
0003
0000
;

//--------------- dance-double - forcednature ----------------
#NOTEDATA:;
#STEPSTYPE:dance-double;
#DESCRIPTION:forcednature;
#DIFFICULTY:Easy;
#METER:9;
#RADARVALUES:0,0,0,0,0;
#CREDIT:forcednature;
#NOTES:
00000000
00000000
00000000
00000000
,
00000000
00000000
00000000
00000000
,
00000000
00000000
00000000
00000000
,
00000000
00000000
00000000
00000000
,
00000000
00000000
00000000
00000000
,
00022000
00000000
00000000
00000000
,
00000000
00000000
00000000
00000000
,
00000000
00000000
00000000
00000000
,
00000000
00000000
00000000
00033000
,
00100000
00000000
00100000
00000000
,
00001000
00000000
00001000
00000000
,
00010000
00000000
00010000
00000000
,
00000100
00000000
00001000
00000000
,
00001001
00000000
00000001
00000100
,
00000010
00000100
00000001
00000000
,
00000010
00000100
00001000
00000000
,
00000100
00010000
00001000
00000000
,
00011000
00000000
00100000
00010000
,
01000000
00010000
01000000
00000000
,
00100000
00100000
10000000
10000000
,
01000000
01000000
00010000
00000000
,
00011000
00000000
00001000
00010000
,
00000100
00000100
00001000
00000000
,
00000010
00000100
00000001
00000010
,
00000100
00001000
00000100
00000000
,
00010000
00001000
00100000
00010000
,
01000000
01000000
00100000
00000000
,
10000000
01000000
10000000
00010000
,
01000000
00001000
00010000
00000000
,
00000100
00001000
00000100
00000010
,
00000001
00000000
00001000
00000000
00000010
00001000
00000010
00000000
,
00000100
00000001
00001000
00000100
,
00010000
00001000
00010000
00000000
00001000
00000000
00000000
00000000
,
00100000
00010000
00000000
00010000
00000000
01000000
00000000
01000000
,
00010000
10000000
00100000
01000000
,
00020000
00130000
00002000
00013000
,
00000200
00001300
00000010
00001001
,
00000001
00000000
00000000
00000001
00000000
00000001
00000000
00000001
,
00000000
00000100
00001000
00010000
,
00100000
00000000
00000000
10000000
00000000
10000000
00000000
10000000
,
00000000
01000000
00100000
00010000
,
01000000
00000000
00000000
00001000
00000000
00001000
00000000
00001000
,
00000000
00010000
00000100
00001000
,
00000010
00000000
00000000
00000100
00000000
00000100
00000000
00000100
,
00000000
00000001
00000020
00000030
,
00000100
00000000
00001000
00000100
00000000
00001000
00000100
00000000
,
00010000
00001000
00000000
00010000
00001000
00000000
00100000
00000000
,
00010000
00000000
01000000
00010000
00000000
01000000
00010000
00000000
,
10000000
00100000
00000000
10000000
00200000
00000000
00300000
00000000
,
10000000
00000000
00000000
10000000
00000000
00000000
01000000
00000000
00100000
00000000
00000000
00100000
00000000
00000000
00001000
00000000
,
00010000
00000000
00000000
00010000
00000000
00000000
00000100
00000000
00001000
00000000
00000000
00000000
00000020
00000000
00000000
00000000
,
00000130
00000001
00000000
00000001
00000000
00000001
00000000
00000001
,
00000010
00000000
00000100
00000000
00001000
00000100
00001000
00000000
,
00000020
00000000
00000000
00000000
,
00000000
00000000
00000030
00010000
,
00001000
00100000
00010000
01000000
,
00100000
20000000
00000000
00000000
,
30000000
00010000
00100000
00001000
,
00010000
00000200
00000000
00000300
,
00001000
00000010
00000100
00000010
,
00001000
00000001
00001000
00000000
00000002
00000000
00000000
00000000
,
00000013
00001001
00000000
00001000
,
00000100
00010000
00001000
00100000
,
00000000
00011000
00000000
01000000
,
00010000
10000000
00100000
10000000
,
00000000
10010000
00000000
00010000
,
00100000
00001000
00010000
00000100
,
00000000
00001001
00000000
00001000
,
00000010
00000100
00000001
00000010
,
00000100
00000100
00010000
00010000
,
00001000
00100000
00010000
10010000
,
00000000
00000000
10000000
00000000
00100000
10000000
00100000
00000000
,
01000000
00010000
00100000
00001000
,
00010000
00000000
00000100
00000000
00001000
00000100
00001000
00000000
,
00000010
00000100
00000001
00000010
,
00000100
00000000
00010000
00000000
00001000
00010000
00001000
00000000
,
00100000
00010000
01000000
00100000
,
10000000
00000000
01000000
00000000
10000000
00010000
10000000
00000000
,
00100000
01000000
00010000
00100000
,
00001000
00000000
00010000
00000000
00000100
00001000
00000100
00000000
,
00000010
00000000
00000001
00000000
00001000
00000010
00001000
00000000
,
00000001
00000000
00000100
00000000
00000010
00000100
00000010
00000000
,
00001000
00000100
00010000
00011000
,
00001000
00000000
00100000
00000000
00010000
01000000
00010000
00000000
,
01000000
00000000
00100000
00000000
10000000
00100000
10000000
00000000
,
00010000
00000000
00100000
00000000
00001000
00010000
00001000
00000000
,
00010000
00000100
00001000
00000010
,
00000200
00000000
00000000
00000300
,
00000002
00000000
00000000
00000003
,
00001000
00000100
00010000
00001000
,
00100000
00010000
00100000
00000000
01100000
00000000
00000000
00000000
,
10000000
00000000
00100000
00000000
01000000
00010000
01000000
00000000
,
00001000
00001000
00022000
00033000
,
00010000
00000000
00000100
00000000
00001000
00000100
00001000
00000000
,
00000001
00000000
00000000
00000000
00000100
00000000
00000000
00000000
00000010
00000000
00000000
00000010
00000000
00000000
00000010
00000000
,
00001000
00000100
00010000
00001000
,
02000000
00100000
00100000
03010000
,
20020000
00000000
30030000
00000000
;

//--------------- dance-double - forcednature ----------------
#NOTEDATA:;
#STEPSTYPE:dance-double;
#DESCRIPTION:forcednature;
#DIFFICULTY:Medium;
#METER:13;
#RADARVALUES:0,0,0,0,0;
#CREDIT:forcednature;
#NOTES:
00000000
00000000
00000000
00000000
,
00000000
00000000
00000000
00000000
,
00000000
00000000
00000000
00000000
,
00000000
00000000
00000000
00000000
,
00000000
00000000
00000000
00000000
,
00022000
00000000
00000000
00000000
,
00000000
00000000
00000000
00000000
,
00000000
00000000
00000000
00000000
,
00000000
00000000
00000000
00033000
,
00100000
00100000
00010000
00010000
,
01000000
01000000
00100000
00100000
,
10000000
10000000
01000000
01000000
,
00010000
00010000
00001000
00011000
,
00000100
00001000
00000000
00000010
00000100
00000000
00000001
00000000
,
00000010
00000001
00000000
00001000
00000100
00000000
00010000
00000000
,
00001000
00100000
00000000
00100000
00010000
00000000
01000000
00000000
,
00100000
10000000
00000000
00010000
01000000
00000000
00100000
00000000
,
10000000
00010000
00000000
00100000
00001000
00000000
00010000
00000000
,
00000010
00001000
00000000
00000100
00001000
00000000
00000001
00000000
,
00001000
00000010
00001000
00000010
00010000
00001000
00010000
00001000
,
01000000
00010000
01000000
00010000
10000000
00100000
10000000
00000000
,
00010000
00100000
00000000
00001000
00010000
00000000
00000100
00000000
,
00001100
00000000
00001010
00000000
00000010
00000100
00000001
00000000
,
00000010
00000001
00000000
00001000
00000010
00010000
00001000
00000000
,
00100000
00010000
00100000
00000000
01000000
10000000
00010000
10000000
,
01000000
00100000
00001000
00000000
00010000
00000100
00001000
00000000
,
00001100
00000000
00001010
00000000
00000010
00000100
00000001
00000000
,
00000010
00000001
00001000
00000010
00001000
00000001
00000100
00000000
,
00001000
00010000
00001000
00000000
00010000
00100000
10000000
00000000
,
00010000
01000000
00010000
10000000
00100000
10000000
00010000
00000000
,
00110000
00000000
00101000
00000000
00001000
00010000
00000100
00001000
,
00000010
00000100
00000001
00000010
00000100
00010000
00000010
00000000
,
00001000
00000001
00001000
00000000
00001100
00000000
00000002
00000000
,
00000013
00000100
00000000
00010000
00000000
00001000
00000000
00100000
,
01000000
10000000
01000000
10000000
00100000
00100000
00100000
01000000
,
00010000
00100000
00010000
00100000
00001000
00010000
00001000
00010000
,
00000100
00001000
00000100
00001000
00000010
00000000
00001001
00000000
,
00000001
00000100
00000000
00001000
00000100
00001000
00000100
00001000
,
00000000
00010000
00001000
00000000
00010000
00100000
00010000
00000000
,
00100000
10000000
00000000
01000000
10000000
01000000
10000000
01000000
,
00000000
00010000
01000000
00000000
00010000
00001000
00010000
00000000
,
00001000
00000010
00000000
00000001
00000010
00000001
00000010
00000001
,
00000000
00000100
00000001
00000000
00000100
00001000
00000100
00000000
,
00001000
00010000
00000000
00100000
00010000
00100000
00010000
00100000
,
00000000
10000000
00100000
00000000
20000000
00000000
30020000
00000000
,
10030000
01000000
10000000
00100000
01000000
00100000
00010000
00001000
,
00010000
00000100
00001000
00000100
00000010
00000001
00002000
00000000
,
00003001
00000100
00000001
00000010
00000100
00000010
00001000
00010000
,
00001000
01000000
00010000
01000000
00200000
00000000
20300000
00000000
,
30010000
00000000
00000000
00010000
00000000
00000000
00100000
00000000
00001000
00000000
00000000
00001000
00000000
00000000
00010000
00000000
,
00000100
00000000
00000000
00000100
00000000
00000000
00001000
00000000
00000010
00000000
00000100
00000000
00000002
00000000
00000000
00000000
,
00000013
00000100
00000000
00000000
00000010
00000100
00000000
00000000
00001000
00000100
00000000
00000000
00001000
00000100
00000000
00000000
,
00010000
00001000
00100000
00010000
01000000
00100000
10000000
01000000
,
00200000
00000000
00000000
00000000
,
00000000
00000000
00000000
00000000
00300000
00001000
00010000
00000010
,
00001000
00000001
00000000
00000100
00000000
00000010
00000000
00001000
,
00000000
00000100
00010000
00002000
00000000
00000000
00000000
00000000
,
00003000
01000000
00010000
00100000
,
02000000
00000000
13000000
00200000
00000000
00000000
00300000
01000000
,
00010000
00000000
00100000
00001000
00000000
00010000
00000000
00000020
,
00000000
00001030
00000001
00000200
00000000
00000000
00000300
00000000
,
00000110
00000000
00001000
00000001
00000100
00000001
00001000
00000000
,
00000010
00000100
00000001
00000000
00000010
00000000
00001000
00000000
,
00010000
00001000
00100000
00000000
00010000
00000000
01000000
00000000
,
00100000
10000000
00010000
00000000
01000000
00000000
00100000
00000000
,
10000000
01000000
10000000
00010000
00000000
00100000
00010000
00100000
,
00001000
00000000
00010000
00000000
00000010
00001000
00000001
00000000
,
00000100
00000000
00000001
00000000
00000010
00000100
00000010
00000000
,
00000100
00000000
00010000
00000000
00001000
00100000
00010000
00000000
,
01000000
00100000
01000000
00100000
10000000
01000000
10000000
01000000
,
00100000
00000000
00001000
00010000
00000010
00000000
00000110
00000000
,
00001000
00000001
00000100
00000001
00001000
00000010
00010000
00001000
,
00100000
00010000
01000000
00100000
10000000
01000000
00100000
00000000
,
01000000
10000000
00010000
01000000
00010000
00100000
00001000
00000000
,
00010000
00000010
00001000
00000100
00010000
00000010
00001000
00000000
,
00000001
00000100
00000001
00000010
00000100
00001000
00000010
00010000
,
00001000
00100000
00010000
01000000
00001000
00010000
00100000
00000000
,
01000000
00010000
10000000
00100000
10000000
00010000
00100000
00000000
,
01000000
00000000
10000000
00000000
00000000
01000000
00000000
00000000
00010000
00000000
00000000
00001000
00000000
00000000
00000010
00000000
,
00000100
00001000
00000010
00000100
00000001
00000010
00000100
00010000
,
00001000
00100000
00010000
01000000
00001000
00100000
00010000
00000000
,
01000000
00010000
10000000
00100000
10000000
00010000
00100000
00000000
,
00011000
00000000
00000100
00001000
00000020
00000000
00000130
00000001
,
00000010
00000100
00001000
00000010
00010000
00001000
00100000
00010000
,
01000000
00000000
01000000
00010000
00100000
00100000
00100000
00000000
,
01000000
10000000
01000000
00100000
00001000
00010000
00000100
00001000
,
00000010
00000000
00000000
00000100
00000010
00000000
00000100
00000000
00000001
00000000
00000010
00000000
00000100
00000000
00010000
00000000
,
00002000
00000000
00000000
00000000
,
00100000
00000000
00100000
00100000
00200000
00000000
00303000
00000000
,
00100000
00010000
01000000
00100000
10000000
01000000
00010000
00001000
,
00100000
00100000
00100000
00000000
00001000
00010000
00000010
00000000
,
00001000
00000001
00000100
00000001
00001000
00000010
00010000
00001000
,
00000000
01000000
00010000
00100000
01000000
01000000
10000000
01000000
,
00100000
00000000
00010000
00000000
00100000
00000000
00001000
00000000
00010000
00000000
00000000
00001000
00010000
00000000
00000010
00000000
,
00001000
00000000
00001000
00000000
00001000
00000000
00000001
00000000
00000100
00000000
00000000
00000100
00000000
00000000
00000010
00000000
,
00001000
00000100
00001000
00000100
00010000
00001000
00010000
00001000
,
00100000
00010000
01000000
00100000
10000000
01000000
00010000
00000000
,
00022000
00000000
00033000
00000000
;

//--------------- dance-double - forcednature assist by extraordiberry ----------------
#NOTEDATA:;
#STEPSTYPE:dance-double;
#DESCRIPTION:forcednature assist by extraordiberry;
#DIFFICULTY:Hard;
#METER:17;
#RADARVALUES:0,0,0,0,0;
#CREDIT:forcednature assist by extraordiberry;
#NOTES:
00000000
00000000
00000000
00000000
,
00000000
00000000
00000000
00000000
,
00000000
00000000
00000000
00000000
,
00000000
00000000
00000000
00000000
,
00000000
00000000
00000000
00000000
,
00022000
00000000
00000000
00000000
,
00000000
00000000
00000000
00000000
,
00000000
00000000
00000000
00000000
,
00000000
00000000
00000000
00033000
,
00100000
00010000
00100000
00000000
00010000
01000000
00010000
00000000
,
01000000
00100000
01000000
00000000
00100000
10000000
00100000
00000000
,
10000000
01000000
00100000
00000000
01000000
00100000
00001000
00000000
,
00010000
00000100
00000010
00000000
00002000
00000000
00103000
00100000
,
00010000
01000000
00001000
00010000
00000100
00001000
00000010
00000100
,
00000000
00000001
00000010
00001000
00000010
00000000
00000001
00001000
,
00000100
00000000
00010000
00001000
00100000
00000000
00010000
01000000
,
10000000
01000000
00010000
10000000
00100000
10000000
00010000
00000000
,
00110000
00000000
00001000
00010000
00000100
00000000
00001000
00000010
,
00000100
00000000
00000001
00000000
00000010
00000000
00001000
00010000
,
00000010
00000100
00000010
00000100
00001000
00010000
00001000
00010000
,
00100000
01000000
00100000
01000000
00010000
00010000
20000000
00000000
,
31000000
00000000
10000000
01000000
10000000
00000000
00010000
00000000
00100000
00000000
01000000
00000000
00100000
00000000
00001000
00000000
,
00010000
00000000
00011000
00000000
00001000
00000010
00000002
00000000
,
00000103
00000000
00000001
00000100
00000001
00000000
00001000
00000000
00000010
00000000
00000100
00000000
00000010
00000000
00010000
00000000
,
00001000
00000000
00100000
00000000
00010000
00000000
00100000
00000000
00001000
00010000
00001000
00010000
00001000
00000000
00000000
00000000
,
01000000
00010000
00100000
01000000
00010000
00001000
00100000
00010000
,
10000000
00000000
01000000
00000000
10000000
00000000
00000000
00000000
00100000
00000000
00010000
00000000
00001000
00000000
00010000
00001000
,
00010000
00001000
00000100
00000001
00001000
00000010
00001000
00000001
,
00000010
00000000
00000100
00000000
00010000
00000000
00001000
00000000
00100000
00010000
00100000
00010000
10000000
00010000
10000000
00010000
,
10000000
01000000
10000000
00100000
01000000
00001000
00010000
00000010
,
00001000
00000000
00000000
00000000
00001100
00000000
00000000
00000000
00000001
00000000
00000010
00000001
00000010
00000000
00000001
00000100
,
00000010
00001000
00000100
00000010
00001000
00010000
00001000
00100000
,
00010000
00000000
00010000
00000000
00010000
00000000
00000000
00000000
01000000
00100000
01000000
00100000
20000000
00000000
00000000
00000000
,
31000000
00010000
00000000
00000100
00000000
00001000
00000000
00000001
,
00000100
00000100
00000100
00001000
00010000
00010000
00010000
00100000
,
10000000
01000000
10000000
01000000
00100000
00010000
00100000
00010000
,
00001000
00000100
00001000
00000100
00000010
00000001
00000200
00000000
,
00000310
00001000
00000000
00100000
00010000
00100000
00010000
00100000
,
00000000
00001000
00000010
00000000
00010000
00100000
20000000
00000000
,
31000000
00010000
00000000
00000100
00001000
00000100
00001000
00000100
,
00000000
00010000
01000000
00000000
00200000
00320000
00032000
00003200
,
00000310
00001000
00000000
00100000
00010000
00100000
00010000
00100000
,
00000000
00001000
00000010
00001000
00100000
00010000
20000000
00000000
,
30100000
00010000
00000000
00000100
00001000
00000100
00001000
00000100
,
00000000
00010000
00100000
00000000
20000000
00000000
31000000
00010000
,
00001000
00100000
00001000
00100000
00001000
00000000
00010000
00000100
00010000
00000100
00010000
00000000
00001000
00100000
00001000
00100000
,
00001000
00000000
00010000
00000100
00010000
00000100
00010000
00000000
00000010
00001000
00000010
00001000
00000100
00000000
00000000
00000000
,
00010000
00000010
00010000
00000010
00010000
00000000
00001000
01000000
00001000
01000000
00001000
00000000
00010000
00000010
00010000
00000010
,
00010000
00000000
00001000
01000000
00001000
01000000
00001000
00000000
00010000
00000000
00100000
00000000
10000000
00000000
00010000
00000000
,
01000000
00000000
00000000
01100000
00000000
00000000
00010000
00100000
00010000
00000000
00000000
00101000
00000000
00000000
00001000
00000000
,
00010000
00000000
00000000
00001100
00000000
00000000
00000001
00000100
00000001
00000000
00000001
00000000
00000020
00000000
00000000
00000000
,
00000130
00001000
00000100
00000000
00001000
00000100
00010000
00000000
00001000
00010000
00001000
00000000
00010000
00001000
00100000
00000000
,
00010000
00000000
01000000
00010000
10000000
00000000
00100000
00000000
10000000
00010000
10000000
00000000
01000000
00100000
01000000
00100000
,
00020000
00000000
00000000
00000000
,
00000000
00000000
00000000
00000000
00030000
01000000
00001000
00010000
,
00000010
00001000
00000000
00000001
00000000
00000010
00000000
00001000
,
00000000
00010000
01000000
20000000
00000000
00000000
00000000
00000000
,
30000000
00100000
01000000
00001000
,
00020000
00000000
00030010
00002000
00000000
00000000
00000000
00003001
,
00000010
00000000
00001000
00010000
00000000
00100000
00000000
20000000
,
00000000
00000000
31000000
00000000
00010000
00000000
02000000
00000000
00000000
00000000
13000000
00010000
10000000
00010000
10000000
00010000
,
00200000
00000000
00001000
00001000
00001000
00000000
00310000
00000000
,
00100000
00000000
00001000
00000000
00000000
00001000
00000000
00000000
00010000
00000000
00000000
00000100
00000000
00000000
00001000
00000000
,
00000000
00000000
00000010
00000000
00000000
00000010
00000000
00000000
00000100
00000000
00000000
00000001
00000000
00000000
00001000
00000000
,
00000000
00000000
00000100
00000000
00000000
00000100
00000000
00000000
00010000
00000000
00000000
00001000
00000000
00000000
00100000
00000000
,
00020000
01000000
00000000
01000000
00000000
10000000
10000000
10030000
,
00000000
00000000
00010000
00000000
00000000
00100000
00000000
00000000
00001000
00000000
00000000
00001000
00000000
00000000
00010000
00000000
,
00000000
00000000
00000100
00000000
00000000
00001000
00000000
00000000
00001000
00000000
00000000
00000010
00000000
00000000
00000100
00000000
,
00000000
00000000
00000001
00000000
00000000
00000001
00000000
00000000
00000010
00000000
00000000
00001000
00000000
00000000
00010000
00000000
,
01000000
00100000
01000000
00100000
00010000
00001000
00010000
00001000
,
00000100
00000000
00000010
00000000
00000100
00000000
00001000
00000000
00000001
00000010
00000001
00000010
00000200
00000000
00000000
00000000
,
00001300
00000000
00000100
00001000
00000100
00000000
00010000
00000000
00001000
00000000
00010000
00001000
00100000
00000000
00010000
00000000
,
01000000
00000000
00010000
00000000
01000000
00000000
00100000
10000000
00010000
00000000
00010000
00000000
00100000
00000000
00010000
00000000
,
10000000
00000000
01000000
00000000
00100000
01000000
00100000
00000000
00010000
00000000
00100000
00001000
00010000
00000000
00001000
00000000
,
00010000
00000100
00010000
00000100
00001000
00000000
00000100
00001000
00000100
00000000
00000000
00001000
00000001
00000000
00000100
00000000
,
00000010
00000000
00001000
00000000
00000100
00000000
00010000
00000000
00001000
00000000
00010000
00001000
00100000
00000000
00010000
00000000
,
01000000
00000000
00010000
00000000
01000000
00000000
00100000
10000000
00010000
00000000
01000000
00010000
01000000
00000000
00100000
00000000
,
10000000
00000000
01000000
00000000
10000000
00000000
00010000
00000000
00100000
00010000
00100000
00000000
00001000
00000000
00010000
00000000
,
00000100
00000000
00001000
00000100
00000000
00001000
00000010
00000000
00000100
00000010
00000000
00000100
00000001
00000100
00000001
00000000
,
00000010
00000000
00000001
00000010
00000001
00000000
00000010
00000100
00001000
00000000
00000100
00010000
00001000
00000000
01000000
00000000
,
00010000
00000000
00100000
00000000
00010000
00000000
10000000
01000000
00100000
00000000
00010000
00000000
00010000
00000000
01000000
00000000
,
00100000
00000000
10000000
00000000
01000000
10000000
01000000
00000000
00100000
00000000
01000000
00100000
00000000
00010000
00100000
00010000
,
00100000
00000000
00000000
00001000
00010000
00000000
00001000
00010000
00000200
00000000
00000000
00000000
00001300
00000010
00001000
00000010
,
00000100
00000000
00000001
00000000
00000100
00000000
00000010
00000000
00001000
00000000
00000001
00000000
00000010
00000000
00000000
00000001
,
00001000
00000000
00001000
00000100
00010000
00000000
00010000
00001000
00100000
00000000
00010000
00100000
00010000
00000000
00000000
00000000
,
01000000
00000000
00100000
00000000
10000000
00010000
10000000
00010000
00100000
00000000
00010000
00000000
00100000
00000000
00001000
00000000
,
00010000
00001000
00010000
00001000
00010000
00000000
00000100
00000000
00001000
00000010
00001000
00000010
00000100
00000001
00000100
00000001
,
00002000
00000000
00000000
00000100
00000000
00000000
00000100
00000000
00000000
00000000
00000000
00000000
00003000
00000000
00000001
00000000
,
00000020
00000000
00001030
00010000
00002000
00000000
00003000
00000000
,
00100000
00010000
01000000
00010000
10000000
00100000
00010000
00000000
,
00001000
00000000
00010000
00000000
00011000
00000000
00000000
00000100
00001000
00000000
00000010
00001000
00000010
00000000
00000100
00000000
,
00000001
00000010
00000001
00000100
00001000
00010000
00011000
00001000
,
00100000
00000000
00000000
00000000
00010000
00000000
01000000
00100000
10000000
00000000
10000000
00000000
10000000
00000000
01000000
00000000
,
00100000
00000000
00010000
00000000
00100000
00000000
00001000
00000000
00010000
00000000
00001000
00010000
00001000
00000000
00010000
00000000
,
00000100
00000000
00001000
00000100
00001000
00000000
00000010
00000000
00000100
00000000
00000000
00000101
00000000
00000000
00000001
00000000
,
00000010
00000000
00000100
00000010
00000100
00000000
00001000
00000100
00001000
00000000
00000100
00010000
00001000
00000000
00100000
00000000
,
00010000
01000000
00010000
01000000
00100000
01000000
00100000
01000000
00100000
10000000
00100000
10000000
00020000
00000000
00000000
00000000
,
00230000
00000000
00300000
00000000
;
