#VERSION:0.83;
#TITLE:So What;
#SUBTITLE:;
#ARTIST:PRIDASK;
#TITLETRANSLIT:;
#SUBTITLETRANSLIT:;
#ARTISTTRANSLIT:;
#GENRE:;
#CREDIT:;
#MUSIC:So What.ogg;
#BANNER:So What.png;
#BACKGROUND:So What-bg.png;
#CDTITLE:./CDTitles/DANCERUSH STARDOM.png;
#SAMPLESTART:48.514;
#SAMPLELENGTH:15.000;
#SELECTABLE:YES;
#OFFSET:1.874;
#BPMS:0.000=128.000;
#STOPS:;
#TIMESIGNATURES:0.000=4=4;
#BGCHANGES:0.000=../BGAs/19po.mp4=1.000=0=0=0=StretchNoLoop====,
99999.000=-nosongbg-=1.000=0=0=0=StretchNoLoop====
;
#FGCHANGES:;

//--------------- dance-single - forcednature ----------------
#NOTEDATA:;
#STEPSTYPE:dance-single;
#DESCRIPTION:forcednature;
#CREDIT:forcednature;
#DIFFICULTY:Beginner;
#METER:2;
#RADARVALUES:0,0,0,0,0;
#NOTES:
0000
0000
0000
0000
,
0000
0000
0000
0000
,
0000
0000
0000
0000
,
1000
0000
0000
0000
,
0000
0000
0000
0000
,
0001
0000
0000
0000
,
0000
0000
0000
0000
,
0001
0000
0000
0000
,
0000
0000
0000
0000
,
1000
0000
0000
0000
,
0000
0000
0000
0000
,
0010
0000
0000
0000
,
0010
0000
0000
0000
,
0100
0000
0000
0000
,
0001
0000
0000
0000
,
0010
0000
0000
0000
,
0010
0000
0000
0000
,
0100
0000
0000
0000
,
1000
0000
0000
0000
,
1001
0000
0000
0000
,
0001
0000
0000
0000
,
0001
0000
0000
0000
,
0100
0000
0000
0000
,
1001
0000
0000
0001
,
0000
1000
0000
0001
,
0000
1000
0000
0000
,
1001
0000
0000
0000
,
1000
0000
0000
0010
,
1000
0000
0000
0010
,
1000
0000
0000
0010
,
0000
0100
0100
0000
,
0001
0000
0000
0010
,
0001
0000
0000
0010
,
0001
0000
0000
0010
,
0000
0100
0100
0000
,
1001
0000
0000
0000
,
0000
0000
0000
0000
,
1000
0000
0000
0000
,
1000
0000
0000
0000
,
0010
0000
0000
0000
,
0100
0000
0000
0000
,
0001
0000
0000
0000
,
0001
0000
0000
0000
,
0010
0000
0000
0000
,
0100
0000
0000
0000
,
1001
0000
0000
0000
,
0000
0000
0000
0000
,
1001
0000
0000
0001
,
0100
0000
0000
0001
,
0100
0000
0000
0001
,
0100
0000
0010
0000
,
1001
0000
0000
1000
,
0100
0000
0000
1000
,
0100
0000
0000
1000
,
0100
0000
0010
0000
,
1001
0000
0000
0000
,
1001
0000
0000
0000
;

//--------------- dance-single - forcednature ----------------
#NOTEDATA:;
#STEPSTYPE:dance-single;
#DESCRIPTION:forcednature;
#CREDIT:forcednature;
#DIFFICULTY:Easy;
#METER:5;
#RADARVALUES:0,0,0,0,0;
#NOTES:
0000
0000
0000
0000
,
0000
0000
0000
0000
,
0000
0000
0000
0000
,
0001
0000
0100
0100
,
0000
1000
1000
0000
,
1000
0000
0010
0010
,
0000
0001
0001
0000
,
1001
0000
1000
0100
,
1000
0000
0010
0000
,
0100
0000
0001
0100
,
0002
0000
0000
0003
,
1000
0100
0100
0000
,
1000
0100
0100
0000
,
1000
1000
0010
0010
,
1000
0001
0010
0000
,
0001
0100
0100
0000
,
0001
0100
0100
0000
,
0001
0001
0010
0010
,
0200
0000
0000
0300
,
1001
0000
0000
0010
,
1001
0000
0000
0100
,
1001
0000
0000
0010
,
0000
0001
0001
1000
,
1001
0100
0000
0010
,
1001
0100
0000
0010
,
1001
0100
0000
0010
,
0220
0000
0000
0330
,
1001
1000
0100
0010
,
1001
0001
0100
0010
,
1001
1000
0100
0010
,
0000
0001
1000
0001
,
1001
0001
0010
0100
,
1001
1000
0010
0100
,
1001
0001
0010
0100
,
0220
0000
0000
0330
,
2002
0000
0000
0000
,
0000
0000
0000
3003
,
1000
0100
0100
0000
,
1000
0100
0100
0000
,
1000
1000
0010
0010
,
1000
0001
0010
0000
,
0001
0100
0100
0000
,
0001
0100
0100
0000
,
0001
0001
0010
0010
,
0100
1000
0100
0010
,
2002
0000
0000
0000
,
0000
0000
3003
0000
,
0110
0001
0100
0010
,
0110
1000
0100
0010
,
0110
0001
0100
0010
,
0000
1000
0001
0010
,
0110
0100
1000
0010
,
0110
0100
0001
0010
,
0110
0100
1000
0010
,
1001
0001
0001
1000
,
2002
0000
3003
0000
,
0110
0000
0000
0000
;

//--------------- dance-single - forcednature ----------------
#NOTEDATA:;
#STEPSTYPE:dance-single;
#DESCRIPTION:forcednature;
#CREDIT:forcednature;
#DIFFICULTY:Medium;
#METER:8;
#RADARVALUES:0,0,0,0,0;
#NOTES:
0000
0000
0000
0000
,
0000
0000
0000
0000
,
0000
0000
0000
0000
,
1001
0000
1000
0100
,
1000
0000
1000
0010
,
1000
0001
1000
0000
0001
0000
0010
0000
,
0000
0001
0100
0010
,
1001
0001
0100
0001
,
0010
0000
0001
1000
0001
0000
1000
0000
,
0000
0100
1000
0001
,
0020
0000
0130
0110
,
2001
0100
0001
3100
,
0002
0100
1000
0103
,
0001
0010
0001
0000
1000
0010
1000
0000
,
0001
0010
0001
0000
0100
0000
0110
0000
,
2000
0010
0001
3100
,
0002
0010
1000
0103
,
0001
0010
0001
0000
1000
0010
1000
0000
,
0100
0100
0010
0110
,
2000
0100
3001
1010
,
0002
0100
1003
0011
,
2000
0100
3001
1010
,
0001
0000
0010
0100
0010
0000
0110
0000
,
2000
0010
3001
1100
,
0002
0010
1003
0101
,
2000
0010
0001
3100
,
1002
0010
0010
0103
,
0001
1000
0100
0000
1000
0000
1010
0000
,
1000
0001
0100
0000
0001
0000
0011
0000
,
0001
1000
0100
0000
1000
0000
1010
0000
,
0002
0100
1000
0103
,
0001
0010
1000
0000
0010
0000
1100
0000
,
1000
0010
0001
0000
0010
0000
0101
0000
,
0001
0010
1000
0000
0010
0000
1100
0000
,
2001
0100
0100
3010
,
0220
0000
0000
0000
,
0000
0000
0000
0330
,
0002
0100
1000
0013
,
2000
0100
0001
3010
,
1000
0100
1000
0000
0001
0100
0001
0000
,
1000
0100
1000
0000
0010
0000
0110
0000
,
0102
1000
0010
1003
,
2100
0001
0010
3001
,
1000
0100
1000
0000
0001
0100
0001
0000
,
0010
0010
0010
0110
,
2002
0000
0000
0000
,
0000
0000
3003
0000
,
1000
0100
0010
0100
1000
0000
0011
0000
,
0001
0100
0010
0100
0001
0000
1010
0000
,
1000
0100
0010
0100
1000
0000
0011
0000
,
0002
0100
1000
0013
,
0001
0100
1000
0100
0001
0000
0011
0000
,
1000
0100
0001
0100
1000
0000
1010
0000
,
0001
0100
1000
0100
0001
0000
0011
0000
,
2000
0100
0001
3010
,
0220
0000
0000
0330
,
1001
0000
0000
0000
;

//--------------- dance-single - forcednature ----------------
#NOTEDATA:;
#STEPSTYPE:dance-single;
#DESCRIPTION:forcednature;
#CREDIT:forcednature;
#DIFFICULTY:Hard;
#METER:13;
#RADARVALUES:0,0,0,0,0;
#NOTES:
0000
0000
0000
0000
,
0000
0000
0000
0000
,
0000
0000
0000
0000
,
1001
0000
0000
0000
1000
0000
0100
0000
1000
0001
0000
0001
0010
0000
0000
0000
,
0001
0000
0100
0000
0110
0000
0000
0000
0001
1000
0000
1000
0010
0000
0000
0000
,
1000
0000
0100
0000
0001
0000
0000
0000
0100
1000
0000
1000
0001
0000
0000
0000
,
0010
0000
0100
0000
0010
0000
0001
0000
1000
0100
0000
0100
0010
0000
0000
0000
,
1001
0000
0000
0000
0101
0000
0000
0000
1000
0010
0000
0010
0100
0000
0000
0000
,
0001
0000
1000
0000
0100
0000
0000
0000
1000
0001
0000
0001
0010
0000
0000
0000
,
0100
0000
1000
0000
0010
0000
0100
0000
0001
0010
0000
0010
0001
0000
0000
0000
,
2002
0000
3003
0110
,
1002
0000
0100
0100
1000
0000
0013
0000
,
2000
0000
0100
0100
0001
0000
3010
0000
,
1000
0100
1000
0100
0001
0100
0001
0100
,
1000
0001
0010
0100
0010
0000
1001
0000
,
0201
0000
0010
0010
1000
0000
0301
0000
,
1020
0000
0100
0100
0001
0000
1030
0000
,
0001
0100
0001
0100
1000
0100
1000
0100
,
0002
0003
0020
0030
0200
0300
1001
0000
,
2100
0000
0010
0000
3001
0100
1000
0000
,
0102
0000
0010
0000
1003
0100
0001
0000
,
2100
0000
0010
0000
3001
0100
1000
0000
,
0100
0000
0001
0000
0010
0000
0100
0010
0100
0000
1000
0001
0010
0000
0000
0000
,
0012
0000
0100
0000
1003
0010
0001
0000
,
2010
0000
0100
0000
3001
0010
1000
0000
,
0012
0000
0100
0000
1003
0010
0001
0000
,
0110
0000
0000
1000
0100
0000
0010
0100
0010
0000
0001
1000
0010
0000
0100
0000
,
0001
0000
0010
0001
0000
0010
0001
0000
0100
0010
0000
1000
0100
0000
1000
0000
,
0010
0000
0100
0010
0000
0100
0010
0000
0100
0001
0000
1000
0100
0000
0010
0000
,
0001
0000
1000
0010
0000
1000
0010
0000
0100
0001
0000
1000
0100
0000
0000
0000
,
0010
0000
0001
0010
0001
0000
0100
0010
1000
0000
0100
1000
0001
0000
0000
0000
,
0010
0000
0001
0100
0000
0001
0100
0000
0010
1000
0000
0100
0010
0000
0001
0000
,
1000
0000
0010
0100
0000
0010
0100
0000
0001
0010
0000
0100
1000
0000
0001
0000
,
0100
0000
0010
1000
0000
0010
1000
0000
0100
0001
0000
0100
1000
0000
0000
0000
,
0011
0000
0001
0100
0010
0000
1000
0100
0010
0000
0001
1000
0010
0000
0000
0000
,
0220
0000
0000
0000
,
0000
0000
0000
0330
,
2001
0000
0100
0100
0001
0000
3010
0000
,
1002
0000
0100
0100
1000
0000
0013
0000
,
0001
0100
0001
0100
0010
0001
0010
0001
,
1000
0100
0001
0010
0100
0000
1001
0000
,
1200
0000
0010
0010
0001
0000
1300
0000
,
0021
0000
0100
0100
1000
0000
0031
0000
,
1000
0100
1000
0100
0010
1000
0010
1000
,
0002
0003
0200
0300
2000
3000
0020
0030
,
2002
0000
0000
0000
,
0000
0000
3003
0110
,
1000
0000
0100
0010
0000
0100
1000
0000
0001
0010
0000
0100
0001
0000
0100
0000
,
1000
0000
0001
0100
0000
0010
1000
0000
0001
0100
0000
1000
0100
0000
0010
0000
,
1000
0000
0001
0010
0000
0100
0010
0000
0001
1000
0000
0100
0001
0000
0100
0000
,
1000
0000
0010
0100
0001
0000
0010
0100
1000
0000
0001
0100
1000
0000
0000
0000
,
0100
0000
0001
0010
0000
0001
1000
0000
0100
0001
0000
0100
1000
0000
0010
0000
,
0100
0000
0001
0010
0000
0001
1000
0000
0010
0001
0000
0010
1000
0000
0100
0000
,
1000
0000
0001
0010
0000
0001
1000
0000
0100
0001
0000
0100
1000
0000
0000
0000
,
1001
0000
0001
0010
0100
0000
1000
0010
0100
0000
0001
0010
1000
0000
0000
0000
,
0220
0000
0000
0330
,
1001
0000
0000
0000
;

//--------------- dance-single - forcednature ----------------
#NOTEDATA:;
#STEPSTYPE:dance-single;
#DESCRIPTION:forcednature;
#CREDIT:forcednature;
#DIFFICULTY:Challenge;
#METER:9;
#RADARVALUES:0,0,0,0,0;
#NOTES:
0000
0000
0000
0000
,
0000
0000
0000
0000
,
0000
0000
0000
0000
,
1002
0000
1000
1000
,
0100
0000
1000
0010
,
0003
0001
0001
1000
,
0000
1000
1000
0001
,
2001
0010
0001
0001
,
0100
0000
0001
0010
,
3000
1000
1000
0001
,
2002
0000
3003
MMMM
,
0002
0000
0003
0010
0200
0000
0300
0000
,
2000
3020
0230
0300
,
0001
0010
1000
0010
,
0001
0100
1000
0000
0100
0000
0110
0000
,
1001
0000
1000
0100
0020
0000
0100
0000
,
0031
0000
0001
0100
0020
0000
1000
0000
,
0130
1000
0100
0001
,
2002
0000
3003
MMMM
,
2001
0000
0100
0000
3000
0001
0010
0000
,
0002
0000
0100
0000
0003
1000
0010
0000
,
2000
0000
0100
0000
3000
0001
0010
0000
,
0100
0110
1001
MMMM
,
0002
0000
0010
0000
1003
0100
1000
0000
,
1000
0000
0010
0000
0001
0100
0001
0000
,
0001
0000
0010
0000
1000
0100
1000
0000
,
0010
0110
1001
MMMM
,
1200
0000
0000
0000
0010
0000
0000
0000
1300
0001
0000
0010
0001
0000
0000
0000
,
0201
0000
0000
0000
0010
0000
0000
0000
0301
1000
0000
0010
1000
0000
0000
0000
,
1200
0000
0000
0000
0010
0000
0000
0000
1300
0001
0000
0010
0001
0000
0000
0000
,
0100
0110
1001
MMMM
,
0021
0000
0000
0000
1000
0000
0000
0000
0031
1000
0000
0010
0100
0000
0000
0000
,
1020
0000
0000
0000
0001
0000
0000
0000
1030
0001
0000
0010
0100
0000
0000
0000
,
0021
0000
0000
0000
1000
0000
0000
0000
0031
1000
0000
0010
0100
0000
0000
0000
,
1001
0110
1001
MMMM
,
0020
0000
0000
0000
,
0000
0000
0000
0130
,
2001
0000
0100
3010
,
0002
0000
0100
0013
,
0001
0010
1000
0010
,
0001
0100
1000
0000
0100
0000
0110
0000
,
2001
0100
0001
3010
,
1002
0100
1000
0013
,
0001
0100
1000
0100
,
0002
0003
0020
0030
0200
0300
2000
3000
,
2002
0000
0000
0000
,
0000
0000
3003
MMMM
,
1200
0000
0000
0000
0001
0000
0010
0000
1300
0001
0000
0000
0011
0000
0000
0000
,
0201
0000
0000
0000
1000
0000
0010
0000
0301
1000
0000
0000
1010
0000
0000
0000
,
1200
0000
0000
0000
0001
0000
0010
0000
1300
0001
0000
0000
0011
0000
0000
0000
,
0100
1001
0110
MMMM
,
0021
0000
0000
0000
1000
0000
0100
0000
0031
1000
0000
0000
1100
0000
0000
0000
,
1020
0000
0000
0000
0001
0000
0100
0000
1030
0001
0000
0000
0101
0000
0000
0000
,
0021
0000
0000
0000
1000
0000
0100
0000
0031
1000
0000
0000
1100
0000
0000
0000
,
1001
0110
1001
MMMM
,
0220
0000
0000
0330
,
MMMM
0000
0000
0000
;

//--------------- dance-double - forcednature ----------------
#NOTEDATA:;
#STEPSTYPE:dance-double;
#DESCRIPTION:forcednature;
#CREDIT:forcednature;
#DIFFICULTY:Easy;
#METER:5;
#RADARVALUES:0,0,0,0,0;
#NOTES:
00000000
00000000
00000000
00000000
,
00000000
00000000
00000000
00000000
,
00000000
00000000
00000000
00000000
,
00001000
00000000
00010000
00010000
,
00000000
00001000
00001000
00000000
,
00100000
00000000
00010000
00010000
,
00000000
00100000
00100000
00000000
,
10010000
00000000
10000000
01000000
,
10000000
00000000
00100000
00000000
,
01000000
00000000
00010000
00100000
,
00020000
00000000
00000000
00030000
,
00100000
00001000
00001000
00000000
,
00010000
00001000
00001000
00000000
,
00010000
00010000
00000100
00000100
,
00001000
00000100
00001000
00000000
,
00000010
00001000
00001000
00000000
,
00000100
00001000
00001000
00000000
,
00000001
00000001
00000100
00000100
,
00000020
00000000
00000000
00000030
,
00001001
00000000
00000000
00000000
,
00011000
00000000
00000000
00000000
,
10010000
00000000
00000000
00100000
,
00000000
01000000
00000000
00100000
,
10010000
00000000
00000000
00000000
,
00011000
00000000
00000000
00000000
,
00001001
00000000
00000000
00000010
,
00000220
00000000
00000000
00000330
,
00000001
00000100
00000001
00000100
,
00000010
00001000
00000010
00001000
,
00000100
00010000
00001000
00100000
,
00001000
00010000
00000100
00000000
,
00010000
00001000
00010000
00001000
,
01000000
00010000
01000000
00010000
,
10000000
00100000
10000000
00100000
,
02200000
00000000
00000000
03300000
,
20020000
00000000
00000000
00000000
,
00000000
00000000
00000000
30030000
,
10000000
01000000
01000000
00000000
,
10000000
01000000
01000000
00000000
,
10000000
10000000
00100000
00100000
,
01000000
00001000
00010000
00000000
,
00000100
00001000
00001000
00000000
,
00000100
00001000
00001000
00000000
,
00000010
00000010
00000100
00000100
,
00000001
00001000
00000100
00000000
,
00022000
00000000
00000000
00000000
,
00000000
00000000
00033000
00000000
,
00100000
00010000
01000000
00100000
,
10000000
01000000
00100000
00001000
,
00010000
00000100
00000010
00000001
,
00000000
00000100
00000010
00001000
,
00000100
00010000
00001000
01000000
,
00010000
00100000
01000000
10000000
,
00100000
01000000
00001000
00010000
,
00000000
00000010
00000010
00001000
,
00002002
00000000
00003003
00000000
,
00000110
00000000
00000000
00000000
;

//--------------- dance-double - forcednature ----------------
#NOTEDATA:;
#STEPSTYPE:dance-double;
#DESCRIPTION:forcednature;
#CREDIT:forcednature;
#DIFFICULTY:Medium;
#METER:9;
#RADARVALUES:0,0,0,0,0;
#NOTES:
00000000
00000000
00000000
00000000
,
00000000
00000000
00000000
00000000
,
00000000
00000000
00000000
00000000
,
00011000
00000000
00010000
00100000
,
10000000
00000000
01000000
00010000
,
00001000
00010000
00001000
00000000
00000010
00000000
00000001
00000000
,
00000000
00000001
00000100
00001000
,
00011000
00010000
00100000
00010000
,
00001000
00000000
00010000
00000100
00010000
00000000
00001000
00000000
,
00000000
00000010
00000100
00000010
,
00000002
00000000
00001003
00001100
,
00000002
00000010
00001000
00000013
,
00002000
00000010
00000001
00003010
,
00001000
00000100
00001000
00000000
00000100
00010000
00001000
00000000
,
00100000
00010000
00100000
00000000
01000000
00000000
01100000
00000000
,
20000000
00100000
00010000
31000000
,
00020000
00100000
10000000
01030000
,
00010000
00100000
00010000
00000000
10000000
00100000
10000000
00000000
,
01000000
00010000
00001000
00011000
,
00000200
00001000
00000310
00011000
,
02000000
00010000
03100000
00011000
,
00000200
00001000
00000310
00011000
,
00100000
00000000
00010000
01000000
00010000
00000000
00110000
00000000
,
00200000
01000000
00310000
00011000
,
00000020
00000100
00001030
00011000
,
00200000
01000000
00310000
00011000
,
00000200
00001000
00001000
00000310
,
00000001
00000100
00001000
00000000
00010000
00000000
00100000
00000000
,
10000000
01000000
00010000
00000000
00001000
00000000
00000010
00000000
,
00000001
00000100
00001000
00000000
00010000
00000000
00100000
00000000
,
20000000
01000000
00010000
31000000
,
10000000
00100000
00010000
00000000
00001000
00000000
00000100
00000000
,
00000001
00000010
00001000
00000000
00010000
00000000
01000000
00000000
,
10000000
00100000
00010000
00000000
00001000
00000000
00000100
00000000
,
00002001
00000010
00000100
00003100
,
00000220
00000000
00000000
00000000
,
00000000
00000000
00000000
00000330
,
00002000
00000100
00000001
00003010
,
00000002
00000100
00001000
00000013
,
00000001
00000100
00000001
00000000
00001000
00000100
00001000
00000000
,
00000100
00010000
00001000
00000000
00100000
00000000
00110000
00000000
,
01020000
10000000
00100000
10030000
,
21000000
00010000
00100000
30010000
,
10000000
01000000
10000000
00000000
00010000
01000000
00010000
00000000
,
00100000
00001000
00010000
00000100
,
00022000
00000000
00000000
00000000
,
00000000
00000000
00033000
00000000
,
00100000
00010000
01000000
00010000
00100000
00000000
00011000
00000000
,
00000010
00001000
00000100
00001000
00000010
00000000
00011000
00000000
,
00100000
00010000
01000000
00010000
00100000
00000000
00011000
00000000
,
00020000
00000100
00001000
00030010
,
00010000
00001000
01000000
00010000
00100000
00000000
00011000
00000000
,
00001000
00010000
00000100
00001000
00000010
00000000
00011000
00000000
,
00010000
00001000
01000000
00010000
00100000
00000000
00011000
00000000
,
00000200
00001000
00010000
00001300
,
00000220
00000000
00000000
00000330
,
00001001
00000000
00000000
00000000
;

//--------------- dance-double - forcednature ----------------
#NOTEDATA:;
#STEPSTYPE:dance-double;
#DESCRIPTION:forcednature;
#CREDIT:forcednature;
#DIFFICULTY:Hard;
#METER:13;
#RADARVALUES:0,0,0,0,0;
#NOTES:
00000000
00000000
00000000
00000000
,
00000000
00000000
00000000
00000000
,
00000000
00000000
00000000
00000000
,
00011000
00000000
00000000
00000000
00100000
00000000
00010000
00000000
01000000
00100000
00000000
00100000
10000000
00000000
00000000
00000000
,
01000000
00000000
00010000
00000000
00001000
00000000
00000000
00000000
00010000
00000010
00000000
00000010
00001000
00000000
00000000
00000000
,
00000001
00000000
00000100
00000000
00001000
00000000
00000000
00000000
00010000
00001000
00000000
00001000
00100000
00000000
00000000
00000000
,
00010000
00000000
01000000
00000000
10000000
00000000
01000000
00000000
00010000
10000000
00000000
10000000
00100000
00000000
00000000
00000000
,
01100000
00000000
00000000
00000000
01010000
00000000
00000000
00000000
00010000
00100000
00000000
00100000
00001000
00000000
00000000
00000000
,
00010000
00000000
00000100
00000000
00000010
00000000
00000000
00000000
00000001
00001000
00000000
00001000
00000010
00000000
00000000
00000000
,
00000100
00000000
00001000
00000000
00010000
00000000
00000000
00000000
00001000
00100000
00000000
00100000
00010000
00000000
00000000
00000000
,
20020000
00000000
30030000
01100000
,
10020000
01000000
10000000
00100000
,
00032000
00000100
00000001
00000010
,
00013000
01000000
00010000
01000000
10000000
01000000
00001000
00010000
,
00000010
00000100
00001000
00000100
00000001
00000000
00000110
00000000
,
00002001
00000100
00000001
00000010
,
00023000
01000000
10000000
00100000
,
00031000
00000100
00001000
00000100
00000001
00000100
00010000
00001000
,
00200000
00300000
02000000
03000000
00020000
00030000
00011000
00000000
,
00000200
00000000
00000310
00000001
00000100
00001000
00011000
00000000
,
02000000
00000000
03100000
10000000
01000000
00010000
00011000
00000000
,
00000200
00000000
00000310
00000001
00000100
00001000
00011000
00000000
,
01000000
00000000
00010000
00000000
00100000
00000000
01000000
00100000
01000000
00000000
10000000
00010000
00100000
00000000
00000000
00000000
,
02100000
00000000
13000000
00100000
00010000
00001000
00000100
00000000
,
00000210
00000000
00000301
00000010
00001000
00010000
01000000
00000000
,
02100000
00000000
13000000
00100000
00010000
00001000
00000100
00000000
,
00000110
00000000
00000000
00000010
00001000
00000000
00000100
00001000
00000100
00000000
00010000
00001000
00100000
00000000
00010000
00000000
,
01000000
00000000
00100000
10000000
00000000
00100000
10000000
00000000
01000000
00010000
00000000
00001000
00010000
00000000
00001000
00000000
,
00000010
00000000
00000100
00000010
00000000
00000100
00000010
00000000
00000001
00001000
00000000
00000010
00000100
00000000
00001000
00000000
,
00010000
00000000
00100000
10000000
00000000
00100000
10000000
00000000
00010000
00100000
00000000
01000000
10000000
00000000
00000000
00000000
,
00100000
00000000
01000000
00010000
01000000
00000000
00010000
00100000
00001000
00000000
00010000
00000100
00001000
00000000
00000000
00000000
,
00000010
00000000
00000100
00000001
00000000
00000100
00000001
00000000
00000010
00000100
00000000
00010000
00001000
00000000
00100000
00000000
,
00010000
00000000
01000000
00100000
00000000
01000000
00100000
00000000
10000000
01000000
00000000
10000000
00010000
00000000
00100000
00000000
,
01000000
00000000
00010000
00001000
00000000
00010000
00001000
00000000
00100000
00010000
00000000
00100000
00001000
00000000
00000000
00000000
,
00011000
00000000
00000000
00000000
00001000
00000000
00010000
00000100
00001000
00000000
00000010
00000100
00000001
00000000
00000000
00000000
,
00000220
00000000
00000000
00000000
,
00000000
00000000
00000000
00000330
,
00002001
00000100
00000001
00000010
,
00023000
01000000
10000000
00100000
,
00031000
00000100
00001000
00000100
00000001
00000100
00010000
00001000
,
00100000
01000000
00010000
01000000
10000000
00000000
01100000
00000000
,
10020000
01000000
10000000
00100000
,
00032000
00000100
00000001
00000010
,
00013000
01000000
00010000
01000000
10000000
01000000
00001000
00010000
,
00000020
00000030
00000200
00000300
00002000
00003000
00011000
00000000
,
02200000
00000000
00000000
00000000
,
00000000
00000000
03300000
10010000
,
10000000
00000000
01000000
00100000
00000000
01000000
10000000
00000000
01000000
00010000
00000000
00001000
00010000
00000000
00001000
00000000
,
00000010
00000000
00000100
00001000
00000000
00000010
00001000
00000000
00000001
00000100
00000000
00001000
00000100
00000000
00001000
00000000
,
00010000
00000000
00100000
01000000
00000000
00100000
10000000
00000000
01000000
00010000
00000000
00001000
00010000
00000000
00001000
00000000
,
00000010
00000000
00000100
00001000
00000010
00000000
00010000
00001000
01000000
00000000
00010000
00100000
01000000
00000000
00000000
00000000
,
10000000
00000000
00100000
01000000
00000000
00010000
00100000
00000000
01000000
00010000
00000000
00001000
00010000
00000000
00001000
00000000
,
00000100
00000000
00000010
00001000
00000000
00000100
00001000
00000000
00000001
00000010
00000000
00001000
00000010
00000000
00001000
00000000
,
00010000
00000000
01000000
00100000
00000000
01000000
10000000
00000000
00100000
01000000
00000000
00010000
00100000
00000000
00000000
00000000
,
00011000
00000000
00001000
00010000
00000100
00000000
00010000
00001000
01000000
00000000
00010000
00100000
01000000
00000000
00000000
00000000
,
02200000
00000000
00000000
03300000
,
00011000
00000000
00000000
00000000
;

//--------------- dance-double - forcednature ----------------
#NOTEDATA:;
#STEPSTYPE:dance-double;
#DESCRIPTION:forcednature;
#CREDIT:forcednature;
#DIFFICULTY:Challenge;
#METER:11;
#RADARVALUES:0,0,0,0,0;
#NOTES:
00000000
00000000
00000000
00000000
,
00000000
00000000
00000000
00000000
,
00000000
00000000
00000000
00000000
,
00021000
00000000
00000010
00000010
,
00000100
00000000
00000010
00000100
,
00032000
00000000
00100000
00100000
,
01000000
00000000
00100000
01000000
,
00023000
00100000
00001000
00000100
,
00001000
00000010
00002000
00003000
,
00000000
01000000
00001000
00000010
,
00000200
00030000
00000310
MMMM1001
,
00000110
00001000
00010000
01000000
,
01100000
00010000
00001000
00000100
,
00000010
00001000
00010000
01000000
,
10000000
01000000
00010000
00000000
00100000
00000000
00011000
00000000
,
01100000
00010000
00001000
00000100
,
00000110
00001000
00010000
01000000
,
00100000
10000000
00100000
00001000
,
00022000
00000000
00033000
MMMMMMMM
,
10020000
00130000
00010100
00000000
,
00002001
00003010
01001000
00000000
,
10020000
00130000
00010100
00000000
,
00000001
00001000
00010000
10000000
,
00210000
10300000
00101000
00000100
,
00001020
00000031
00010010
01000000
,
00210000
10300000
00101000
00000100
,
00021000
00100000
00030100
MMMM0000
,
00000210
00000000
00000001
00000000
00010300
00001000
01000000
00000000
,
02100000
00000000
10000000
00000000
03001000
00010000
00000100
00000000
,
00000210
00000000
00000001
00000000
00010300
00001000
01000000
00000000
,
00100000
00010000
MMMM1000
00000000
00000010
00001000
0001MMMM
00000000
,
00000020
00000000
00000001
00000000
00010030
00001000
01000000
00000000
,
00200000
00000000
10000000
00000000
00301000
00010000
00000100
00000000
,
00000020
00000000
00000001
00000000
00010030
00001000
01000000
00000000
,
MMMMMMMM
01100000
00011000
00000110
,
00000002
00000000
00000000
00000000
,
00000000
00000000
00000000
00000013
,
00000110
00001000
00010000
01000000
,
01100000
00010000
00001000
00000100
,
00000010
00001000
00010000
01000000
,
10000000
01000000
00010000
00000000
00100000
00000000
00011000
00000000
,
01100000
00010000
00001000
00000100
,
00000110
00001000
00010000
01000000
,
00100000
10000000
00100000
00001000
,
00022000
00000000
00033000
MMMMMMMM
,
00000220
00000000
00000000
00000000
,
00000000
00000000
00000330
MMMMMMMM
,
00002001
00000000
00003001
00000100
00001000
00010000
MMMMMMMM
00000000
,
10020000
00000000
10030000
01000000
00010000
00001000
MMMMMMMM
00000000
,
00002001
00000000
00003001
00000100
00001000
00010000
MMMMMMMM
00000000
,
01100000
00011000
00000110
MMMMMMMM
,
00000001
00000010
00001000
00010000
01000000
00100000
MMMMMMMM
00000000
,
10000000
00100000
00010000
00001000
00000100
00000010
MMMMMMMM
00000000
,
00000001
00000010
00001000
00010000
01000000
00100000
MMMMMMMM
00000000
,
10010000
00011000
00001001
MMMMMMMM
,
00022000
00000000
00000000
00033000
,
MMMMMMMM
00000000
00000000
00000000
;
