#VERSION:0.83;
#TITLE:終焔のClaudia;
#SUBTITLE:;
#ARTIST:二代目朱雀;
#TITLETRANSLIT:Shuuen no Claudia;
#SUBTITLETRANSLIT:;
#ARTISTTRANSLIT:Nidaime Suzaku;
#GENRE:HARD RENAISSANCE;
#CREDIT:;
#MUSIC:Shuuen no Claudia.ogg;
#BANNER:Shuuen no Claudia.png;
#BACKGROUND:Shuuen no Claudia-bg.png;
#CDTITLE:./CDTitles/bm IIDX 31 EPOLIS.png;
#SAMPLESTART:74.523;
#SAMPLELENGTH:15.000;
#SELECTABLE:YES;
#OFFSET:-0.002;
#BPMS:0.000=185.000
,18.000=175.000
,19.000=170.000
,20.000=160.000
,21.000=140.000
,22.000=125.000
,23.000=110.000
,24.000=100.000
,25.000=90.000
,28.000=185.000
;
#STOPS:;
#TIMESIGNATURES:0.000=4=4,
4.000=3=4,
28.000=4=4
;
#BGCHANGES:0.000=../BGAs/21he.mp4=1.000=0=0=0=StretchNoLoop====,
99999.000=-nosongbg-=1.000=0=0=0=StretchNoLoop====
;
#FGCHANGES:;

//--------------- dance-single - extraordiberry vs. forcednature ----------------
#NOTEDATA:;
#STEPSTYPE:dance-single;
#DESCRIPTION:extraordiberry vs. forcednature;
#DIFFICULTY:Beginner;
#METER:5;
#RADARVALUES:0,0,0,0,0;
#CREDIT:extraordiberry vs. forcednature;
#NOTES:
0000
0000
0000
0000
,
0000
0000
0000
0000
,
0000
0000
0000
0000
,
0000
0000
0000
0000
,
0001
0000
0000
1000
,
0000
0000
0010
0000
,
0000
0000
0200
0000
0000
0300
0000
0000
,
1001
0000
0000
0000
,
0000
0000
0010
0000
,
1001
0000
0000
0000
,
0000
0000
0100
0000
,
1001
0000
0000
0000
,
0000
0000
1000
0000
,
1001
0000
0000
0000
,
0001
0000
0100
0000
,
0220
0000
0000
0000
,
0330
0000
0000
0000
,
1001
0000
0000
0000
,
0001
0000
0000
0000
,
0010
0000
0000
0000
,
0001
0000
1000
0000
,
0001
0000
0000
0000
,
0100
0000
0000
0000
,
0001
0000
0000
0000
,
1000
0000
0000
0000
,
0010
0000
0010
0000
,
0100
0000
0010
0000
,
1000
0000
1000
0000
,
0001
0000
0000
0000
,
1000
0000
1000
0000
,
0100
0000
1000
0000
,
0010
0000
0010
0000
,
0100
0000
0000
0000
,
1001
0000
0000
0000
,
0001
0000
0010
0000
,
0100
0000
0010
0000
,
0001
0000
1000
0000
,
0100
0000
0000
0000
,
0010
0000
0001
0000
,
1000
0000
0010
0000
,
1000
0000
0001
0000
,
0010
0000
0000
0000
,
0100
0000
0000
0000
,
1000
0000
0000
0000
,
0020
0000
0030
0000
,
0100
0000
0000
0000
,
0001
0000
0000
0000
,
0010
0000
0000
0000
,
0200
0000
0300
0000
,
2002
0000
0000
0000
,
3003
0000
0100
0000
,
1001
0000
0000
0000
,
0000
0000
0010
0000
,
1001
0000
0000
0000
,
0000
0000
0100
0000
,
1001
0000
0000
0000
,
0220
0000
0330
0000
,
0001
0000
1000
0000
,
0001
0000
0100
0000
,
0010
0000
0010
0000
,
1000
0000
0000
0000
,
0001
0000
0010
0000
,
0100
0000
0010
0000
,
0001
0000
0001
0000
,
1000
0000
0000
0000
,
0010
0000
0100
0000
,
0001
0000
0100
0000
,
0010
0000
0010
0000
,
1000
0000
0000
0000
,
0100
0000
0010
0000
,
0100
0000
1000
0000
,
0001
0000
1000
0000
,
0010
0000
0000
0000
,
1001
0000
1000
0001
,
1000
0000
0010
0000
,
1001
0000
0001
1000
,
0001
0000
0010
0000
,
0110
0000
1000
0100
,
1000
0000
0010
0000
,
0110
0000
0001
0100
,
0001
0000
0010
0010
,
0000
2002
0000
0000
,
0000
3003
0000
0000
;

//--------------- dance-single - extraordiberry vs. forcednature ----------------
#NOTEDATA:;
#STEPSTYPE:dance-single;
#DESCRIPTION:extraordiberry vs. forcednature;
#DIFFICULTY:Easy;
#METER:10;
#RADARVALUES:0,0,0,0,0;
#CREDIT:extraordiberry vs. forcednature;
#NOTES:
0000
0000
0000
0000
,
0000
0000
0000
0000
,
0000
0000
0000
0000
,
0000
0000
0000
0000
,
0002
0000
0003
0200
,
0000
0300
0020
0000
,
0030
2000
0000
3000
,
2002
0000
0000
0000
,
3003
0000
0001
0010
,
2002
0000
0000
0000
,
3003
0000
1000
0010
,
2002
0000
0000
0000
,
3003
0000
0001
0100
,
0220
0000
0000
0330
,
1000
0001
1000
0100
,
0220
0000
0000
0000
,
0330
0000
0000
0000
,
1001
0000
1000
0010
,
0100
0000
0001
1000
,
0001
0000
0010
0100
,
1000
0000
0000
0000
0001
1000
0001
0000
,
1001
0000
0001
0010
,
0100
0000
1000
0001
,
1000
0000
0010
0100
,
0001
0000
0020
0030
,
0001
0000
0001
1000
0000
1000
0001
0000
,
0100
0010
1000
0100
,
1000
0000
1000
0001
0000
0001
1000
0000
,
0001
0010
0100
1000
,
0010
0000
0010
0100
0000
0100
0010
0000
,
1000
0001
0010
0100
,
0110
0000
0000
1001
0000
0000
0110
0000
,
0000
1001
0000
0000
1000
0000
0001
0000
,
1001
0000
1000
0010
,
0001
0000
0010
0000
1000
0010
1000
0000
,
0001
0000
0010
1000
,
0010
0000
0001
0000
0010
0100
0010
0000
,
0100
0000
1000
0100
,
0001
0000
0100
0000
1000
0100
1000
0000
,
0010
0000
0100
0001
,
0010
0000
0001
0000
1000
0001
1000
0000
,
2002
3003
0001
0010
,
0200
0300
2000
3000
,
0020
0030
0100
0001
,
1000
0001
1000
0001
2000
0000
3000
0000
,
0200
0300
0010
0001
,
2000
3000
0010
0100
,
0002
0023
0230
2300
,
3010
0100
0010
0100
0010
0000
0000
0000
,
2002
0003
0010
0010
,
0010
0000
3001
1000
,
2002
3000
0010
0010
,
0010
0000
1003
0001
,
2002
0003
0100
0100
,
0100
0000
3001
1000
,
0010
0100
0010
0000
0100
0010
0100
0000
,
2002
0000
0000
3003
,
0001
0010
0100
0000
1000
0000
0001
0000
,
0100
0010
1000
0000
0001
0000
0010
0000
,
0110
1000
1100
0001
,
0101
0000
1000
0000
0010
0100
0010
0000
,
1000
0100
0010
0000
0001
0000
0100
0000
,
0010
1000
0001
0000
0010
0000
0100
0000
,
1100
0001
0101
1000
,
0010
0010
0200
0302
,
1003
0100
0010
0000
0001
0000
1000
0000
,
0010
0100
0001
0000
0010
0000
0100
0000
,
1100
0001
0101
1000
,
0010
0100
0010
0000
0100
0001
1000
0000
,
0100
0010
0001
0000
1000
0000
0010
0000
,
0100
0001
1000
0000
0100
0000
0010
0000
,
0001
0100
0001
0000
1000
0100
1000
0000
,
0010
0110
2002
3003
,
1000
0000
1000
0100
0000
0100
0010
0000
,
0010
0001
0000
0001
0100
0010
0100
0000
,
0001
0000
0001
0010
0000
0010
0100
0000
,
0100
1000
0000
1000
0010
0100
0010
0000
,
1000
0000
1000
0001
0000
0001
0100
0000
,
0100
0010
0000
0010
1000
0001
1000
0000
,
0100
0000
0100
0010
0000
0010
0001
0000
,
0001
1000
0000
1000
0010
0100
0010
0000
,
0000
2002
0000
0000
,
0000
3003
0000
0000
;

//--------------- dance-single - extraordiberry vs. forcednature ----------------
#NOTEDATA:;
#STEPSTYPE:dance-single;
#DESCRIPTION:extraordiberry vs. forcednature;
#DIFFICULTY:Medium;
#METER:14;
#RADARVALUES:0,0,0,0,0;
#CREDIT:extraordiberry vs. forcednature;
#NOTES:
0000
0000
0000
0000
,
0000
0000
0000
0000
,
0000
0000
0000
0000
,
0000
0000
0000
0000
,
2000
0000
0000
3200
,
0000
0000
0320
0000
,
0000
0032
0000
0003
,
2001
0000
0000
0000
,
3020
0000
0000
0000
0000
0000
0130
0000
0010
1000
0000
0001
,
0020
0000
0000
0000
,
0230
0000
0000
0000
0000
0000
0310
0000
0100
1000
0000
0001
,
0100
0100
0010
0010
,
1000
0000
0000
1000
0000
0000
0001
0000
0010
0100
0000
1000
,
0002
0000
0000
0000
,
0103
0000
0010
1000
0000
0001
0010
0000
0100
1000
0100
1000
,
0002
0000
0000
0000
,
0003
0000
0000
0000
,
1001
0000
1000
0100
0000
0010
0100
0000
,
0001
0100
0000
0010
0100
1000
0001
0000
,
1000
0000
0001
0100
0000
0010
0100
0000
,
1000
0100
0000
0010
0100
0100
0001
0001
,
1000
0100
0010
0100
1000
0001
1000
0010
,
0100
0001
0000
0001
0010
0100
1000
0000
,
0001
0100
0010
0100
0001
1000
0001
0010
,
0100
0000
1000
0000
0001
0000
1000
0000
0010
0100
0010
0000
1000
0000
0000
0000
,
0001
0010
0100
1000
0001
0100
0010
1000
,
0100
1000
0001
1000
0010
0100
0001
0000
,
1000
0100
0010
0001
1000
0010
0100
0001
,
0010
0000
0001
0000
1000
0000
0001
0000
0100
0010
0100
0000
0001
0000
0000
0000
,
1000
0100
0010
0001
0100
0010
1000
0001
,
0010
0100
1000
0001
0100
1000
0100
0000
,
1001
0000
0010
0110
0000
0001
1001
0000
,
0100
0000
0110
0000
0000
0000
1000
0000
0100
0010
0100
0000
1000
0000
0000
0000
,
0001
0100
0010
0100
1000
0100
0010
2000
,
0000
3002
0000
0023
0000
0100
0130
0000
,
1000
0100
0010
0100
0001
0100
0010
0002
,
0000
2003
0000
3020
0000
0100
0130
0001
,
1000
0010
0100
0010
0001
0010
0100
0002
,
0000
2003
0000
3200
0000
0010
0310
0000
,
0001
0010
0100
0010
1000
0010
0100
2000
,
0000
0000
3020
0000
0000
0000
0130
0000
0010
0000
0100
0000
0001
1000
0001
1000
,
0002
0000
2003
0000
,
3200
0000
0320
0000
,
0230
0000
2300
0000
,
3001
0100
1000
0100
0001
0000
1000
0000
,
0002
0000
0023
0000
,
0230
0320
0032
0000
,
0103
0000
0100
0010
0000
0010
1000
0000
1000
0001
0000
0001
,
1000
0100
0001
0100
2000
0000
0000
3001
,
2002
0000
0000
0000
,
3003
0000
0000
0000
0000
0000
0001
0100
0001
0100
0001
0100
,
0020
0000
0000
0000
,
0030
0000
0000
0000
0000
0000
1000
0100
1000
0100
1000
0100
,
0010
0010
0001
0001
,
0100
0000
0000
0100
0000
0000
0001
0100
0010
1000
0000
0000
,
0001
0010
1000
0010
0001
0010
1000
0010
,
0220
0000
0000
0330
,
0001
0100
0010
1000
0100
1000
0001
0000
,
1000
0100
0010
0001
0100
0001
1000
0000
,
1100
0000
0110
0000
0010
0011
0000
0101
,
0000
0110
0000
1010
1000
0001
0010
0100
,
1000
0001
0100
0010
1000
0100
0010
0000
,
0001
0000
0100
0000
0010
0000
1000
0000
0100
0000
0010
0000
0001
1000
0001
0000
,
0200
0000
0000
0320
0000
0000
2030
0000
3002
0000
0000
0000
0023
0000
0000
0000
,
0230
0000
0310
0001
1000
1000
1000
0000
,
0001
0100
0010
1000
0100
1000
0001
0000
,
1000
0010
0100
0001
0010
0001
1000
0010
,
1010
0000
0110
0000
0100
0101
0000
0011
,
0000
0110
0000
2100
0000
0001
3001
0000
,
1000
0100
0001
0100
1000
0001
0100
0000
,
0001
0000
0010
0000
1000
0000
0010
0000
0001
0000
1000
0000
0010
0100
0010
0000
,
1000
1000
0001
1000
1000
1000
0100
0000
,
0110
0011
1002
0000
,
1003
0100
0001
0100
1000
0001
0100
0010
,
1000
0001
0010
0001
1000
0001
0100
0000
,
0001
0010
1000
0010
0001
1000
0010
0100
,
0001
0000
0010
0000
0100
0000
1000
0000
0001
0100
0001
0000
1000
0000
0001
0000
,
1000
0010
0001
0010
1000
0001
0010
0100
,
1000
0001
0100
0001
1000
0100
0010
0010
,
0001
0100
1000
0001
0010
1000
0001
0010
,
0100
0000
0010
0000
0001
0000
1000
0000
0010
0100
0010
0000
0100
0010
0100
0000
,
0000
2002
0000
0000
,
0000
3003
0000
0000
;

//--------------- dance-single - extraordiberry vs. forcednature ----------------
#NOTEDATA:;
#STEPSTYPE:dance-single;
#DESCRIPTION:extraordiberry vs. forcednature;
#DIFFICULTY:Hard;
#METER:17;
#RADARVALUES:0,0,0,0,0;
#CREDIT:extraordiberry vs. forcednature;
#NOTES:
0000
0000
0000
0000
,
0000
0000
0000
0000
,
0000
0000
0000
0000
,
0000
0000
0000
0000
,
2000
0000
0000
3100
1000
0001
0200
0000
,
0320
2030
3002
0000
,
0000
0000
0013
0100
2000
0000
0000
0000
0000
0000
0000
0000
3000
0000
0000
0000
,
1002
0000
0000
0000
,
0023
0000
0000
0000
0000
0130
0010
0001
1000
0010
0100
0001
,
2000
0000
0000
0000
,
3200
0000
0000
0000
0000
0310
0100
1000
0001
0100
0010
1000
,
0001
0001
0010
0010
,
0100
0000
0000
0100
0000
1000
0001
0100
0010
1000
0100
1000
,
2100
0000
0000
3100
1000
0001
0100
0000
,
0001
0100
0010
1000
0010
0100
0001
1000
0100
0010
0001
1000
,
2002
0000
0000
0000
,
3003
0000
0000
0000
,
0101
0000
0000
0000
0100
0000
0010
0000
0000
0000
0100
0000
0010
1000
0010
1000
,
0001
0010
0000
0001
0100
0010
1000
0000
,
1100
0000
0000
0000
0100
0000
0010
0000
0000
0000
0100
0000
0010
0001
0010
0001
,
1000
0000
0010
0000
0000
0000
1000
0000
0100
0000
0010
0001
1000
0000
0001
0000
,
1001
0000
1000
0100
0010
0000
0100
0000
1000
0001
0100
0000
0001
0000
1000
0100
,
0010
0002
0000
0203
0320
2030
3002
0000
,
1003
0000
0001
0010
0100
0000
0010
0000
0001
1000
0010
0000
1000
0000
0001
0010
,
0100
2000
0000
3001
0201
0000
0302
0000
,
1003
0100
0010
0001
1000
0000
0001
0100
0010
1000
0001
0000
1000
0100
0010
0001
,
1000
0010
0100
0001
0010
0100
0010
0001
,
1000
0010
0100
0001
1000
0000
0001
0010
0100
1000
0001
0000
1000
0010
0100
0001
,
1000
0000
0100
0000
0010
0000
0100
0000
1000
0001
0010
0001
1000
0000
0010
0000
,
0100
0001
1000
0001
0010
0000
0100
1000
0001
1000
0010
0000
0100
0001
1000
0001
,
0010
0000
0100
0000
1000
0000
0100
0000
0010
0000
0001
0000
0100
0010
0100
0010
,
2000
0000
3100
0011
0000
0100
1010
0000
,
0010
0000
1001
0000
0000
0000
1000
0000
0100
0010
0100
0010
0001
1000
0010
0100
,
0001
1000
0100
0010
0200
1300
0001
0200
,
0310
2000
3100
0020
0031
0200
0310
1000
,
1001
0001
0020
0130
2000
3010
0200
1300
,
0100
0000
0002
0000
1003
0000
0200
0000
0310
0000
0001
0000
1000
0001
0100
0010
,
1000
0001
0020
0130
2000
3010
0100
0002
,
0013
0200
0301
0200
1300
0002
0203
0310
,
1010
1000
0002
0013
2000
3010
0200
1300
,
0001
0000
0200
0000
1300
0000
0002
0000
0013
0000
0010
0000
0010
1000
0100
0010
,
0002
0000
0000
0000
0203
0000
0000
0000
0320
0000
0000
0000
1030
0000
0001
1000
,
0200
0000
0320
0000
0130
1000
0001
0100
,
0020
0000
0000
1030
0010
1000
0001
1000
,
0100
0010
0100
0010
0100
0010
0100
0010
0002
0000
0000
0000
2003
0000
0000
0000
,
3002
0000
0000
0000
0203
0000
0000
0000
0320
0000
0000
0000
0130
0000
0001
1000
,
0200
0000
0000
0000
0320
0000
0000
0000
0230
0000
0000
0000
1300
0000
0001
1000
,
0010
0100
0001
1000
0001
0010
0100
1000
0100
0010
0001
1000
,
0010
0100
0010
0100
0010
0100
0010
0100
0002
0000
0000
0000
0000
0000
1003
0001
,
0020
0100
0100
0130
0100
1000
0010
1000
,
0001
0000
0000
1000
0000
0000
0100
0000
0000
1000
0000
0000
0010
0000
0100
0000
0001
0000
0010
0000
0100
0000
1000
0000
,
0020
0100
0100
0130
0100
0001
0010
0001
,
1000
0000
0000
0001
0000
0000
0100
0000
0000
0001
0000
0000
0010
0000
0100
0000
1000
0000
0010
0000
0100
0000
0001
0000
,
0020
0100
0100
0130
0100
1000
0010
1000
,
0001
0000
0000
1000
0000
0000
0100
0000
0000
1000
0000
0000
0010
0000
0100
0000
0001
0000
0010
0000
0100
0000
1000
0000
,
0001
0100
0001
0100
0001
0100
0001
0100
0010
1000
0010
1000
0010
1000
0010
1000
,
0002
0000
0000
0000
0000
0000
0000
0000
0000
0000
0013
0100
1000
0001
0100
0010
,
1000
0000
0100
0000
0010
0100
1000
0000
0001
0000
0100
0000
0010
0000
1000
0000
,
0001
0000
0010
0000
0100
0010
0001
0000
1000
0000
0010
0000
0100
0001
0100
0010
,
2000
3001
0020
0130
0002
0103
1000
0002
,
0103
0000
0020
0000
1030
0000
0001
0000
0011
0000
0010
0100
1000
0100
0010
0001
,
1000
0000
0010
0000
0100
0010
1000
0000
0001
0000
0010
0000
0100
0010
0001
1000
,
0001
0000
0100
0000
0010
0100
0001
0000
1000
0000
0100
0000
0010
0001
1000
0010
,
0100
0000
0100
0001
0000
0001
1000
0100
0020
0000
0000
0000
0032
0000
0000
0000
,
0203
0000
0000
0000
0310
0100
0001
1000
0100
0010
0100
0000
0100
0000
1000
0000
,
0001
0000
0100
0000
0010
0100
0001
0000
1000
0000
0100
0000
0010
0000
0001
0000
,
1000
0000
0010
0000
0100
0010
1000
0000
0001
0000
0010
0000
0100
1000
0100
0010
,
0002
1003
0020
0130
2000
3200
0301
2000
,
3010
0000
0002
0000
0013
0000
1000
0000
1001
0000
0001
0100
0010
1000
0010
0100
,
0001
0000
1000
0000
0001
0010
0100
0000
1000
0000
0001
0000
0100
0010
1000
0001
,
0010
0000
0100
0000
1000
0001
0100
0000
0010
0000
1000
0100
0010
0001
1000
0000
,
1001
0000
0001
0100
0010
0000
0110
0000
0100
0001
1000
0000
0100
0010
0001
0000
,
0011
0110
2001
0000
,
3010
0100
0001
0010
0100
0000
1000
0010
0100
0001
0010
0000
0100
1000
0010
0100
,
0001
1000
0010
0100
0001
0001
0010
0001
,
0100
0010
1000
0100
0010
0000
0001
0100
0010
1000
0100
0000
0010
0001
0100
0010
,
1000
0000
0001
0000
0100
0000
0010
0000
1000
0001
1000
0001
0010
0000
0001
0000
,
1000
0100
0001
0100
1000
0000
0001
0010
1000
0010
0001
0000
1000
0100
0001
0100
,
1000
0010
0100
0001
0010
0010
0100
1000
,
0001
0100
1000
0100
0001
0000
1000
0010
0001
0010
1000
0000
0001
0100
1000
0100
,
0001
0000
0010
0000
0100
0000
1000
0000
0001
0100
0001
1000
0100
0010
0001
0100
,
0000
2002
0000
0000
,
0000
3003
0000
0000
;

//--------------- dance-double - extraordiberry vs. forcednature ----------------
#NOTEDATA:;
#STEPSTYPE:dance-double;
#DESCRIPTION:extraordiberry vs. forcednature;
#DIFFICULTY:Easy;
#METER:10;
#RADARVALUES:0,0,0,0,0;
#CREDIT:extraordiberry vs. forcednature;
#NOTES:
00000000
00000000
00000000
00000000
,
00000000
00000000
00000000
00000000
,
00000000
00000000
00000000
00000000
,
00000000
00000000
00000000
00000000
,
00020000
00000000
00030000
00002000
,
00000000
00003000
00200000
00000000
,
00300000
02000000
00000000
03000000
,
20020000
00000000
00000000
00000000
,
30030000
00000000
00010000
00100000
,
00022000
00000000
00000000
00000000
,
00033000
00000000
00000010
00001000
,
00002002
00000000
00000000
00000000
,
00003003
00000000
00000001
00000100
,
00000220
00000000
00000000
00000330
,
00001000
00000100
00010000
00001000
,
00022000
00000000
00000000
00000000
,
00033000
00000000
00000000
00000000
,
00011000
00000000
00010000
00001000
,
00100000
00000000
00010000
00000000
,
01000000
00000000
00100000
10000000
,
00010000
00000000
00000000
00000000
10000000
00010000
10000000
00000000
,
10010000
00000000
00010000
00100000
,
00001000
00000000
00010000
00000000
,
00001000
00000000
00010000
00000100
,
00001000
00000000
00000002
00000003
,
00001000
00000000
00001000
00000001
00000000
00000001
00001000
00000000
,
00000100
00010000
00001000
01000000
,
00010000
00000000
00010000
10000000
00000000
10000000
00010000
00000000
,
00100000
00001000
00010000
00000010
,
00001000
00000000
00001000
00000001
00000000
00000001
00001000
00000000
,
00000100
00010000
00001000
01000000
,
10010000
00000000
00000000
10010000
00000000
00000000
01100000
00000000
,
00000000
01100000
00000000
00000000
00010000
00000000
00001000
00000000
,
00011000
00000000
00010000
00001000
,
00000010
00000000
00000100
00000000
00000010
00000001
00000010
00000000
,
00000001
00000000
00000100
00000010
,
00001000
00000000
00000010
00000000
00010000
00001000
00010000
00000000
,
00001000
00000000
01000000
00010000
,
00100000
00000000
01000000
00000000
10000000
01000000
10000000
00000000
,
00100000
00000000
01000000
00010000
,
00100000
00000000
00001000
00000000
00010000
00001000
00010000
00000000
,
00022000
00033000
00001000
00000010
,
00000002
00000003
00000200
00000300
,
00000020
00000030
00001000
00000100
,
00010000
00001000
00010000
00001000
00020000
00000000
00030000
00000000
,
00002000
00003000
01000000
00010000
,
20000000
30000000
00100000
01000000
,
00020000
00230000
00302000
00023000
,
00030100
00001000
00000100
00001000
00000100
00000000
00000000
00000000
,
00000220
00000330
00000001
00000001
,
00000100
00000000
00001000
00010000
,
00022000
00033000
00001000
00001000
,
00010000
00000000
00100000
10000000
,
20020000
30030000
10000000
10000000
,
01000000
00000000
00010000
00001000
,
00020000
00000100
00000100
00031000
,
00022000
00000000
00000000
00033000
,
00001000
00010000
00000010
00000000
00001000
00000000
00000010
00000000
,
00000100
00000001
00000010
00000000
00000100
00000000
00001000
00000000
,
00001100
00010000
00011000
00001000
,
00110000
00000000
00010000
00000000
01000000
00010000
01000000
00000000
,
00100000
10000000
00010000
00000000
00100000
00000000
00001000
00000000
,
00010000
00001000
00010000
00000000
00000100
00000000
00001000
00000000
,
00001010
00000001
00000011
00001000
,
00000100
00000100
00020000
00032000
,
01003000
00010000
10000000
00000000
01000000
00000000
00100000
00000000
,
00010000
01000000
00001000
00000000
00010000
00000000
00000010
00000000
,
00001010
00000001
00000011
00001000
,
00000100
00001000
00000100
00000000
00010000
00001000
00100000
00000000
,
00010000
01000000
00100000
00000000
10000000
00000000
00010000
00000000
,
00100000
00001000
00010000
00000000
00000100
00000000
00001000
00000000
,
00000010
00001000
00000010
00000000
00000100
00000001
00000100
00000000
,
00000010
00000110
00002002
00003003
,
00000001
00000000
00000001
00000100
00000000
00000100
00001000
00000000
,
00001000
00010000
00000000
00010000
00100000
00000000
01100000
00000000
,
10000000
00000000
10000000
01000000
00000000
01000000
00010000
00000000
,
00010000
00001000
00000000
00001000
00000010
00000000
00000110
00000000
,
00000001
00000000
00000001
00000100
00000000
00000100
00001000
00000000
,
00001000
00010000
00000000
00010000
00100000
00000000
01100000
00000000
,
10000000
00000000
10000000
01000000
00000000
01000000
00010000
00000000
,
00010000
00001000
00000000
00001000
00000010
00000000
00000001
00000100
,
00000000
00002002
00000000
00000000
,
00000000
00003003
00000000
00000000
;

//--------------- dance-double - extraordiberry vs. forcednature ----------------
#NOTEDATA:;
#STEPSTYPE:dance-double;
#DESCRIPTION:extraordiberry vs. forcednature;
#DIFFICULTY:Medium;
#METER:14;
#RADARVALUES:0,0,0,0,0;
#CREDIT:extraordiberry vs. forcednature;
#NOTES:
00000000
00000000
00000000
00000000
,
00000000
00000000
00000000
00000000
,
00000000
00000000
00000000
00000000
,
00000000
00000000
00000000
00000000
,
00002000
00000000
00000000
00023000
,
00000000
00000000
00030200
00000000
,
00000000
00000320
00000000
00000030
,
00001002
00000000
00000000
00000000
,
00000203
00000000
00000000
00000000
00000000
00000000
00000310
00000000
00001000
00000010
00000000
00001000
,
00000200
00000000
00000000
00000000
,
00020300
00000000
00000000
00000000
00000000
00000000
00031000
00000000
00001000
00100000
00000000
00010000
,
01000000
01000000
00100000
00100000
,
10000000
00000000
00000000
10000000
00000000
00000000
00010000
00000000
00100000
00001000
00000000
00010000
,
00000200
00000000
00000000
00000000
,
00000310
00000000
00000001
00001000
00000000
00000010
00001000
00000000
00000100
00010000
00000100
00010000
,
00002000
00000000
00000000
00000000
,
00003000
00000000
00000000
00000000
,
00011000
00000000
00010000
00001000
00000000
00010000
00100000
00000000
,
10000000
00100000
00000000
01000000
00010000
00100000
00001000
00000000
,
00010000
00000000
00001000
00010000
00000000
00001000
00000010
00000000
,
00000001
00000010
00000000
00000100
00001000
00001000
00000001
00000001
,
00000100
00000000
00001000
00010000
00000000
00100000
10000000
00000000
,
01000000
00100000
00000000
00010000
01000000
00001000
00010000
00000000
,
00000010
00000000
00001000
00000100
00000000
00000010
00000001
00000000
,
00000100
00001000
00000000
00010000
00100000
10000000
01000000
00000000
,
00100000
00001000
00010000
00001000
01000000
00010000
00100000
00001000
,
00010000
00000010
00001000
00000010
00000100
00000001
00000010
00000000
,
00000100
00010000
00001000
00010000
00000010
00001000
00000001
00000010
,
00000100
00010000
00001000
00100000
00010000
00010000
10000000
00000000
,
00100000
10000000
01000000
00100000
00010000
01000000
00100000
10000000
,
01000000
00010000
00001000
00010000
00001000
00000010
00000001
00000000
,
00001001
00000000
00000000
00000110
00000000
00000000
00011000
00000000
,
00000000
01100000
00000000
10000000
00010000
00100000
01000000
10000000
,
00010000
00000000
00010000
01000000
10000000
01000000
00010000
00200000
,
00000000
00302000
00000000
00023000
00000000
00000100
00030100
00000000
,
00010000
00000000
00001000
00000010
00000001
00000010
00000100
00002000
,
00000000
00003002
00000000
00000203
00000000
00000010
00000310
00001000
,
00000010
00000000
00000100
00000001
00000100
00001000
00010000
00002000
,
00000000
00023000
00000000
00230000
00000000
10000000
10300000
00000000
,
00100000
00000000
10000000
00010000
00100000
00010000
01000000
00002000
,
00000000
00023000
00000000
00030010
00001000
00000100
00000010
00000001
,
00000200
00000000
00002300
00000000
,
00023000
00000000
00230000
00000000
,
20300000
00000000
32000000
03200000
,
00301000
00010000
01000000
00010000
00001000
00000000
00000010
00000000
,
00000002
00000000
00000203
00000000
,
00002300
00023000
00230000
00000000
,
10300000
00000000
10000000
00010000
00000000
00010000
00100000
00000000
00100000
00001000
00000000
00000000
,
00010000
00001000
00000100
00001000
00020000
00000000
00030000
00001000
,
00022000
00000000
00000000
00000000
,
00033000
00000000
00000000
00000000
00000000
00000000
00100000
00010000
00100000
00001000
00100000
00001000
,
00020000
00000000
00000000
00000000
,
00030000
00000000
00000000
00000000
00000000
00000000
00000010
00001000
00000010
00010000
00001000
00010000
,
00001000
00001000
00100000
00100000
,
00010000
00000000
00000000
00010000
00000000
00000000
10000000
00100000
01000000
00010000
00000000
00000000
,
00100000
01000000
10000000
01000000
00010000
00001000
00100000
00001000
,
00022000
00000000
00000000
00033000
,
00010000
00000010
00000100
00001000
00010000
00000010
00001000
00000000
,
00000001
00000010
00000100
00010000
00001000
00000010
00000001
00000000
,
00000011
00000000
00000110
00000000
00000100
00010000
00000000
00011000
,
00000000
00101000
00000000
00110000
00000000
00010000
01000000
00100000
,
10000000
01000000
00010000
00001000
01000000
00100000
10000000
00000000
,
00010000
00100000
01000000
00010000
00001000
00100000
00001000
00010000
,
00000200
00000000
00000000
00000320
00000000
00000000
00000032
00000000
00002003
00000000
00000000
00000000
00003020
00000000
00000000
00000000
,
00000230
00000000
00000301
00000100
00001000
00001000
00001000
00000000
,
00010000
00100000
10000000
00100000
01000000
00010000
00100000
00000000
,
01000000
10000000
01000000
00010000
00001000
00100000
01000000
00000000
,
01100000
00000000
00101000
00000000
00001000
00010000
00000000
00010010
,
00000000
00001010
00000000
00001200
00000000
00000010
00000310
00000000
,
00000100
00001000
00000001
00000100
00001000
00010000
00000010
00000000
,
00001000
00000001
00000010
00000100
00010000
00001000
00100000
00000000
,
01000000
10000000
00100000
01000000
00001000
00001000
00010000
00000000
,
00010010
00101000
00022000
00033000
,
00001000
00010000
01000000
10000000
00100000
00010000
00100000
10000000
,
01000000
00010000
00001000
00100000
00010000
01000000
00001000
00000000
,
00010000
00001000
00000100
00000001
00000010
00001000
00000010
00000001
,
00000100
00001000
00010000
00000010
00001000
00000100
00000100
00010000
,
00001000
00010000
00100000
10000000
01000000
00010000
01000000
10000000
,
00100000
00010000
00001000
01000000
00010000
00100000
01000000
00000000
,
00010000
00001000
00000010
00000001
00000100
00001000
00000100
00000001
,
00000010
00000000
00001000
00000000
00010000
00000000
00100000
00000000
10000000
00000000
01000000
00000000
10000000
00010000
10000000
00000000
,
00000000
20020000
00000000
00000000
,
00000000
30030000
00000000
00000000
;

//--------------- dance-double - extraordiberry vs. forcednature ----------------
#NOTEDATA:;
#STEPSTYPE:dance-double;
#DESCRIPTION:extraordiberry vs. forcednature;
#DIFFICULTY:Hard;
#METER:17;
#RADARVALUES:0,0,0,0,0;
#CREDIT:extraordiberry vs. forcednature;
#NOTES:
00000000
00000000
00000000
00000000
,
00000000
00000000
00000000
00000000
,
00000000
00000000
00000000
00000000
,
00000000
00000000
00000000
00000000
,
00020000
00000000
00000000
00031000
01000000
00010000
20000000
00000000
,
32000000
03020000
00032000
00000000
,
00000000
00000000
00013000
00001000
00020000
00000000
00000000
00000000
00000000
00000000
00000000
00000000
00030000
00000000
00000000
00000000
,
00012000
00000000
00000000
00000000
,
00023000
00000000
00000000
00000000
00000000
00031000
00010000
00100000
01000000
00010000
01000000
00100000
,
20000000
00000000
00000000
00000000
,
30020000
00000000
00000000
00000000
00000000
10030000
01000000
00100000
00010000
10000000
01000000
00010000
,
00001000
00001000
00000010
00000010
,
00000001
00000000
00000000
00000001
00000000
00001000
00000001
00000100
00000010
00000100
00001000
00010000
,
00012000
00000000
00000000
00013000
00100000
10000000
00010000
00000000
,
10000000
01000000
00100000
01000000
00010000
00001000
00010000
00001000
00000010
00000100
00000010
00000001
,
00002002
00000000
00000000
00000000
,
00003003
00000000
00000000
00000000
,
00011000
00000000
00000000
00000000
00010000
00000000
00001000
00000000
00000000
00000000
01000000
00000000
00010000
10000000
00010000
10000000
,
01000000
00100000
00000000
01000000
00010000
00001000
00010000
00000000
,
00011000
00000000
00000000
00000000
00001000
00000000
00010000
00000000
00000000
00000000
00000100
00000000
00001000
00000001
00001000
00000001
,
00000100
00000000
00000010
00000000
00000000
00000000
00000100
00000000
00001000
00000000
00010000
00100000
10000000
00000000
00010000
00000000
,
10000000
00000000
01000000
00100000
01000000
00000000
00010000
00000000
00001000
00010000
00001000
00000000
00010000
00000000
01000000
00100000
,
01000000
20000000
00000000
30200000
00320000
00032000
00003200
00000000
,
00000301
00000000
00000010
00000100
00000010
00000000
00001000
00000000
00010000
00001000
00010000
00000000
00001000
00000000
00000010
00000100
,
00000010
00000002
00000000
00000203
00002300
00023000
00230000
00000000
,
10300000
00100000
01000000
00010000
01000000
00000000
00010000
10000000
01000000
00100000
00010000
00000000
00100000
00001000
00010000
00001000
,
00100000
00010000
10000000
00100000
00020000
00032000
00003200
00000000
,
00000301
00000100
00000010
00001000
00000010
00000000
00001000
00000001
00000010
00000100
00001000
00000000
00000100
00010000
00001000
00010000
,
00000100
00000000
00001000
00000000
00000001
00000000
00000010
00000000
00001000
00010000
00000100
00000000
00001000
00000100
00010000
00000000
,
00001000
01000000
00010000
01000000
00001000
00000000
00010000
00000010
00001000
00000010
00010000
00000000
00001000
01000000
00010000
01000000
,
00001000
00000000
00010000
00000000
00100000
00000000
10000000
00000000
00010000
00000000
10000000
00000000
01000000
00100000
01000000
00100000
,
00020000
00000000
10030000
10010000
00000000
00001000
00011000
00000000
,
00000001
00000000
00001001
00000000
00000000
00000000
00000001
00000000
00000100
00000001
00000100
00000010
00001000
00000010
00010000
00001000
,
00010000
00001000
00010000
00100000
02000000
03010000
10000000
02000000
,
03010000
00002000
00013000
00200000
10300000
00020000
00230000
00301000
,
00011000
00010000
00002000
00003010
00000002
00001003
00000020
00000130
,
00001000
00000000
00020000
00000000
00030100
00000000
00000020
00000000
00000031
00000000
00001000
00000000
00000010
00001000
00000010
00010000
,
00001000
00010000
00200000
01300000
00002000
00013000
01000000
20000000
,
30100000
02000000
03010000
00200000
01300000
00020000
00032000
00013000
,
00011000
00001000
00000020
00000031
00002000
00003010
00000002
00001003
,
00000100
00000000
00002000
00000000
00013000
00000000
00200000
00000000
10300000
00000000
00010000
00100000
00001000
00010000
00000100
00001000
,
00000002
00000000
00000203
00000000
,
00002300
00000000
00000000
00000000
00013000
00100000
01000000
00100000
,
20000000
00000000
00000000
30010000
10000000
01000000
00100000
00001000
,
00010000
00001000
00010000
00001000
00010000
00001000
00010000
00001000
02000000
00000000
00000000
00000000
03020000
00000000
00000000
00000000
,
20030000
00010000
32000000
00000000
,
03020000
01000000
00031000
00011000
,
00001000
00010000
00001000
00000010
00000100
00000010
00000001
00001000
00000001
00000100
00000010
00000100
,
00001000
00010000
00001000
00010000
00001000
00010000
00001000
00010000
00000200
00000000
00000000
00000000
00000000
00000000
00010300
00000000
,
00021000
00000000
00130000
00010000
00001000
00010000
01000000
10000000
,
00010000
00000000
00000000
01000000
00000000
00000000
00100000
00000000
00000000
10000000
00000000
00000000
01000000
00000000
00100000
00000000
01000000
00000000
00010000
00000000
00001000
00000000
00010000
00000000
,
00002000
00000000
00003010
00001000
00010000
00001000
00000100
00000001
,
00001000
00000000
00000000
00000100
00000000
00000000
00000010
00000000
00000000
00000001
00000000
00000000
00000100
00000000
00000010
00000000
00000100
00000000
00001000
00000000
00010000
00000000
00001000
00000000
,
00020000
00000000
01030000
00010000
00001000
00010000
00100000
10000000
,
00010000
00000000
00000000
00100000
00000000
00000000
01000000
00000000
00000000
10000000
00000000
00000000
00100000
00000000
01000000
00000000
00100000
00000000
00010000
00000000
00001000
00000000
00010000
00000000
,
00000100
00001000
00000100
00001000
00000100
00001000
00000100
00001000
00000001
00000100
00000001
00000100
00000001
00000100
00000001
00000100
,
00000020
00000000
00000000
00000000
00000000
00000000
00000000
00000000
00000000
00000000
00000130
00000001
00001000
00000010
00010000
00001000
,
00010000
00000000
00100000
00000000
10000000
00000000
00010000
00000000
10000000
00000000
01000000
00000000
00010000
00000000
00001000
00010000
,
00001000
00000000
00000010
00000000
00000001
00000000
00001000
00000000
00000001
00000000
00000100
00000000
00001000
00010000
00000010
00001000
,
00000020
00000130
00000002
00000013
00002000
00013000
00000010
00000200
,
00000301
00000000
00000200
00000000
00001300
00000000
00010000
00000000
00010000
00000000
00001000
00010000
00000010
00001000
00000010
00010000
,
00001000
00000000
00000100
00000000
00000001
00000000
00001000
00000000
00000001
00000000
00000010
00000000
00001000
00010000
00001000
00010000
,
00100000
00000000
10000000
00000000
00010000
00000000
00100000
00000000
00001000
00000000
00010000
00000000
00100000
01000000
00100000
10000000
,
00010000
00000000
10000000
01000000
00000000
00100000
01000000
00100000
00020000
00000000
00000000
00000000
00032000
00000000
00000000
00000000
,
00003200
00000000
00000000
00000000
00001300
00000001
00000100
00000010
00001000
00000010
00010000
00000000
00010000
00000000
00001000
00000000
,
00010000
00000000
00100000
01000000
00100000
01000000
00010000
00000000
10000000
00000000
01000000
00000000
00010000
00001000
00010000
00000000
,
00001000
00000000
00000010
00000100
00000010
00000100
00001000
00000000
00000001
00000000
00000100
00000000
00001000
00010000
00001000
00100000
,
00020000
10030000
02000000
03010000
00002000
02003000
03010000
00200000
,
10300000
00000000
00020000
00000000
01030000
00000000
00010000
00000000
00010000
00000000
00001000
00010000
00000100
00001000
00000100
00010000
,
00001000
00000000
00000010
00000100
00000010
00000100
00001000
00000000
00000001
00000000
00000100
00000000
00001000
00010000
00001000
00000000
,
00010000
00000000
00100000
01000000
00010000
10000000
01000000
00000000
00010000
00000000
00001000
00100000
00010000
10000000
01000000
00000000
,
10000000
00000000
00100000
01000000
00100000
00000000
00010000
00000000
00001000
00010000
00001000
00000000
00000010
00000100
00000010
00000000
,
00000110
00001001
00021000
00000000
,
00031000
01000000
00010000
01000000
00001000
00000000
00010000
00000010
00001000
00000010
00010000
00000000
00001000
01000000
00010000
01000000
,
00001000
00010000
00100000
10000000
00010000
00100000
00001000
00001000
,
00010000
00000100
00001000
00000100
00010000
00000000
00001000
00100000
00010000
00100000
00001000
00000000
00010000
00000100
00001000
00000100
,
00010000
00000000
00001000
00000000
00000010
00000000
00000001
00000000
00000100
00000010
00001000
00000010
00010000
00001000
00010000
00000000
,
00001000
00010000
00100000
00010000
00001000
00000000
00010000
00001000
00000100
00001000
00010000
00000000
00001000
00010000
00100000
00010000
,
00001000
00010000
00000010
00001000
00000001
00000010
00001000
00001000
,
00010000
00001000
00000100
00001000
00010000
00000000
00001000
00010000
00100000
00010000
00001000
00000000
00010000
00001000
00000100
00001000
,
00010000
00000000
00001000
00000000
01000000
00000000
00010000
00000000
10000000
01000000
00100000
01000000
00010000
00001000
00010000
00000100
,
00000000
00002002
00000000
00000000
,
00000000
00003003
00000000
00000000
;
