#VERSION:0.83;
#TITLE:Shoot the Moon;
#SUBTITLE:;
#ARTIST:BEMANI Sound Team "TAG";
#TITLETRANSLIT:;
#SUBTITLETRANSLIT:;
#ARTISTTRANSLIT:TAG;
#GENRE:;
#CREDIT:;
#MUSIC:Shoot the Moon.ogg;
#BANNER:Shoot the Moon.png;
#BACKGROUND:Shoot the Moon-bg.png;
#CDTITLE:./CDTitles/NOSTALGIA Op.3.png;
#SAMPLESTART:15.652;
#SAMPLELENGTH:15.000;
#SELECTABLE:YES;
#OFFSET:1.739;
#BPMS:0.000=138.000
,104.000=69.000
,120.000=138.000
;
#STOPS:;
#TIMESIGNATURES:0.000=4=4;
#DISPLAYBPM:69.000:138.000;
#BGCHANGES:0.000=../BGAs/29cy.mp4=1.000=0=0=0=StretchNoLoop====,
99999.000=-nosongbg-=1.000=0=0=0=StretchNoLoop====
;
#FGCHANGES:;

//--------------- dance-single - forcednature ----------------
#NOTEDATA:;
#STEPSTYPE:dance-single;
#DESCRIPTION:forcednature;
#CREDIT:forcednature;
#DIFFICULTY:Beginner;
#METER:1;
#RADARVALUES:0,0,0,0,0;
#NOTES:
0000
0000
0000
0000
,
0000
0000
0000
0000
,
0000
0000
0000
0000
,
0000
0000
0000
0000
,
0000
0000
0000
0000
,
0000
0000
0000
0000
,
1000
0000
0000
0000
,
0000
0000
0000
0000
,
0001
0000
0000
0000
,
0100
0000
0000
0000
,
0010
0000
0000
0000
,
0000
0000
0000
0000
,
1000
0000
0000
0000
,
0000
0000
0000
0000
,
0001
0000
0000
0000
,
0000
0000
0000
0000
,
0010
0000
0000
0000
,
0100
0000
0000
0000
,
1000
0000
0000
0000
,
0000
0000
0000
0000
,
0001
0000
0000
0000
,
0000
0000
0000
0000
,
0100
0000
0000
0000
,
0000
0000
0000
0000
,
0010
0000
0000
0000
,
1000
0000
0000
0000
,
0001
0000
0000
0000
,
0010
0000
0000
0000
,
0100
0000
0000
0000
,
1000
0000
0000
0000
,
0001
0000
0000
0000
,
0000
0000
0000
0000
,
0100
0000
0000
0000
,
0000
0000
0000
0000
,
0010
0000
0000
0000
,
0000
0000
0000
0000
,
1000
0000
0000
0000
,
0000
0000
0000
0000
,
0001
0000
0000
0000
,
1000
0000
0000
0000
,
0010
0000
0000
0000
,
0000
0000
0000
0000
,
0100
0000
0000
0000
,
0001
0000
0000
0000
,
1000
0000
0000
0000
,
0100
0000
0000
0000
,
0010
0000
0000
0000
,
0000
0000
0000
0000
,
0001
0000
0000
0000
,
0000
0000
0000
0000
,
1000
0000
0000
0000
,
0000
0000
0000
0000
,
0010
0000
0000
0000
,
0000
0000
0000
0000
,
0100
0000
0000
0000
,
0000
0000
0000
0000
,
0001
0000
0000
0000
,
0000
0000
0000
0000
,
1000
0000
0000
0000
,
0000
0000
0000
0000
,
0100
0000
0000
0000
,
0010
0000
0000
0000
,
1001
0000
0000
0000
;

//--------------- dance-single - forcednature ----------------
#NOTEDATA:;
#STEPSTYPE:dance-single;
#DESCRIPTION:forcednature;
#CREDIT:forcednature;
#DIFFICULTY:Easy;
#METER:5;
#RADARVALUES:0,0,0,0,0;
#NOTES:
0000
0000
0000
0000
,
0000
0000
0000
0000
,
0000
0000
0000
0000
,
0000
0000
0000
0000
,
0000
0000
0000
0000
,
0000
0000
0000
0000
,
1000
0100
0000
1000
,
0001
0100
0000
0001
,
1000
0010
0000
1000
,
0001
0010
0100
0000
,
1000
0001
0100
0000
,
0010
1000
0001
0000
,
0010
0100
1000
0100
,
0010
0001
1000
0000
,
0010
0100
0001
0000
,
1000
0001
0010
0000
,
0100
1000
0001
0100
,
0010
1000
0001
0000
,
0010
0010
0100
1000
,
0010
0010
0100
0001
,
1000
1000
0100
0010
,
0001
1000
0010
0000
,
0100
0100
0001
1000
,
0100
0100
0010
0001
,
1000
1000
0010
0100
,
0110
0000
1000
0001
,
2002
0000
0000
3003
,
0220
0000
0000
0330
,
2002
0000
0000
3003
,
0220
0000
0000
0330
,
1000
0000
1000
0000
,
0001
0000
0001
0000
,
0100
0000
0010
0000
,
1000
0000
0001
0010
,
0100
0010
0001
1000
,
0000
1000
0010
0100
,
0001
1000
0100
0010
,
0000
0010
0001
1000
,
0010
0000
0110
0000
,
0100
0001
1000
0100
,
0110
0000
1000
0001
,
1000
0000
0001
0100
,
0001
0000
0010
0100
,
1000
0000
0010
0100
,
0001
0001
1000
1000
,
0100
0010
0001
0000
,
1001
0000
1000
0010
,
0100
0001
1000
0100
,
0010
0000
0100
1000
,
0001
0100
0010
1000
,
0001
0000
0010
0100
,
1000
0001
0100
0010
,
1000
0000
0001
0010
,
0001
0100
0001
1000
,
1001
0000
0001
0100
,
0001
1000
0010
1000
,
0001
0000
1000
0100
,
0010
0001
0010
0100
,
1000
0000
0010
0100
,
0001
0000
0010
0100
,
1000
1000
0001
0001
,
0100
0000
0010
0000
,
2002
0000
0000
0000
,
3003
0000
0000
0000
;

//--------------- dance-single - forcednature ----------------
#NOTEDATA:;
#STEPSTYPE:dance-single;
#DESCRIPTION:forcednature;
#CREDIT:forcednature;
#DIFFICULTY:Medium;
#METER:8;
#RADARVALUES:0,0,0,0,0;
#NOTES:
0000
0000
0000
0000
,
0000
0000
0000
0000
,
0000
0000
0000
0000
,
0000
0000
0000
0000
,
0000
0000
0000
0000
,
0000
0000
0000
0000
,
1000
0000
1100
0000
0010
0001
0100
0000
,
0001
0000
0101
0000
0010
1000
0100
0000
,
0010
0000
1001
0000
1000
0010
0100
0001
,
0020
0000
0030
0000
0001
0100
0010
1000
,
0001
0000
0000
0010
0000
0000
0100
0000
1000
0000
0000
0000
0001
0000
0000
0000
,
0100
0000
0000
0010
0000
0000
1000
0000
0001
0000
0000
0000
0010
0000
0000
0000
,
0100
0000
0000
1000
0000
0000
0010
0000
1000
0000
0000
0000
0100
0000
0000
0000
,
0001
0000
0000
0100
0000
0000
0010
0000
0100
0000
0000
0000
1000
0000
0000
0000
,
0001
0000
0000
0010
0000
0000
0001
0000
1000
0000
0000
0000
0010
0000
0100
0000
,
0010
0000
0000
1000
0000
0000
0001
0000
0010
0000
0000
0000
0100
0000
0000
0000
,
1000
0000
0000
0001
0000
0000
0100
0000
0010
0000
0000
0000
1000
0000
0000
0000
,
1100
0000
0011
0000
0001
1000
0001
0000
,
0100
0000
0000
0100
0000
0000
0010
0000
1000
0000
0001
0000
0010
0000
0000
0000
,
0100
0000
0000
0100
0000
0000
0010
0000
0001
0000
1000
0000
0010
0000
0000
0000
,
0100
0000
0000
0100
0000
0000
1000
0000
0100
0000
0001
0000
1000
0000
0000
0000
,
0020
0230
0302
2003
,
3100
0000
0000
0100
0000
0000
0001
0000
0100
0000
1000
0000
0010
0000
0000
0000
,
0100
0000
0000
0100
0000
0000
1000
0000
0100
0000
0001
0000
0010
0000
0000
0000
,
0100
0000
0000
0100
0000
0000
1000
0000
0001
0000
0100
0000
0010
0000
0000
0000
,
2002
3003
1000
0001
,
0202
0000
0000
0000
0000
0303
0000
2020
0000
0000
0000
0000
3030
0000
0000
0000
,
2200
0000
0000
0000
0000
3300
0000
0022
0000
0000
0000
0000
0033
0000
0000
0000
,
2020
0000
0000
0000
0000
3030
0000
0202
0000
0000
0000
0000
0303
0000
0000
0000
,
0022
0000
0000
0000
0000
0033
0000
2200
0000
0000
0000
0000
3300
0000
0000
0000
,
1000
0100
0010
0001
,
0100
0000
0010
0000
1000
0001
1000
0000
,
0100
0010
0001
1000
,
0010
0000
0100
0000
0001
1000
0001
0000
,
0100
1010
0100
0011
,
1000
0000
0100
0000
0010
0000
0000
0000
0001
0000
0000
0010
0000
0000
0001
0000
,
0100
0000
0010
0000
1000
0001
1000
0000
,
0100
0010
0001
0100
,
0010
0000
1000
0100
1000
0000
0001
0100
,
0001
0010
0110
0100
,
1001
0000
1000
0010
1000
0000
0001
0010
,
0001
0000
1000
0100
1000
0000
0001
0100
,
0001
0000
0010
0100
1000
0000
0001
0000
,
0100
0000
0010
0100
0001
0000
1000
0000
,
0100
0010
0100
0000
1000
0001
0000
0001
,
0000
0100
0000
0000
0010
0000
1000
0000
0000
0001
0000
0000
1001
0000
0000
0000
,
1000
0000
0000
0010
0000
0000
0100
0000
0001
0000
0000
0000
1000
0000
0100
0000
,
1000
0000
0000
0001
0000
0000
0100
0000
0010
0000
0000
0000
1000
0000
0000
0000
,
0001
0000
0000
0010
0000
0000
0001
0000
1000
0000
0000
0000
0010
0000
0000
0000
,
0100
0000
0000
0001
0000
0000
1000
0000
0100
0000
0000
0000
0010
0000
0000
0000
,
0001
0000
0000
1000
0000
0000
0010
0000
0100
0000
0000
0000
0001
0000
0010
0000
,
0001
0000
0000
1000
0000
0000
0010
0000
0100
0000
0000
0000
0001
0000
0000
0000
,
1000
0000
0000
0100
0000
0000
1000
0000
0010
0000
0000
0000
0100
0000
0000
0000
,
0110
0000
1001
0000
0001
0010
0100
0000
,
1000
0000
0000
0010
0000
1000
0000
0010
0000
0000
0100
0000
0001
0000
0000
0000
,
0001
0000
0000
0010
0000
0001
0000
0010
0000
0000
0100
0000
1000
0000
0000
0000
,
1000
0000
0000
0010
0000
0100
0000
0001
0000
0000
1000
0000
0001
0000
0000
0000
,
0010
0000
0000
0000
0100
0000
0000
0000
1000
0000
0000
0001
0000
0000
1000
0000
,
1001
0000
0000
0000
0001
0000
0000
0000
0100
0000
0000
0010
0000
0000
1000
0000
,
0001
0000
0000
0010
0000
0000
0100
0000
1000
0000
0000
0001
0000
0000
0100
0000
,
0010
0000
0000
1000
0000
0000
0100
0000
0010
0000
0001
0000
0010
0000
0000
0000
,
0100
0000
0000
1000
0000
0000
0001
0000
0000
0000
0000
0000
0100
0000
0010
0000
,
2002
0000
0000
0000
,
3003
0000
0000
0000
;

//--------------- dance-single - forcednature ----------------
#NOTEDATA:;
#STEPSTYPE:dance-single;
#DESCRIPTION:forcednature;
#CREDIT:forcednature;
#DIFFICULTY:Hard;
#METER:13;
#RADARVALUES:0,0,0,0,0;
#NOTES:
0000
0000
0000
0000
,
0000
0000
0000
0000
,
0000
0000
0000
0000
,
0000
0000
0000
0000
,
0000
0000
0000
0000
,
0000
0000
0000
0000
,
0000
1000
0100
0000
0010
0000
0100
0000
1000
0000
0100
0010
0000
0010
0000
0001
,
0000
0100
0010
0000
0100
0000
0001
0000
0100
0000
0010
1000
0000
1000
0000
0010
,
0000
1000
0100
0000
1000
0000
0001
0000
0100
0000
0100
0000
0010
0000
0010
0000
,
2002
0000
0000
0000
3003
0000
0000
0000
1000
0001
1000
0001
2000
0000
0000
0000
,
3010
0000
0100
0010
0100
0000
0001
0000
0010
0000
0100
0000
0010
0000
0001
0000
,
1000
0000
0100
1000
0100
0000
0010
0000
0001
0000
0100
0000
0110
0000
0000
0000
,
0010
0000
1000
0010
1000
0000
0010
0000
0100
0000
0001
0000
0010
0000
0001
0000
,
1000
0000
0010
1000
0010
0000
0100
0000
0001
0000
0010
0000
0110
0000
0000
0000
,
0100
0000
1000
0100
1000
0000
0010
0000
0100
0000
0001
0000
0100
0000
1000
0000
,
0100
0000
0001
0100
0001
0000
0010
0000
0001
0000
1000
0000
1001
0000
0000
0000
,
1000
0000
0100
1000
0100
0000
0010
0000
0001
0000
0100
0000
0010
0000
1000
0000
,
1100
0000
0000
0000
0101
0000
0000
0000
0001
1000
0001
1000
0002
0000
0000
0000
,
0013
0100
0000
0010
0100
0000
1000
0000
0001
0000
0100
0000
1000
0000
0100
0000
,
0010
0100
0000
0010
0100
0000
0001
0000
1000
0000
0100
0000
0001
0000
0100
0000
,
0010
0100
0000
0010
0100
0000
1000
0000
0001
0000
0100
0000
1000
0000
0100
0000
,
0001
0000
0010
0001
0010
0000
0001
0100
0001
0000
0100
0010
1000
0000
0000
0000
,
0100
0010
0000
0001
0010
0000
0100
0000
1000
0000
0010
0000
0001
0000
0010
0000
,
0100
0010
0000
1000
0010
0000
0100
0000
0001
0000
0010
0000
1000
0000
0010
0000
,
0100
0010
0000
0001
0010
0000
0100
0000
1000
0000
1000
0000
0010
0000
0100
0000
,
1001
0000
0000
1000
0010
0000
0100
0010
0000
0100
0001
0000
1000
0001
1000
0001
,
2000
0000
0000
0000
0100
0000
0000
0020
0000
0000
3030
0000
0001
0000
0100
0000
,
1002
0000
0000
0000
0100
0000
0000
0020
0000
0000
0033
0000
0100
0000
1000
0000
,
2100
0000
0000
0000
0000
0000
0000
0000
0010
0000
0000
0000
0001
0000
0002
0000
3000
0000
0010
0000
0010
0000
0013
0000
0001
0000
0000
1000
0000
0000
0100
0000
,
0120
0000
0000
0000
0001
0000
0100
0200
0000
0000
0330
0000
1000
0000
0010
0000
,
1001
0000
0000
0000
0001
0100
0000
0010
0100
0000
0001
0100
0000
0010
0100
0000
,
0001
0000
1000
0000
0100
0010
0000
0001
0010
0000
0100
0010
0000
0001
1000
0000
,
0010
0000
0100
0000
0001
1000
0000
0100
1000
0000
0001
1000
0000
0010
1000
0000
,
0001
0000
0010
0000
0100
1000
0000
0001
1000
0000
0100
0010
0000
0001
0010
0000
,
1001
0000
1000
0000
0010
1000
0010
0000
0100
0000
0010
1000
0010
0000
0200
0000
,
0000
0000
0001
0000
0001
0000
0001
0000
0301
0000
0100
0010
0000
1000
0010
0000
,
0100
0000
0001
0000
0010
0001
0010
0000
0100
0000
0010
0001
1000
0000
0010
0000
,
0100
0000
0010
0000
0100
0001
0100
0000
0002
0000
0023
0000
0230
0000
2300
0000
,
3010
0000
0000
0100
0001
0000
0010
0000
0011
0000
0000
0100
1000
0000
0010
0000
,
1010
0000
0000
1000
0100
0000
0000
0100
0010
0000
0001
0010
0001
0000
0100
0000
,
0110
0000
0000
0001
1000
0000
0100
1000
0100
0000
0000
1000
0001
0000
0010
0000
,
0001
0000
0000
0100
0001
0000
0100
0010
0100
0000
0010
0000
1000
0000
0100
0000
,
1000
0000
0001
0000
0010
0001
0000
0001
0010
0000
0001
0000
0100
0000
0010
0000
,
1000
0000
0100
0000
1000
0010
0000
0010
1000
0000
0001
0000
0100
0000
0010
0000
,
1000
0000
0001
1000
0001
0000
0010
0001
0010
0000
0001
1000
0001
0000
0100
0000
,
0010
1000
0000
0010
0100
0000
0001
0000
1000
0001
1000
0001
2000
0000
0000
0000
,
3010
0000
0100
0010
0100
0000
0001
0000
0011
0000
1000
0000
0100
0000
1000
0000
,
0001
0000
0100
0001
0100
0000
0010
0000
1010
0000
0001
0000
0100
0000
0000
0000
,
0010
0000
1000
0010
1000
0000
0001
0000
0011
0000
1000
0000
0100
0000
0010
0000
,
0100
0000
1000
0001
1000
0000
0001
0000
0101
0000
1000
0000
0010
0000
0000
0000
,
0100
0000
0001
0100
0010
0000
1000
0000
1100
0000
0001
0000
0001
0000
0010
0000
,
0001
0000
0100
0001
1000
0000
0010
0000
0110
0000
0001
0000
1001
0000
0000
0000
,
1000
0000
0100
1000
0001
0000
0010
0000
0100
0000
0010
0000
0011
0000
1000
0000
,
1010
0000
0000
0000
0101
0000
0000
0000
0001
1000
0001
1000
0002
0000
0000
0000
,
0013
0000
0100
1000
0000
1010
0000
0110
0000
0001
0100
0000
0001
0000
0010
0000
,
0001
0000
1000
0100
0000
1100
0000
1010
0000
0010
0100
0000
0001
0000
0010
0000
,
0001
0000
0100
0010
0000
0110
0000
0101
0000
0001
0010
0000
0001
0000
1000
0000
,
0100
0000
0010
0100
0010
0000
0001
0010
0001
0000
0100
0010
0000
0010
1000
0000
,
1001
0000
0000
0000
0001
0000
0100
0000
1000
0000
0100
0001
0000
0001
0000
0010
,
0001
0000
0010
0100
0010
0000
0100
0000
1000
0000
0010
0100
0000
0100
0001
0000
,
0010
0000
0001
0010
0001
0000
0100
0000
0110
0000
0110
0000
0010
0000
0100
0000
,
0001
1000
0000
0100
1000
0000
0010
1000
0000
0100
1000
0000
0010
0100
0010
0100
,
0002
0000
0000
0000
,
0003
0000
0000
0000
;

//--------------- dance-double - forcednature ----------------
#NOTEDATA:;
#STEPSTYPE:dance-double;
#DESCRIPTION:forcednature;
#CREDIT:forcednature;
#DIFFICULTY:Easy;
#METER:5;
#RADARVALUES:0,0,0,0,0;
#NOTES:
00000000
00000000
00000000
00000000
,
00000000
00000000
00000000
00000000
,
00000000
00000000
00000000
00000000
,
00000000
00000000
00000000
00000000
,
00000000
00000000
00000000
00000000
,
00000000
00000000
00000000
00000000
,
00001000
00010000
00000000
00010000
,
00000100
00001000
00000000
00001000
,
00000010
00000100
00000000
00000100
,
00000001
00000010
00000001
00000000
,
00001000
00000100
00001000
00000000
,
00000100
00010000
00001000
00000000
,
00010000
00001000
00010000
00001000
,
00100000
00010000
00100000
00000000
,
01000000
10000000
01000000
00000000
,
10000000
00100000
10000000
00000000
,
00010000
01000000
00010000
01000000
,
00001000
00010000
00001000
00000000
,
00010000
00010000
00000100
00000000
,
00001000
00001000
00000100
00000000
,
00010000
00010000
00000100
00000000
,
00001000
00000000
00000010
00000000
,
00010000
00010000
00001000
00000000
,
00100000
00100000
00001000
00000000
,
00010000
00010000
00001000
00000000
,
00011000
00000000
01000000
00010000
,
00200000
00000000
00000000
00300000
,
02000000
00000000
00000000
03000000
,
00020000
00000000
00000000
00030000
,
00002000
00000000
00000000
00003000
,
00011000
00000000
00010000
00000000
,
00001000
00000000
00010000
00000000
,
00000100
00000000
00001000
00000000
,
00000100
00000000
00000010
00000001
,
00000010
00000000
00000001
00000100
,
00000000
00000100
00000001
00000000
,
00001000
00000000
00000100
00010000
,
00000000
00010000
00001000
00000000
,
00011000
00000000
00100000
00000000
,
00011000
00000000
00001000
00010000
,
00011000
00000000
00000010
00001000
,
00000010
00000000
00000100
00000010
,
00000100
00000000
00000001
00000100
,
00000010
00000000
00001000
00000100
,
00010000
00010000
00001000
00001000
,
00100000
00001000
00010000
00000000
,
00011000
00000000
01000000
00010000
,
01000000
00100000
10000000
01000000
,
00100000
00000000
01000000
00100000
,
00001000
00010000
00001000
00010000
,
00000100
00000000
00001000
00000010
,
00001000
00000001
00000010
00000100
,
00000010
00000000
00000001
00000100
,
00000001
00001000
00000100
00000000
,
00001001
00000000
00001000
00000100
,
00010000
00001000
00010000
00001000
,
00100000
00000000
00010000
01000000
,
00100000
10000000
01000000
10000000
,
00010000
00000000
00100000
00010000
,
00100000
00000000
00001000
00010000
,
00001000
00001000
00010000
00010000
,
00000100
00000000
00001000
00000000
,
00002002
00000000
00000000
00000000
,
00003003
00000000
00000000
00000000
;

//--------------- dance-double - forcednature ----------------
#NOTEDATA:;
#STEPSTYPE:dance-double;
#DESCRIPTION:forcednature;
#CREDIT:forcednature;
#DIFFICULTY:Medium;
#METER:8;
#RADARVALUES:0,0,0,0,0;
#NOTES:
00000000
00000000
00000000
00000000
,
00000000
00000000
00000000
00000000
,
00000000
00000000
00000000
00000000
,
00000000
00000000
00000000
00000000
,
00000000
00000000
00000000
00000000
,
00000000
00000000
00000000
00000000
,
00001000
00000000
00010000
00000000
00001000
00100000
00010000
00000000
,
01000000
00000000
00010000
00000000
01000000
00100000
10000000
00000000
,
01000000
00000000
10000000
00000000
01000000
00100000
00010000
00100000
,
00020000
00000000
00030000
00000000
01000000
00001000
00010000
00000000
,
00000100
00000000
00000000
00000100
00000000
00000000
00001000
00000000
00000001
00000000
00000000
00000000
00000100
00000000
00000000
00000000
,
00000010
00000000
00000000
00001000
00000000
00000000
00000100
00000000
00001000
00000000
00000000
00000000
00000100
00000000
00000000
00000000
,
00010000
00000000
00000000
00010000
00000000
00000000
00001000
00000000
00100000
00000000
00000000
00000000
00010000
00000000
00000000
00000000
,
01000000
00000000
00000000
00100000
00000000
00000000
10000000
00000000
00100000
00000000
00000000
00000000
01000000
00000000
00000000
00000000
,
00010000
00000000
00000000
00010000
00000000
00000000
00100000
00000000
00001000
00000000
00000000
00000000
00010000
00000000
00001000
00000000
,
00010000
00000000
00000000
00000100
00000000
00000000
00001000
00000000
00000100
00000000
00000000
00000000
00000010
00000000
00000000
00000000
,
00000001
00000000
00000000
00000001
00000000
00000000
00000100
00000000
00000010
00000000
00000000
00000000
00001000
00000000
00000000
00000000
,
00001100
00000000
00010000
00000000
00001000
00010000
00001000
00000000
,
01000000
00000000
00000000
01000000
00000000
00000000
00010000
00000000
10000000
00000000
00000000
00000000
00100000
00000000
00000000
00000000
,
01000000
00000000
00000000
01000000
00000000
00000000
00010000
00000000
00100000
00000000
00000000
00000000
00001000
00000000
00000000
00000000
,
00010000
00000000
00000000
00010000
00000000
00000000
00000100
00000000
00001000
00000000
00000000
00000000
00000010
00000000
00000000
00000000
,
00000200
00000302
00000023
00000032
,
00000103
00000000
00000000
00000100
00000000
00000000
00000010
00000000
00001000
00000000
00000000
00000000
00000100
00000000
00000000
00000000
,
00010000
00000000
00000000
00010000
00000000
00000000
00001000
00000000
00100000
00000000
00000000
00000000
00010000
00000000
00000000
00000000
,
01000000
00000000
00000000
01000000
00000000
00000000
00100000
00000000
10000000
00000000
00000000
00000000
01000000
00000000
00000000
00000000
,
20020000
30030000
00010000
00100000
,
00220000
00000000
00000000
00000000
00000000
00330000
00000000
00202000
00000000
00000000
00000000
00000000
00303000
00000000
00000000
00000000
,
00022000
00000000
00000000
00000000
00000000
00033000
00000000
00020200
00000000
00000000
00000000
00000000
00030300
00000000
00000000
00000000
,
00002200
00000000
00000000
00000000
00000000
00003300
00000000
00002020
00000000
00000000
00000000
00000000
00003030
00000000
00000000
00000000
,
00000220
00000000
00000000
00000000
00000000
00000330
00000000
00000202
00000000
00000000
00000000
00000000
00000303
00000000
00000000
00000000
,
00000001
00000010
00001000
00000010
,
00000001
00000000
00000100
00000000
00001000
00010000
00001000
00000000
,
00010000
00100000
10000000
00100000
,
00010000
00000000
00001000
00000000
00010000
00001000
00010000
00000000
,
01000000
10000000
00100000
10000000
,
01000000
00000000
00100000
00000000
00010000
00000000
00000000
00000000
00100000
00000000
00000000
00100000
00000000
00000000
00001000
00000000
,
00010000
00000000
00000100
00000000
00010000
00001000
00010000
00000000
,
00001000
00000010
00000001
00000010
,
00000110
00000000
00000000
00000100
00001000
00000000
00000000
00001000
,
00000010
00010000
00011000
00100000
,
00110000
00000000
00000000
00010000
01000000
00000000
00000000
01000000
,
00100000
00000000
00000000
00100000
10000000
00000000
01000000
10000000
,
01000000
00100000
00010000
01000000
,
00001000
00000000
00010000
00001000
00010000
00000000
00000100
00000000
,
00001000
00000000
00000010
00001000
00000010
00000000
00000100
00000000
,
00000000
00000001
00000000
00000000
00000001
00000000
00001000
00000000
00000000
00000001
00000000
00000000
00000010
00000000
00000000
00000000
,
00000110
00000000
00000000
00000100
00000000
00000000
00001000
00000000
00000100
00000000
00000000
00000000
00010000
00000000
00000000
00000000
,
00001000
00000000
00000000
00010000
00000000
00000000
00001000
00000000
00100000
00000000
00000000
00000000
00010000
00000000
00000000
00000000
,
01000000
00000000
00000000
01000000
00000000
00000000
00100000
00000000
10000000
00000000
00000000
00000000
01000000
00000000
00000000
00000000
,
00100000
00000000
00000000
00010000
00000000
00000000
00100000
00000000
00001000
00000000
00000000
00000000
00010000
00000000
00000000
00000000
,
00000100
00000000
00000000
00000100
00000000
00000000
00001000
00000000
00000010
00000000
00000000
00000000
00000100
00000000
00000001
00000000
,
00000100
00000000
00000000
00000010
00000000
00000000
00001000
00000000
00000010
00000000
00000000
00000000
00010000
00000000
00000000
00000000
,
00001000
00000000
00000000
00001000
00000000
00000000
00010000
00000000
00001000
00000000
00000000
00000000
00100000
00000000
00000000
00000000
,
00110000
00000000
10010000
00000000
10000000
00100000
10000000
00000000
,
00010000
00000000
00000000
01000000
00000000
01000000
00000000
00010000
00000000
00000000
00000000
00000000
00100000
00000000
00000000
00000000
,
00001000
00000000
00000000
00010000
00000000
00010000
00000000
00001000
00000000
00000000
00000000
00000000
00010000
00000000
00000000
00000000
,
00000100
00000000
00000000
00001000
00000000
00001000
00000000
00000100
00000000
00000000
00000000
00000000
00000010
00000000
00000000
00000000
,
00000001
00000000
00000000
00000000
00000100
00000000
00000000
00000000
00001000
00000000
00000000
00001000
00000000
00000000
00010000
00000000
,
00001000
00000000
00000000
00000000
00010000
00000000
00000000
00000000
00001000
00000000
00000000
00100000
00000000
00000000
00010000
00000000
,
00100000
00000000
00000000
01000000
00000000
00000000
00100000
00000000
01000000
00000000
00000000
10000000
00000000
00000000
01000000
00000000
,
10000000
00000000
00000000
00010000
00000000
00000000
10000000
00000000
00100000
00000000
00000000
00000000
01000000
00000000
00000000
00000000
,
00010000
00000000
00000000
00100000
00000000
00000000
00001000
00000000
00000000
00000000
00000000
00000000
00010000
00000000
00000000
00000000
,
00022000
00000000
00000000
00000000
,
00033000
00000000
00000000
00000000
;

//--------------- dance-double - forcednature ----------------
#NOTEDATA:;
#STEPSTYPE:dance-double;
#DESCRIPTION:forcednature;
#CREDIT:forcednature;
#DIFFICULTY:Hard;
#METER:13;
#RADARVALUES:0,0,0,0,0;
#NOTES:
00000000
00000000
00000000
00000000
,
00000000
00000000
00000000
00000000
,
00000000
00000000
00000000
00000000
,
00000000
00000000
00000000
00000000
,
00000000
00000000
00000000
00000000
,
00000000
00000000
00000000
00000000
,
00000000
00001000
00010000
00000000
00000100
00000000
00010000
00000000
00001000
00000000
00100000
00010000
00000000
00100000
00000000
00001000
,
00000000
00010000
00001000
00000000
01000000
00000000
00001000
00000000
00010000
00000000
00000010
00001000
00000000
00000010
00000000
00010000
,
00000000
00001000
00010000
00000000
00000100
00000000
00001000
00000000
00000010
00000000
00000010
00000000
00000100
00000000
00000010
00000000
,
00002002
00000000
00000000
00000000
00003003
00000000
00000000
00000000
00001000
00000001
00001000
00000001
00002000
00000000
00000000
00000000
,
00003010
00000000
00000100
00000010
00000100
00000000
00000001
00000000
00000010
00000000
00000001
00000000
00000010
00000000
00001000
00000000
,
00010000
00000000
00001000
00010000
00001000
00000000
01000000
00000000
00010000
00000000
00100000
00000000
01100000
00000000
00000000
00000000
,
01000000
00000000
10000000
01000000
10000000
00000000
00100000
00000000
01000000
00000000
00010000
00000000
00100000
00000000
01000000
00000000
,
00010000
00000000
00001000
00010000
00001000
00000000
00000010
00000000
00000100
00000000
00000010
00000000
00000110
00000000
00000000
00000000
,
00000001
00000000
00000010
00000001
00000010
00000000
00000100
00000000
00001000
00000000
00000010
00000000
00000001
00000000
00000010
00000000
,
00001000
00000000
00000100
00001000
00000100
00000000
00010000
00000000
00001000
00000000
00010000
00000000
00011000
00000000
00000000
00000000
,
01000000
00000000
00010000
01000000
00010000
00000000
00100000
00000000
10000000
00000000
00100000
00000000
00010000
00000000
01000000
00000000
,
01010000
00000000
00000000
00000000
00101000
00000000
00000000
00000000
00010000
00001000
00010000
00001000
00020000
00000000
00000000
00000000
,
00031000
00000010
00000000
00001000
00000010
00000000
00000001
00000000
00000100
00000000
00000001
00000000
00001000
00000000
00000010
00000000
,
00010000
00001000
00000000
00010000
00001000
00000000
01000000
00000000
00010000
00000000
00100000
00000000
10000000
00000000
00100000
00000000
,
00010000
00100000
00000000
00010000
00100000
00000000
00001000
00000000
00010000
00000000
00000010
00000000
00001000
00000000
00000010
00000000
,
00000100
00000000
00000001
00000100
00000001
00000000
00000010
00000001
00000010
00000000
00000001
00001000
00000001
00000000
00000000
00000000
,
00001000
00000100
00000000
00000010
00000100
00000000
00001000
00000000
00000010
00000000
00010000
00000000
00001000
00000000
00010000
00000000
,
00100000
01000000
00000000
00010000
01000000
00000000
00100000
00000000
10000000
00000000
01000000
00000000
10000000
00000000
00010000
00000000
,
00100000
01000000
00000000
00100000
00010000
00000000
01000000
00000000
00001000
00000000
00001000
00000000
00010000
00000000
00001000
00000000
,
00011000
00000000
00000000
00001000
00010000
00000000
00010000
00001000
00000000
00001000
00010000
00000000
00000100
00001000
00000100
00001000
,
00000200
00000000
00000000
00000000
00010000
00000000
00000000
00000020
00000000
00000000
00000330
00000000
00000001
00000000
00000100
00000000
,
00002000
00000000
00000000
00000000
01000000
00000000
00000000
00200000
00000000
00000000
00303000
00000000
10000000
00000000
00010000
00000000
,
00200000
00000000
00000000
00000000
00000000
00000000
00000000
00000000
01000000
00000000
00000000
00000000
00001000
00000000
00302000
00000000
00000000
00000000
00100000
00000000
00100000
00000000
00100000
00000000
00013000
00000000
00000000
00000100
00000000
00000000
00001000
00000000
,
00000020
00000000
00000000
00000000
00000001
00000000
00001000
00002000
00000000
00000000
00003030
00000000
00010000
00000000
00001000
00000000
,
00011000
00000000
00000000
00000000
00100000
00010000
00000000
00100000
01000000
00000000
00100000
00010000
00000000
00100000
01000000
00000000
,
10000000
00000000
00010000
00000000
01000000
00001000
00000000
00010000
00001000
00000000
01000000
00001000
00000000
00010000
00001000
00000000
,
00010000
00000000
00000100
00000000
00001000
00000010
00000000
00000100
00000010
00000000
00001000
00000010
00000000
00000100
00000010
00000000
,
00010000
00000000
00001000
00000000
00100000
00010000
00000000
00100000
01000000
00000000
10000000
01000000
00000000
00100000
01000000
00000000
,
10010000
00000000
10000000
00000000
00100000
10000000
00100000
00000000
01000000
00000000
00100000
10000000
00100000
00000000
02000000
00000000
,
00000000
00000000
00010000
00000000
00010000
00000000
00010000
00000000
03010000
00000000
01000000
00100000
00000000
01000000
00001000
00000000
,
00010000
00000000
00000100
00000000
00010000
00001000
00010000
00000000
00000010
00000000
00010000
00001000
00010000
00000000
00000100
00000000
,
00001000
00000000
00000001
00000000
00000100
00000001
00000100
00000000
00000020
00000000
00000230
00000000
00002300
00000000
00023000
00000000
,
00031000
00000000
00000000
00001000
00100000
00000000
00000000
00000000
00110000
00000000
00000000
00010000
01000000
00000000
00000000
00000000
,
01100000
00000000
00000000
00100000
10000000
00000000
00000000
10000000
01000000
00000000
00100000
01000000
00100000
00000000
00001000
00000000
,
00011000
00000000
00000000
00010000
00001000
00000000
00010000
00000100
00010000
00000000
00000000
00000100
00001000
00000000
00000010
00000000
,
00001000
00000000
00000000
00000010
00000100
00000000
00000010
00000100
00000010
00000000
00001000
00000000
00000100
00000000
00001000
00000000
,
00000001
00000000
00000100
00000000
00001000
00000100
00000000
00000100
00001000
00000000
00010000
00000000
00010000
00000000
00001000
00000000
,
01000000
00000000
00010000
00000000
00100000
00010000
00000000
00010000
00100000
00000000
01000000
00000000
01000000
00000000
00100000
00000000
,
00001000
00000000
00010000
00001000
00010000
00000000
00001000
00010000
00001000
00000000
00010000
00001000
00010000
00000000
00000100
00000000
,
00001000
00000010
00000000
00000010
00000100
00000000
00000001
00000000
00001000
00000001
00001000
00000001
00002000
00000000
00000000
00000000
,
00003100
00000000
00000010
00000100
00000010
00000000
00000001
00000000
00000100
00000000
00001000
00000000
00010000
00000000
00001000
00000000
,
00010000
00000000
00100000
00010000
00100000
00000000
10000000
00000000
01000000
00000000
00100000
00000000
00010000
00000000
00000000
00000000
,
01000000
00000000
00010000
01000000
00010000
00000000
00100000
00000000
01000000
00000000
00010000
00000000
00001000
00000000
00010000
00000000
,
00001000
00000000
00000010
00001000
00000010
00000000
00000001
00000000
00000100
00000000
00000010
00000000
00001000
00000000
00000000
00000000
,
00000100
00000000
00001000
00000100
00010000
00000000
00001000
00000000
00100000
00000000
00001000
00000000
00001000
00000000
00010000
00000000
,
01000000
00000000
00100000
01000000
10000000
00000000
00010000
00000000
00100000
00000000
00001000
00000000
00011000
00000000
00000000
00000000
,
00000010
00000000
00001000
00000010
00000100
00000000
00000001
00000000
00000010
00000000
00001000
00000000
00001000
00000000
00000010
00000000
,
00000011
00000000
00000000
00000000
00000101
00000000
00000000
00000000
00001000
00000001
00001000
00000001
00002000
00000000
00000000
00000000
,
00003010
00000000
00000100
00001000
00000000
00001000
00000000
00010000
00000000
00001000
00010000
00000000
00001000
00000000
00100000
00000000
,
00010000
00000000
01000000
00100000
00000000
00100000
00000000
10000000
00000000
00100000
01000000
00000000
00010000
00000000
00100000
00000000
,
00001000
00000000
00010000
00000100
00000000
00000100
00000000
00001000
00000000
00000010
00001000
00000000
00000001
00000000
00000100
00000000
,
00000010
00000000
00001000
00000010
00001000
00000000
00000100
00001000
00000100
00000000
00010000
00001000
00000000
00001000
00010000
00000000
,
00011000
00000000
00000000
00000000
00010000
00000000
01000000
00000000
10000000
00000000
01000000
00010000
00000000
00010000
00000000
01000000
,
00100000
00000000
00010000
00100000
00010000
00000000
00100000
00000000
00001000
00000000
00010000
00001000
00000000
00001000
00010000
00000000
,
00000100
00000000
00001000
00000100
00001000
00000000
00000010
00000000
00000100
00000000
00000100
00000000
00000010
00000000
00000100
00000000
,
00000001
00001000
00000000
00000100
00001000
00000000
00000010
00001000
00000000
00000100
00001000
00000000
00000100
00010000
00000100
00010000
,
00002000
00000000
00000000
00000000
,
00003000
00000000
00000000
00000000
;
