#VERSION:0.83;
#TITLE:Shanghai Wu Long ~上海舞龍~;
#SUBTITLE:;
#ARTIST:Hommarju;
#TITLETRANSLIT:Shanghai Wu Long;
#SUBTITLETRANSLIT:;
#ARTISTTRANSLIT:;
#GENRE:;
#CREDIT:;
#MUSIC:Shanghai Wu Long.ogg;
#BANNER:Shanghai Wu Long.png;
#BACKGROUND:Shanghai Wu Long-bg.png;
#CDTITLE:./CDTitles/SDVX III GRAVITY WARS.png;
#SAMPLESTART:26.660;
#SAMPLELENGTH:15.000;
#SELECTABLE:YES;
#OFFSET:-0.001;
#BPMS:0.000=171.000;
#STOPS:40.000=1.053
,237.000=1.053
;
#TIMESIGNATURES:0.000=4=4,
40.000=1=4,
41.000=4=4,
237.000=1=4,
238.000=4=4
;
#BGCHANGES:0.000=../BGAs/10tr.mp4=1.000=0=0=0=StretchNoLoop====,
99999.000=-nosongbg-=1.000=0=0=0=StretchNoLoop====
;
#FGCHANGES:;

//--------------- dance-single - forcednature ----------------
#NOTEDATA:;
#STEPSTYPE:dance-single;
#DESCRIPTION:forcednature;
#DIFFICULTY:Beginner;
#METER:4;
#RADARVALUES:0,0,0,0,0;
#CREDIT:forcednature;
#NOTES:
0000
0000
0000
0000
,
0000
0000
0000
0000
,
0000
0000
0000
0000
,
0000
0000
0000
0000
,
0000
0000
0000
0000
,
0000
0000
0000
0000
,
1000
0000
0000
0000
,
0001
0000
0001
0000
,
0100
0000
0000
0000
,
0010
0000
0000
0000
,
1001
1000
1000
0001
,
0000
0010
0000
0000
,
0000
0001
0000
0000
,
0000
0100
0000
0100
,
0000
0001
0000
0100
,
0000
0010
0000
0000
,
0000
1000
0000
0000
,
0000
0100
0000
0100
,
0000
1000
1000
0001
,
0000
1001
0000
1000
,
0000
0010
0000
1000
,
0000
0100
0000
1000
,
0000
0001
0000
0000
,
0000
1001
0000
0000
,
1000
0001
0000
0000
,
1000
0001
0000
0001
,
0000
0200
0000
0300
,
0000
0010
0000
0010
,
0000
1000
0000
0010
,
0000
0100
0000
0100
,
0000
0001
0000
0100
,
0000
1001
0000
0000
,
0001
1000
0000
0000
,
0001
1000
0000
1000
,
0000
0010
0000
0000
,
0000
1001
0000
0000
,
0000
0001
0000
0010
,
0000
0100
0000
0000
,
0000
0010
0000
0001
,
0000
1000
0000
0000
,
0000
0001
0000
0100
,
0000
0010
0000
0000
,
0000
0100
0000
0001
,
0000
2000
0000
0000
,
0000
0000
0000
3000
,
0000
0002
0000
0000
,
0000
0000
0000
0003
,
0000
0200
0000
0000
,
0000
0000
0000
0300
,
0000
0020
0000
0000
,
0000
0000
0000
0030
,
0000
1000
0000
1000
,
0000
0100
0000
0100
,
0000
0010
0000
0010
,
0000
0001
0000
0001
,
0000
0100
0000
0100
,
0000
0010
0000
0010
,
0000
1000
0000
1000
,
0000
0001
0000
0001
,
0000
1001
1000
1000
,
0001
0000
1001
0000
,
0000
0000
0110
0000
,
0000
0000
1001
0000
,
0000
0000
0001
1000
,
0001
0000
1001
0000
,
0000
0000
0110
0000
,
0000
0000
1001
0000
,
0000
0000
1000
0001
,
1000
0000
0010
0000
,
0100
0000
0001
0000
,
0100
0000
0010
0000
,
1000
0000
0001
0001
,
1000
0000
0100
0000
,
0000
1000
0001
0000
,
0000
1000
0001
0000
,
0001
0000
0100
0000
,
0001
0000
1001
0000
,
0000
0000
1000
1000
,
0001
0000
1001
0000
;

//--------------- dance-single - forcednature ----------------
#NOTEDATA:;
#STEPSTYPE:dance-single;
#DESCRIPTION:forcednature;
#DIFFICULTY:Easy;
#METER:9;
#RADARVALUES:0,0,0,0,0;
#CREDIT:forcednature;
#NOTES:
0000
0000
0000
0000
,
0000
0000
0000
0000
,
0000
0000
0000
0000
,
0000
0000
0000
0000
,
0000
0000
0000
0000
,
0000
0000
0000
0000
,
1000
1000
0001
0001
,
0100
0010
0100
0000
0001
0000
1000
0000
,
0100
0100
0010
0010
,
0001
0000
1000
0001
1000
0000
0010
0000
,
0110
0000
0100
0001
0100
0000
0010
0000
,
1000
1001
0001
0010
,
0100
0110
1000
0010
,
0100
0101
1000
1100
,
0001
0000
0010
0100
0010
0000
0001
0000
,
1000
1010
0001
0100
,
0001
0011
1000
0100
,
1000
0000
1010
0000
0010
0000
0100
0010
,
0100
0000
0001
1000
0001
0000
0010
0000
,
0100
0000
1100
0000
0001
0000
1000
0001
,
1000
0000
0010
0000
0100
0000
0001
0100
,
0001
0000
0010
0000
0100
0000
1000
0001
,
1000
0010
0100
0001
,
0010
0000
1001
0000
1000
0000
0010
1000
,
0010
0000
1001
0000
0001
0000
0010
0001
,
0010
0000
0100
0000
0010
0100
0010
0000
,
0001
2002
0000
0000
,
3003
0000
1000
0000
0010
0000
0100
0010
,
0100
0010
0001
0010
,
1000
0000
0001
0000
0010
0000
0100
0010
,
0100
0010
1000
0010
,
0001
0000
1000
0000
0100
0000
1000
0001
,
0000
0000
0001
0000
0100
0000
0001
0001
,
0000
1000
0010
0100
,
0001
0000
0010
0100
0010
0000
0100
0000
,
1000
1001
0000
0100
,
0000
1000
1000
1000
,
0000
0000
0001
0000
0010
0100
0010
0000
,
0001
0100
0010
1000
,
0000
1000
0000
0100
,
0000
0001
0001
0001
,
0000
0000
0010
0000
1000
0000
0100
0010
,
0100
0010
0001
0100
,
0000
1001
1000
0010
,
0010
2000
3002
0013
,
0001
0200
0320
1030
,
1000
0020
0230
0302
,
0003
0020
0032
0013
,
0010
0200
2300
3001
,
0100
0002
2003
3100
,
0100
0000
0010
0100
0010
0000
0200
0000
,
0300
0000
1001
0000
1000
0000
0001
1000
,
0001
0000
0100
0000
0001
0000
0100
0001
,
0100
0000
0010
0000
1000
0000
0010
1000
,
0010
0000
1000
0000
0001
0000
1000
0001
,
1000
0000
0100
0000
0100
0000
0010
0100
,
0010
0000
0001
0000
0001
0000
1000
0001
,
1000
0000
0010
0000
0010
0000
0100
0010
,
0100
0000
0001
0000
0001
0000
1000
0001
,
1000
0000
1001
0000
0001
0100
0001
0000
,
1000
0010
0110
0001
,
0010
0100
0110
1000
,
0010
0100
0110
0001
,
0010
0000
0100
0000
1000
0100
1000
0000
,
0001
0100
0001
0000
0110
0000
0010
0000
,
1000
0100
0110
0010
,
0001
0100
0110
0010
,
1000
0100
2002
0000
,
0000
3003
1000
0001
,
0100
0001
0100
0000
0001
0000
1000
0000
,
0100
1000
0100
0000
0010
0000
0001
0000
,
0100
0001
0100
0000
0010
0000
1000
0000
,
0100
0010
0110
1000
,
0010
1000
0010
0000
0100
0000
0001
0000
,
0010
0001
0010
0000
0100
0000
1000
0000
,
0001
1000
0001
0000
0100
0000
0010
0000
,
1000
1000
0001
0000
1001
0000
0000
0000
,
1000
0000
0100
0000
0010
0100
0010
0000
,
0001
0100
2002
0000
,
0000
0000
0000
0000
,
0000
0000
3003
0000
;

//--------------- dance-single - forcednature ----------------
#NOTEDATA:;
#STEPSTYPE:dance-single;
#DESCRIPTION:forcednature;
#DIFFICULTY:Medium;
#METER:12;
#RADARVALUES:0,0,0,0,0;
#CREDIT:forcednature;
#NOTES:
0000
0000
0000
0000
,
0000
0000
0000
0000
,
0000
0000
0000
0000
,
0000
0000
0000
0000
,
0000
0000
0000
0000
,
0000
0000
0000
0000
,
1000
0100
1000
0000
0001
0100
0001
0000
,
0010
0100
1000
0100
0010
0000
1001
0000
,
0001
0010
0001
0000
1000
0010
1000
0000
,
0001
0010
0100
1000
0010
0100
0001
0000
,
1001
0000
1000
1000
1000
0010
0100
0001
,
0010
0000
0100
1000
0100
0010
0001
0000
,
0110
0000
0010
0001
0010
0100
1000
0000
,
0110
0000
0010
0001
1000
0010
0100
0001
,
0010
0000
0100
1000
0001
1000
0100
0000
,
1001
0000
1000
0010
0100
0001
0010
0000
,
0110
0000
0100
1000
0010
0100
0001
0000
,
0110
0000
1000
0010
0100
0001
0010
0100
,
0010
0000
0001
0001
0001
0100
0010
1000
,
0100
0000
0010
0001
0100
0001
0010
0100
,
1000
0001
1000
0010
0100
0010
1000
0001
,
0010
0100
1000
0001
0100
0001
1000
0010
,
0100
0001
0010
0100
0010
0001
0100
0000
,
1001
0000
1000
0010
0001
0010
1000
1000
,
0002
0000
1003
0100
0001
0100
1000
1000
,
0002
0000
0013
0010
0100
0010
0001
1000
,
0010
0000
0100
0100
0100
0001
0010
0100
,
1000
0000
0001
0010
0001
0010
0100
0010
,
0001
1000
0010
0001
0010
1000
0001
0100
,
0010
0000
1000
0100
1000
0100
0010
0100
,
1000
0001
0100
1000
0100
0001
0100
0010
,
1000
0000
0001
0010
0100
0010
0001
0100
,
2000
0000
3100
0100
0100
0001
0010
0100
,
2000
0000
3010
0010
0100
0010
1000
0001
,
0100
0000
0010
0010
0010
1000
0001
0010
,
0100
0210
1000
0010
,
1300
0000
0100
0010
0001
0100
0010
1000
,
0100
0020
0001
0100
,
0031
0000
0100
1000
0001
0100
0001
1000
,
0100
2000
0010
0001
,
3010
0000
1000
0001
0100
0001
0010
0100
,
1000
0002
0010
1000
,
0013
0000
0001
1000
0100
1000
0001
0100
,
0010
0000
0000
0000
1000
0000
0001
0000
1000
0000
0000
0000
0010
0000
0000
0100
,
0000
0001
0200
0000
0320
0000
1030
0001
,
1000
0000
0002
0000
0013
0200
0000
1300
,
0002
0000
0103
0010
1000
0100
0010
0001
,
0100
0000
0000
0000
0010
0000
1000
0000
0010
0000
0000
0000
1000
0000
0000
1000
,
0000
0001
0020
0000
0230
0000
1300
0001
,
1000
0000
0002
0000
0103
0020
0000
1030
,
0002
0000
0013
0010
0100
0010
0100
0000
,
1001
0000
1000
0010
1000
0010
0100
0001
,
0100
0001
0010
0100
0010
0100
1000
0001
,
1000
0001
0100
1000
0100
1000
0100
0001
,
0100
0001
0010
1000
0010
1000
0010
0001
,
0010
0001
1000
0010
0100
0001
1000
0100
,
0010
0001
0100
0010
1000
0100
0010
0001
,
0100
0010
1000
0100
1000
0001
0100
0001
,
1000
0010
0100
0001
0010
0100
1000
0010
,
0100
0000
0001
0000
0020
0030
0000
0000
0001
0000
0001
0000
0001
0000
0100
0000
,
0010
1000
0100
0000
0010
0001
0100
0001
,
0010
0100
1000
0010
1000
0100
1000
0010
,
1000
0100
0010
0001
0100
0001
0010
0001
,
0100
0010
1000
0100
0010
0000
0110
0000
,
1001
0000
0110
0000
0100
1000
0010
1000
,
0100
0010
0001
0100
0001
0010
0001
0100
,
0001
0010
0100
1000
0010
1000
0100
1000
,
0010
0100
0001
0010
0200
0000
1000
0000
,
0310
0001
0010
0000
0100
1000
0001
0100
,
0010
1000
1000
0010
0100
0001
0010
0100
,
1000
0001
0001
1000
0010
0100
0001
0100
,
0010
1000
0001
0010
0100
1000
0100
0001
,
0100
0000
0110
0000
0010
0001
0100
0001
,
0010
0010
0200
0000
1300
0010
0001
0010
,
1000
1000
0002
0000
0013
0100
1000
0100
,
0010
0001
1000
0010
0100
0100
0001
0100
,
0001
1000
1001
0000
0001
0001
0010
0001
,
0000
0100
0001
0000
1000
1000
1000
0010
,
0100
0001
0010
0000
2002
0000
0000
0000
,
0000
0000
0000
0000
,
0000
0000
3003
0000
;

//--------------- dance-single - forcednature ----------------
#NOTEDATA:;
#STEPSTYPE:dance-single;
#DESCRIPTION:forcednature;
#DIFFICULTY:Hard;
#METER:15;
#RADARVALUES:0,0,0,0,0;
#CREDIT:forcednature;
#NOTES:
0000
0000
0000
0000
,
0000
0000
0000
0000
,
0000
0000
0000
0000
,
0000
0000
0000
0000
,
0000
0000
0000
0000
,
0000
0000
0000
0000
,
0001
1000
0100
0000
1000
0001
0100
0000
,
0010
1000
0100
0010
0001
0000
0110
0000
,
0100
1000
0010
0000
0100
0001
0010
0000
,
0001
0000
0100
0000
0010
0000
1000
0000
0100
0000
0010
0100
0010
0000
0000
0000
,
1001
0000
0000
0000
1000
0100
1000
0100
1000
0000
0010
0000
0100
0000
0001
0000
,
0010
0000
0000
0000
0100
0000
1000
0100
0010
0000
0001
0000
0010
0000
0000
0000
,
0100
0000
1000
0000
0001
0000
0100
0010
1000
0000
0001
0000
0010
0000
0000
0000
,
0100
0000
1000
0000
0010
0000
0100
0010
0100
0000
0001
0000
1000
0000
0100
1000
,
0001
0000
0100
0000
0010
0000
1000
0010
0100
0000
0001
0000
0010
0000
0000
0000
,
1001
0000
0000
0000
1000
0000
0001
0010
0100
0000
0010
0000
0001
0000
0000
0000
,
1000
0000
0010
0000
0100
0000
0001
1000
0100
0000
1000
0000
0010
0000
0000
0000
,
0100
0000
0001
0000
0010
0000
0100
0010
0100
0000
1000
0000
0001
0000
0100
0001
,
1000
0000
0100
0000
0010
0001
0010
0001
0010
0000
0100
0000
1000
0000
0001
0000
,
0100
0000
0000
0000
0010
0000
0100
0010
1000
0000
0010
0000
0100
0000
0001
0100
,
0001
0000
0010
0000
0100
0000
0010
0100
1000
0000
0010
0000
1000
0000
0100
0010
,
0001
0000
1000
0000
0010
0100
0000
0100
0010
0000
1000
0000
0001
0000
0010
0001
,
1000
0001
0010
0000
0001
0000
0010
0100
1000
0000
0001
0000
0200
0000
0000
0000
,
1300
0000
0000
0000
0100
0000
0001
0100
0001
0000
0010
0000
0001
0000
0010
0100
,
2000
0000
0000
0000
3010
0000
1000
0010
1000
0000
0100
0000
0010
0000
0001
0100
,
0020
0000
0000
0000
1030
0001
1000
0001
1000
0000
0100
1000
0001
0000
0100
0001
,
1000
0000
0010
0000
0100
0001
0100
0001
0100
0000
0010
0000
1000
0000
0001
0000
,
0010
0000
0000
0000
0100
0000
0010
0000
0100
0000
1000
0100
0000
0100
0000
0010
,
0001
0000
1000
0000
0010
0100
0010
0100
0010
0000
1000
0000
0001
0000
0100
0000
,
0110
0000
0000
0000
0010
0000
1000
0000
0001
0000
0010
0001
0000
0001
0000
1000
,
0100
0000
1000
0000
0100
0010
0100
0010
0100
0000
0010
0000
0001
0000
1000
0000
,
1001
0000
0000
0000
0001
0000
0100
0000
0010
0000
1000
0001
0000
1000
0100
1000
,
0002
0000
0000
0000
0103
0010
0100
0010
0100
0000
0010
0000
1000
0001
1000
0001
,
0020
0000
0000
0000
0130
0000
0100
0000
1000
0000
0010
0100
0000
0100
0000
0001
,
0010
0000
0010
0000
0001
1000
0001
1000
0001
0000
0100
0000
0010
0000
1000
0000
,
0100
0210
1000
0010
,
0301
0000
0100
0000
1000
0000
0100
0010
0100
0000
0010
0001
1000
0000
0010
1000
,
0001
0000
0000
0000
0100
0000
0100
0000
0010
0000
1000
0010
1000
0000
0010
0100
,
0001
0000
0010
0000
0100
0000
0010
0000
0001
0000
0100
0001
1000
0000
0100
1000
,
0001
0020
0001
0100
,
1030
0000
0010
0000
0001
0000
0010
0000
0100
0000
1000
0001
0100
0000
0001
1000
,
0100
0000
0000
0000
0010
0100
0010
0000
0100
0000
1000
0000
0001
0000
1000
0000
,
0100
0000
0010
0000
0001
0000
0100
0010
1000
0000
0010
0100
0001
0000
0010
0001
,
1000
0000
0000
0000
2001
0000
0000
0000
0100
0000
0000
0000
3001
0000
0000
0001
,
0000
0000
0010
0000
0200
0000
0000
0000
1000
0000
1300
0000
0001
0000
1000
0001
,
0100
0010
0200
0001
0301
2000
0010
3010
,
0100
0000
0001
0000
1000
0000
0100
1000
0001
0000
0100
0001
1000
0000
0010
0100
,
0001
0000
1000
0000
0002
0000
0000
0000
0100
0000
0000
0000
1003
0000
0000
1000
,
0000
0000
0010
0000
0200
0000
0000
0000
0001
0000
0301
0000
1000
0000
0001
1000
,
0100
0010
0200
1000
1300
0002
0010
0013
,
0100
0000
1000
0000
0001
0100
0001
0100
0010
0000
1000
0010
0100
0000
0001
1000
,
0200
0000
0000
0000
0310
0000
0010
0000
0001
0000
0010
0001
0010
0000
0001
0100
,
0001
0000
0100
0000
0010
0000
0010
0000
1000
0000
0010
1000
0010
0000
1000
0100
,
1000
0000
0100
0000
0001
0000
0001
0000
0100
0000
1000
0100
1000
0000
0010
1000
,
0010
0000
0100
0000
1000
0000
1000
0000
0100
0000
0001
0100
0001
0000
0010
0001
,
0010
0000
0100
0000
1000
0100
1000
0000
0001
0100
0001
0000
1000
0100
1000
0000
,
0001
0100
0001
0000
1000
0010
1000
0000
0001
0010
0001
0000
1000
0010
1000
0000
,
0001
0010
0001
0000
1000
0001
1000
0001
1000
0000
0100
0000
1000
0001
1000
0001
,
1000
0000
0010
0000
0100
0010
0100
0010
0100
0000
0001
0000
0010
0100
0010
0100
,
0010
0000
0100
0000
2002
3003
0000
0000
1000
0100
1000
0100
1000
0000
0010
0000
,
0100
0000
0001
0000
0010
0000
0000
0000
0100
0010
0001
0000
0100
0010
1000
0000
,
0001
0000
0010
0000
0100
0000
1000
0000
0010
0100
0001
0000
0010
0100
1000
0000
,
0001
0000
0100
0000
0010
0000
1000
0000
0100
0010
0001
0000
0100
0010
1000
0000
,
0001
0000
0010
0000
0100
0000
1000
0000
0010
0000
0100
0000
0110
0000
0000
0010
,
1000
0000
0001
0000
0100
0000
0000
0000
0001
0010
0100
0000
1000
0010
0100
0000
,
0001
0000
1000
0000
0100
0000
0001
0000
0100
0010
0001
0000
0100
0010
1000
0000
,
0001
0000
0010
0000
1000
0000
0010
0000
0001
0100
0010
0000
1000
0100
0010
0000
,
0001
0000
0100
0000
1000
0000
0100
0000
0010
0100
0010
0100
0010
0000
1000
0000
,
0001
0000
0010
0100
1000
0000
0000
0000
0001
0100
0010
0100
0001
0000
1000
0000
,
0100
0000
0010
0100
1000
0000
0001
0000
0100
0010
0100
0001
0100
0000
0010
0000
,
1000
0000
0100
0010
0001
0000
1000
0000
0010
0100
0001
0100
0010
0000
1000
0000
,
0001
0000
0010
0100
1000
0100
0010
0000
0001
0000
1000
0000
0010
0100
0001
1000
,
0010
0000
0000
0000
1001
0000
0000
0000
1000
0001
0100
0001
1000
0000
0010
0000
,
0100
0000
0100
0001
0020
0000
0000
0000
0031
1000
0100
1000
0001
0000
0010
0000
,
0001
1000
0001
1000
0020
0000
0000
0000
0130
0001
0100
0001
1000
0000
0010
0000
,
0100
0010
0000
0010
1000
0000
0001
0000
1000
0100
1000
0100
0010
0001
0010
0001
,
1000
0000
1000
0000
0001
0000
0000
0000
0100
0000
0100
0000
0010
0000
0100
0001
,
0000
0001
0000
1000
0010
0000
0010
0000
0100
0001
0100
0001
1000
0000
0100
0000
,
0010
0001
0100
0000
2002
0000
0000
0000
,
0000
0000
0000
0000
,
0000
0000
3003
0000
;

//--------------- dance-single - forcednature ----------------
#NOTEDATA:;
#STEPSTYPE:dance-single;
#DESCRIPTION:forcednature;
#DIFFICULTY:Challenge;
#METER:18;
#RADARVALUES:0,0,0,0,0;
#OFFSET:-0.001;
#BPMS:0.000=171.000
,141.000=85.500
,172.500=171.000
;
#STOPS:40.000=1.053
,172.500=0.175
,205.000=1.053
;
#TIMESIGNATURES:0.000=4=4,
40.000=1=4,
41.000=4=4,
205.000=1=4,
206.000=4=4
;
#DISPLAYBPM:171.000;
#CREDIT:forcednature;
#NOTES:
0000
0000
0000
0000
,
0000
0000
0000
0000
,
0000
0000
0000
0000
,
0000
0000
0000
0000
,
0000
0000
0000
0000
,
0000
0000
0000
0000
,
1000
0100
1100
0000
0001
0100
0101
0000
,
1000
0100
1000
0001
0101
0000
0110
0000
,
1000
0010
1010
0000
0001
0010
0011
0000
,
1000
0000
0010
0000
0100
0000
0001
0000
0010
0000
0100
1000
0010
0000
0000
0000
,
1001
0000
0000
0000
0002
0203
2300
3200
0302
0003
2000
3000
0020
0030
0200
0300
,
1001
0000
0000
0000
1100
0000
0100
1000
0001
0000
0100
0000
0110
0000
0000
0000
,
1000
0000
0001
0000
0101
0000
0100
0001
1000
0000
0010
0000
0110
0000
0000
0000
,
0101
0000
0000
0000
0000
0000
1000
0000
0000
0000
0000
0000
0001
0000
0000
0000
0000
0000
0010
0000
0000
0100
0000
0000
1000
0000
0000
0000
0000
0000
0010
0000
0000
0000
0000
0000
1010
0000
0000
0000
0000
0000
1000
0000
0001
0000
0100
0000
,
0001
0000
0100
0000
0010
1000
0100
0010
0001
0000
0100
0000
0110
0000
0000
0000
,
1001
0000
1000
0000
0001
0000
0010
0001
0100
0000
0010
0000
0110
0000
0000
0000
,
1001
0000
1000
0000
0010
0000
0100
0001
0010
0000
0100
0000
1100
0000
0000
0000
,
1010
0000
0000
0000
0000
0000
0010
0000
0000
0000
0000
0000
0100
0000
0000
0000
0000
0000
0001
0000
0000
0010
0000
0000
0100
0000
0000
0000
0000
0000
1000
0000
0000
0000
0000
0000
0001
0000
0000
0000
0000
0000
0100
0000
0001
0000
1000
0000
,
0001
0000
0010
0000
0200
2300
3200
0302
0203
0300
2000
3000
0020
0030
0200
0300
,
1001
0000
0001
0000
0101
0000
0100
0010
1000
0000
0100
0000
0010
0000
0001
0010
,
1000
0000
0001
0000
0100
0000
1000
0100
0010
0000
0001
0000
0100
0000
1000
0100
,
0001
0000
0100
0000
0010
1000
0001
0100
0010
0000
1000
0000
0001
0000
0010
0001
,
0100
0000
0000
0010
0000
0000
1000
0000
0000
0000
0000
0000
1100
0000
0000
0000
0000
0000
0100
0000
0010
0000
0001
0000
0010
0000
0000
0000
0000
0000
0100
0000
0000
0000
0000
0000
1000
0000
0000
0000
0000
0000
0010
0000
0000
0100
0000
0000
,
0001
0000
0000
0000
1000
0100
1000
0100
0010
0001
0010
0001
1000
0100
0001
0100
,
2000
0000
0000
0000
3001
0100
0001
0100
0010
1000
0010
1000
0001
0100
1000
0100
,
0002
0000
0000
0000
0013
0100
0010
0100
0010
0000
0100
1000
0010
0000
0100
0001
,
0100
0010
1000
0010
0200
2300
3200
0302
0203
0300
0020
0030
2000
3000
0002
0003
,
1001
0000
0000
0000
1100
0000
1000
0000
0010
0000
0100
1000
0000
1000
0000
0100
,
0001
0000
0010
0000
0100
1000
0001
1000
0100
0000
0010
0000
0110
0000
0100
0000
,
1001
0000
0000
0000
0101
0000
0001
0000
0010
0000
0100
0001
0000
0001
0000
0100
,
1000
0000
0010
0000
0100
0001
1000
0001
0100
0000
0010
0000
0110
0000
0100
0000
,
1001
0000
0000
0000
1010
0000
0010
0000
1000
0000
0100
0001
0100
1000
0100
0000
,
0020
0000
0030
0000
0001
1000
0100
1000
0001
0000
0010
0000
0001
0100
0010
1000
,
0100
0000
0000
0000
0110
0000
0011
0000
0110
0000
0100
1000
0000
1100
0000
0100
,
0010
0000
0011
0000
0001
0100
0010
1000
0100
0000
0010
0000
0110
0000
0110
0000
,
1001
0000
0000
0000
0000
0000
0000
0000
1100
0000
0000
0000
0010
0000
1000
0010
1000
0000
0010
0000
0100
0000
0001
0000
0000
0000
0010
0000
0001
0000
0010
0001
,
0010
0000
0100
1000
0100
0000
0000
0000
0010
0000
0001
1000
0001
0000
0100
0000
0001
1000
0001
0000
0100
0000
0010
0000
1000
0000
0100
0000
0001
0000
0100
0000
,
1000
0000
0010
0100
0001
0000
0000
0000
1000
0000
0100
0000
1000
0000
0001
0010
0001
0000
0010
0000
0100
0000
1000
0000
0000
0000
0010
0000
1000
0000
0010
1000
,
0010
0000
0100
0001
0100
0000
0000
0000
0010
0000
1000
0001
1000
0000
0100
0000
1000
0001
1000
0000
0100
0000
0010
0000
0001
0000
0100
0000
1000
0000
0100
0000
,
0001
0000
0010
0100
1000
0000
0000
0000
1001
0000
0001
0000
0100
0000
0010
0100
0010
0000
1000
0000
0100
0000
0010
0000
0001
1000
0001
1000
0001
0000
1000
0001
,
1000
0000
0010
0000
0100
0000
0001
0000
0020
0000
0100
0000
0130
0000
2000
0000
0001
0000
3001
0000
0010
0000
0100
0000
1000
0100
1000
0100
1000
0000
0001
0100
,
0001
0000
0010
0100
1000
0000
0000
0000
0001
0000
1000
0000
0100
0000
0010
0100
0010
0000
0001
0000
0100
0000
0010
0000
1000
0001
1000
0001
1000
0000
0001
1000
,
0001
0000
0010
0000
0100
0000
1000
0000
0020
0000
0100
0000
0130
0000
0002
0000
1000
0000
1003
0000
0010
0000
0100
0000
0001
0010
0001
0010
0001
0000
0100
0010
,
1000
0000
0100
0010
0002
0003
0000
0000
1100
0000
0000
0000
1000
0000
0000
0000
0010
0000
0000
0000
0100
0000
0000
0000
0110
0000
0000
0000
0010
0000
0000
0000
,
1000
0001
1001
1000
0100
0010
0110
0100
,
1000
0001
0101
0100
0110
0010
1010
1000
,
1100
0001
0101
0100
1010
0010
1001
1000
,
0101
0000
0001
0000
1000
0100
1000
0100
0010
0001
0010
0001
1000
0010
1000
0010
,
0100
0001
0100
0001
1000
0100
1000
0001
0100
0001
1000
0010
1000
0001
0010
0001
,
0100
0010
1000
0001
0010
0100
0010
0100
1000
0001
1000
0001
0100
0010
0100
0010
,
1000
0001
1000
0001
0010
0100
1000
0001
1000
0010
0100
0001
1000
0010
1000
0001
,
0010
0001
0100
0010
2000
3000
0000
0000
0002
0203
2300
3200
0302
0003
0200
0300
,
0020
0030
2000
3000
1001
0000
0000
0000
0001
0010
0001
0010
0100
1000
0100
1000
,
0001
0010
0100
1000
0100
0010
0001
0000
1000
0010
1000
0010
0100
0001
0100
0001
,
1000
0010
0100
0001
0010
0100
1000
0000
0001
0010
0001
0010
0100
1000
0100
1000
,
0001
0100
0010
1000
0100
0010
0001
0000
0100
0000
0001
0000
0011
0000
0000
0010
,
0100
0000
1000
0000
1010
0000
0000
0000
0001
0100
0001
1000
0100
1000
0001
0100
,
0010
1000
0100
0010
0001
0100
0010
0000
1000
0100
1000
0001
0100
0001
1000
0100
,
0010
0001
0100
0010
1000
0100
0010
0000
0001
0100
0001
1000
0100
1000
0001
0100
,
0010
1000
0100
0010
0001
0100
0010
0000
1000
0001
1000
0001
1000
0000
0010
0100
,
0001
0000
0010
0100
1000
0000
0000
0000
0001
1000
0100
1000
0001
0000
0010
0000
,
0100
0000
0001
0100
1000
0000
1100
0000
1000
0010
0100
0001
1000
0000
0010
0000
,
0001
0000
0010
1000
0001
0000
0101
0000
0001
1000
0100
1000
0001
0000
0010
0000
,
0100
0000
1000
0010
0100
0001
0010
0000
0110
0000
0100
0000
0010
0001
0100
0010
,
1000
0000
0000
0000
1100
0000
0001
0000
0100
0001
0100
0010
0100
0000
1000
0000
,
0100
0001
0010
0001
2000
0000
0000
0000
3100
0001
0100
0010
0100
0000
1000
0000
,
0001
0010
1000
0010
0002
0000
0000
0000
0103
0010
1000
0010
0100
0000
0001
0000
,
0010
0100
1000
0100
0010
0001
1000
0000
0010
0100
0010
0100
0001
1000
0010
0100
,
0001
0000
1000
0000
1001
0000
0000
0000
0011
0000
1000
0000
0100
0000
1000
0010
,
0000
0010
0000
0001
0010
0000
1000
0000
0002
0203
2300
3200
0302
0003
2000
3000
,
0200
0300
0020
0030
0110
0000
0000
0000
2002
0000
0000
0000
0000
0000
0000
0000
,
0000
0000
0000
0000
,
0000
0000
3003
0000
;

//--------------- dance-double - forcednature ----------------
#NOTEDATA:;
#STEPSTYPE:dance-double;
#DESCRIPTION:forcednature;
#DIFFICULTY:Easy;
#METER:9;
#RADARVALUES:0,0,0,0,0;
#CREDIT:forcednature;
#NOTES:
00000000
00000000
00000000
00000000
,
00000000
00000000
00000000
00000000
,
00000000
00000000
00000000
00000000
,
00000000
00000000
00000000
00000000
,
00000000
00000000
00000000
00000000
,
00000000
00000000
00000000
00000000
,
00001000
00001000
00010000
00010000
,
00001000
00010000
00001000
00000000
00010000
00000000
00000010
00000000
,
00001000
00001000
00000001
00000001
,
00000010
00000100
00010000
00001000
,
00011000
00000000
00010000
00001000
00010000
00000000
00001000
00000000
,
00100000
10010000
10000000
00100000
,
01000000
01100000
00010000
00100000
,
00001000
00011000
00010000
00000100
,
00001000
00000000
00000010
00000100
00000010
00000000
00000100
00000000
,
00000001
00001001
00001000
00000100
,
00010000
00011000
00001000
00100000
,
00010000
00000000
10010000
00000000
10000000
00000000
00100000
01000000
,
00100000
00000000
01000000
00010000
01000000
00000000
00001000
00000000
,
00010000
00000000
00011000
00000000
00000100
00000000
00001000
00000100
,
00001000
00000000
00000010
00000000
00000100
00000000
00000001
00000100
,
00000001
00000000
00001000
00000000
00000100
00000000
00010000
00001000
,
00010000
00001000
00100000
01000000
,
10000000
00000000
10010000
00000000
00010000
00000000
01000000
00010000
,
01000000
00000000
00011000
00000000
00001000
00000000
00010000
00001000
,
00010000
00000000
00000100
00000000
00001000
00000010
00001000
00000000
,
00000010
00002002
00000000
00000000
,
00003003
00000000
00000001
00000000
00000010
00000000
00000100
00000010
,
00000100
00010000
00001000
00100000
,
00010000
00000000
10000000
00000000
00100000
00000000
01000000
00100000
,
01000000
00001000
00010000
00000010
,
00001000
00000000
00000001
00000000
00001000
00000000
00000001
00001000
,
00000000
00000000
00000100
00000000
00010000
00000000
00001000
00001000
,
00000000
01000000
00010000
00100000
,
00010000
00000000
01000000
00100000
01000000
00000000
00100000
00000000
,
10000000
10010000
00000000
00010000
,
00000000
01000000
01000000
01000000
,
00000000
00000000
00001000
00000000
00010000
00001000
00010000
00000000
,
00000100
00001000
00000100
00000010
,
00000000
00000001
00000000
00000100
,
00000000
00000001
00000001
00000001
,
00000000
00000000
00000010
00000000
00000100
00000000
00001000
00000100
,
00001000
00000100
00010000
00001000
,
00000000
00011000
00001000
00100000
,
00100000
00020000
20030000
30100000
,
00000000
02000000
03020000
01030000
,
01000000
00002000
00023000
00032000
,
00003000
00020000
00032000
00013000
,
00010000
00000200
00002300
00003100
,
00000010
00000002
00002003
00003010
,
00000010
00000000
00000100
00000010
00000100
00000000
00000020
00000000
,
00000030
00000000
00001001
00000000
00001000
00000000
00000100
00001000
,
00000100
00000000
00010000
00000000
00001000
00000000
00010000
00001000
,
00010000
00000000
00001000
00000000
00100000
00000000
00001000
00100000
,
00001000
00000000
00100000
00000000
00010000
00000000
01000000
00010000
,
01000000
00000000
00100000
00000000
00100000
00000000
10000000
00100000
,
10000000
00000000
01000000
00000000
01000000
00000000
00100000
01000000
,
00100000
00000000
00001000
00000000
00001000
00000000
00010000
00001000
,
00010000
00000000
00000100
00000000
00001000
00000000
00000010
00001000
,
00000010
00000000
00001001
00000000
00000001
00000100
00000001
00000000
,
00001000
00000010
00000110
00001000
,
00000100
00010000
00011000
01000000
,
00010000
00100000
01100000
10000000
,
00100000
00000000
01000000
00000000
00010000
01000000
00010000
00000000
,
00100000
00010000
00100000
00000000
00011000
00000000
00000100
00000000
,
00001000
00000010
00000110
00001000
,
00000001
00000010
00000110
00000100
,
00010000
00001000
00022000
00000000
,
00000000
00033000
01000000
00010000
,
00100000
00010000
00100000
00000000
01000000
00000000
10000000
00000000
,
00100000
10000000
00100000
00000000
01000000
00000000
00001000
00000000
,
00010000
00001000
00010000
00000000
00000010
00000000
00001000
00000000
,
00000100
00000010
00000110
00001000
,
00000001
00001000
00000001
00000000
00000100
00000000
00001000
00000000
,
00010000
00001000
00010000
00000000
00001000
00000000
00010000
00000000
,
00100000
10000000
01000000
00100000
,
00010000
00010000
10000000
00000000
10010000
00000000
00000000
00000000
,
10000000
00000000
01000000
00000000
00010000
00001000
00010000
00000000
,
00001000
00000010
00000220
00000000
,
00000000
00000000
00000000
00000000
,
00000000
00000000
00000330
00000000
;

//--------------- dance-double - forcednature ----------------
#NOTEDATA:;
#STEPSTYPE:dance-double;
#DESCRIPTION:forcednature;
#DIFFICULTY:Medium;
#METER:12;
#RADARVALUES:0,0,0,0,0;
#CREDIT:forcednature;
#NOTES:
00000000
00000000
00000000
00000000
,
00000000
00000000
00000000
00000000
,
00000000
00000000
00000000
00000000
,
00000000
00000000
00000000
00000000
,
00000000
00000000
00000000
00000000
,
00000000
00000000
00000000
00000000
,
00001000
00010000
00001000
00000000
00010000
00001000
00010000
00000000
,
00001000
00010000
00100000
01000000
00100000
00000000
01100000
00000000
,
10000000
00010000
10000000
00000000
01000000
10000000
01000000
00000000
,
00100000
00001000
00010000
00000100
00000010
00000001
00000100
00000000
,
00000110
00000000
00000010
00000010
00000010
00001000
00000001
00000100
,
00001000
00000000
00010000
00001000
00010000
00100000
01000000
00000000
,
01100000
00000000
00100000
10000000
00010000
10000000
01000000
00000000
,
01100000
00000000
00100000
00001000
00010000
00000100
00010000
00000010
,
00001000
00000000
00000100
00000010
00000001
00000100
00000010
00000000
,
00001001
00000000
00001000
00000001
00000010
00001000
00010000
00000000
,
00011000
00000000
00001000
00100000
00010000
01000000
00100000
00000000
,
01100000
00000000
01000000
00010000
10000000
00010000
00100000
01000000
,
00100000
00000000
00001000
00001000
00001000
00010000
00000100
00000010
,
00000001
00000000
00000100
00000010
00001000
00000010
00000100
00001000
,
00010000
00000000
00100000
01000000
00100000
10000000
00010000
10000000
,
01000000
00000000
00100000
00001000
00010000
00000100
00010000
00001000
,
00000010
00000000
00000100
00001000
00000010
00000100
00000001
00000000
,
00001001
00000000
00001000
00000001
00000100
00001000
00010000
00010000
,
00002000
00000000
00013000
00100000
10000000
00100000
01000000
01000000
,
00020000
00000000
00130000
00100000
01000000
00100000
00001000
00010000
,
00001000
00000000
00010000
00010000
00010000
00001000
00000010
00000001
,
00000100
00000000
00000010
00001000
00000010
00001000
00000100
00001000
,
00000010
00001000
00000001
00000100
00001000
00010000
00100000
01000000
,
00100000
00000000
10000000
01000000
10000000
01000000
00100000
01000000
,
10000000
01000000
00010000
00001000
00000010
00000100
00000010
00000001
,
00001000
00000000
00000001
00000100
00000001
00000010
00000100
00010000
,
00002000
00000000
00103000
00100000
00100000
00010000
01000000
00100000
,
20000000
00000000
31000000
01000000
00100000
01000000
00010000
00001000
,
00010000
00000000
00001000
00001000
00001000
00000010
00000100
00000010
,
00000001
00002001
00000100
00000001
,
00003010
00000000
00001000
00000100
00010000
00001000
00100000
00010000
,
10000000
00020000
01000000
10000000
,
00130000
00000000
00010000
01000000
00001000
00010000
00000010
00001000
,
00000001
00002000
00000100
00000001
,
00003010
00000000
00001000
00000100
00010000
00001000
01000000
00010000
,
00100000
00020000
01000000
10000000
,
00130000
00000000
00010000
00100000
01000000
00100000
00001000
00010000
,
00000100
00000000
00000000
00000000
00001000
00000000
00000001
00000000
00001000
00000000
00000000
00000000
00000010
00000000
00000000
00000100
,
00000000
00000010
00002000
00000000
00003200
00000000
00010300
00001000
,
00010000
00000000
00200000
00000000
01300000
00020000
00000000
10030000
,
00200000
00000000
01300000
00010000
10000000
00010000
00100000
01000000
,
00010000
00000000
00000000
00000000
00001000
00000000
00010000
00000000
00001000
00000000
00000000
00000000
00000010
00000000
00000000
00000100
,
00000000
00000010
00000002
00000000
00002003
00000000
00003010
00001000
,
00000010
00000000
00020000
00000000
00031000
00200000
00000000
00310000
,
02000000
00000000
03100000
00100000
10000000
00100000
01000000
00000000
,
10010000
00000000
10000000
00100000
10000000
00100000
01000000
00010000
,
01000000
00010000
00100000
01000000
00100000
01000000
00010000
00001000
,
00010000
00001000
00000010
00000100
00000010
00000100
00001000
00000100
,
00001000
00000100
00000010
00000001
00000010
00000001
00000100
00000010
,
00000100
00000010
00010000
00001000
01000000
00010000
00100000
00001000
,
00010000
00000010
00001000
00000100
00010000
00001000
01000000
00010000
,
00100000
00001000
00010000
00001000
01000000
00001000
00010000
00001000
,
00100000
01000000
10000000
01000000
00100000
00001000
00010000
00000100
,
00000010
00000000
00000001
00000000
00000200
00000300
00000000
00000000
00000010
00000000
00000010
00000000
00000010
00000000
00000100
00000000
,
00001000
00010000
00001000
00000000
00010000
00100000
10000000
00100000
,
01000000
00010000
00100000
00000000
01000000
00010000
00001000
00010000
,
00000100
00001000
00000010
00000000
00000100
00000001
00000010
00000001
,
00001000
00000010
00010000
00000000
00001000
00000000
00101000
00000000
,
00001000
00000000
01010000
00000000
01000000
00100000
10000000
01000000
,
00100000
00001000
00010000
00000000
00000010
00000100
00001000
00010000
,
00000010
00001000
00000010
00000000
00000100
00000001
00000010
00000100
,
00010000
00001000
00100000
00000000
02000000
00000000
10000000
00000000
,
03100000
00010000
01000000
00000000
00001000
00010000
00000010
00010000
,
00000100
00001000
00001000
00000000
00000010
00000100
00000001
00000010
,
00000100
00010000
00010000
00000000
00001000
00100000
01000000
00100000
,
00001000
00010000
00001000
01000000
00010000
00100000
01000000
10000000
,
00100000
00000000
01100000
00000000
01000000
00001000
00010000
00000010
,
00001000
00001000
00000002
00000000
00000013
00000100
00010000
00001000
,
00100000
00100000
00020000
00000000
01030000
00100000
10000000
00100000
,
01000000
00001000
00010000
00001000
00100000
00100000
00010000
00100000
,
00001000
00010000
00011000
00000000
00001000
00001000
00010000
00001000
,
00000000
00010000
00000100
00000000
00001000
00001000
00001000
00000001
,
00000100
00000010
00000100
00000000
00002002
00000000
00000000
00000000
,
00000000
00000000
00000000
00000000
,
00000000
00000000
00003003
00000000
;

//--------------- dance-double - forcednature ----------------
#NOTEDATA:;
#STEPSTYPE:dance-double;
#DESCRIPTION:forcednature;
#DIFFICULTY:Hard;
#METER:15;
#RADARVALUES:0,0,0,0,0;
#CREDIT:forcednature;
#NOTES:
00000000
00000000
00000000
00000000
,
00000000
00000000
00000000
00000000
,
00000000
00000000
00000000
00000000
,
00000000
00000000
00000000
00000000
,
00000000
00000000
00000000
00000000
,
00000000
00000000
00000000
00000000
,
00010000
00001000
00100000
00000000
00001000
00010000
00000010
00000000
,
00010000
00001000
01000000
00010000
00100000
00000000
01100000
00000000
,
01000000
00010000
00001000
00000000
00010000
00001000
00000010
00000000
,
00000001
00000000
00000010
00000000
00000100
00000000
00001000
00000000
00000010
00000000
00010000
00001000
00010000
00000000
00000000
00000000
,
00011000
00000000
00000000
00000000
00001000
00010000
00001000
00010000
00001000
00000000
01000000
00000000
00010000
00000000
00100000
00000000
,
01000000
00000000
00000000
00000000
10000000
00000000
01000000
10000000
01000000
00000000
00100000
00000000
00010000
00000000
00000000
00000000
,
00100000
00000000
00001000
00000000
00010000
00000000
00001000
00010000
00001000
00000000
00010000
00000000
00000100
00000000
00000000
00000000
,
00001000
00000000
00000010
00000000
00000100
00000000
00000010
00000100
00000010
00000000
00001000
00000000
00000001
00000000
00000010
00000001
,
00001000
00000000
00000010
00000000
00001000
00000000
00000100
00001000
00000100
00000000
00010000
00000000
00001000
00000000
00000000
00000000
,
00011000
00000000
00000000
00000000
00010000
00000000
00001000
00010000
00001000
00000000
00100000
00000000
00010000
00000000
00000000
00000000
,
10000000
00000000
00100000
00000000
01000000
00000000
00100000
01000000
00100000
00000000
01000000
00000000
00010000
00000000
00000000
00000000
,
00100000
00000000
00001000
00000000
00010000
00000000
00001000
00010000
00001000
00000000
00010000
00000000
00000100
00000000
00001000
00000100
,
00000010
00000000
00000001
00000000
00001000
00000001
00001000
00000001
00001000
00000000
00000010
00000000
00000100
00000000
00001000
00000000
,
00010000
00000000
00000000
00000000
00100000
00000000
01000000
00100000
01000000
00000000
00100000
00000000
10000000
00000000
01000000
10000000
,
01000000
00000000
00100000
00000000
00001000
00000000
00010000
00001000
00010000
00000000
00000100
00000000
00001000
00000000
00000001
00001000
,
00000010
00000000
00000100
00000000
00000001
00001000
00000000
00001000
00000001
00000000
00000010
00000000
00000100
00000000
00001000
00000100
,
00001000
00000100
00001000
00000000
00000010
00000000
00010000
00000010
00010000
00000000
00001000
00000000
00020000
00000000
00000000
00000000
,
00031000
00000000
00000000
00000000
01000000
00000000
00010000
01000000
00010000
00000000
00100000
00000000
00010000
00000000
00100000
01000000
,
20000000
00000000
00000000
00000000
30100000
00000000
10000000
00100000
10000000
00000000
01000000
00000000
00100000
00000000
00010000
00100000
,
00002000
00000000
00000000
00000000
00013000
00001000
00010000
00001000
00010000
00000000
00000100
00001000
00000100
00000000
00010000
00001000
,
00010000
00000000
00000010
00000000
00001000
00000010
00001000
00000010
00001000
00000000
00000001
00000000
00000010
00000000
00001000
00000000
,
00010000
00000000
00000000
00000000
01000000
00000000
00100000
00000000
01000000
00000000
10000000
01000000
00000000
01000000
00000000
00100000
,
00010000
00000000
00100000
00000000
00001000
00010000
00001000
00010000
00001000
00000000
00010000
00000000
00000010
00000000
00001000
00000000
,
00001010
00000000
00000000
00000000
00000001
00000000
00000100
00000000
00000001
00000000
00000010
00000001
00000000
00000001
00000000
00001000
,
00000100
00000000
00010000
00000000
00001000
00010000
00001000
00010000
00001000
00000000
00100000
00000000
00010000
00000000
10000000
00000000
,
10010000
00000000
00000000
00000000
00010000
00000000
01000000
00000000
00100000
00000000
10000000
00010000
00000000
10000000
01000000
10000000
,
02000000
00000000
00000000
00000000
03100000
00010000
00100000
00010000
00100000
00000000
00001000
00000000
00010000
00001000
00010000
00001000
,
00020000
00000000
00000000
00000000
00030010
00000000
00000010
00000000
00001000
00000000
00000010
00000100
00000000
00000100
00000000
00000001
,
00000010
00000000
00000010
00000000
00000001
00001000
00000001
00001000
00000001
00000000
00000100
00000000
00000010
00000000
00010000
00000000
,
00001000
00021000
00000100
00001000
,
00030010
00010000
00001000
01000000
00010000
00100000
01000000
10000000
,
00100000
00000000
01000000
01000000
00010000
00100000
01000000
00100000
,
00001000
00000000
00010000
00000000
00000100
00000000
00000010
00000000
00000001
00000000
00000100
00000000
00000010
00000000
00001000
00000100
,
00010000
00012000
01000000
00010000
,
00103000
00010000
01000000
00010000
00100000
01000000
00010000
00001000
,
00010000
00000000
00000010
00000100
00001000
00000100
00000010
00001000
,
00000001
00000000
00001000
00000000
00000100
00000000
00010000
00000000
00001000
00000000
00100000
00000000
00010000
00000000
01000000
00010000
,
10000000
00000000
00000000
00000000
20010000
00000000
00000000
00000000
01000000
00000000
00000000
00000000
30010000
00000000
00000000
00010000
,
00000000
00000000
00100000
00000000
00002000
00000000
00000000
00000000
00013000
00000000
00010000
00000000
00000100
00000000
00001000
00000100
,
00001000
00000010
00000200
00000001
00000301
00002000
00000010
00003010
,
00010000
00000000
00001000
00000000
01000000
00000000
00010000
01000000
00010000
00000000
10000000
01000000
10000000
00000000
00100000
01000000
,
00010000
00000000
00000000
00000000
00200000
00000000
00000000
00000000
00010000
00000000
00000000
00000000
00301000
00000000
00000000
00001000
,
00000000
00000000
00010000
00000000
00000200
00000000
00000000
00000000
00001000
00000000
00001300
00000000
00000100
00000000
00000010
00000001
,
00001000
00000010
00020000
00001000
00031000
02000000
00010000
03010000
,
10000000
00000000
00100000
00000000
01000000
00100000
01000000
00100000
01000000
00000000
00100000
01000000
00010000
00000000
00100000
00010000
,
00200000
00000000
00000000
00000000
00301000
00000000
00001000
00000000
00010000
00000000
00001000
00010000
00001000
00000000
00010000
00000100
,
00010000
00000000
00000100
00000000
00001000
00000000
00001000
00000000
00000010
00000000
00000100
00000010
00000100
00000000
00000001
00000100
,
00000001
00000000
00000010
00000000
00000100
00000000
00000100
00000000
00010000
00000000
00001000
00010000
00001000
00000000
00100000
00001000
,
00100000
00000000
00010000
00000000
01000000
00000000
01000000
00000000
00100000
00000000
10000000
00100000
10000000
00000000
01000000
10000000
,
01000000
00000000
00100000
00000000
00001000
00000000
00010000
00000000
00000100
00001000
00000100
00000000
00010000
00001000
00010000
00000000
,
00000010
00001000
00000010
00000000
00000100
00000000
00000001
00000000
00000010
00000001
00000010
00000000
00000100
00001000
00000100
00000000
,
00000010
00000001
00000010
00000000
00001000
00000000
00010000
00000000
00001000
00010000
00001000
00000000
01000000
00010000
01000000
00000000
,
00100000
10000000
00100000
00000000
01000000
00100000
01000000
00000000
00010000
01000000
00010000
00000000
00100000
00010000
00100000
00000000
,
00001000
00000000
00010000
00000000
00022000
00033000
00000000
00000000
00010000
00001000
00010000
00001000
00010000
00000000
00000100
00000000
,
00001000
00000000
00000001
00000000
00000010
00000000
00000000
00000000
00000100
00001000
00000100
00000000
00010000
00001000
00010000
00000000
,
00100000
00000000
01000000
00000000
00100000
00000000
10000000
00000000
01000000
10000000
01000000
00000000
00100000
00010000
00100000
00000000
,
00001000
00000000
00010000
00000000
00000010
00000000
00001000
00000000
00000100
00001000
00000100
00000000
00000010
00000001
00000010
00000000
,
00000100
00000000
00010000
00000000
00001000
00000000
00100000
00000000
00010000
00000000
10000000
00000000
10010000
00000000
00000000
00010000
,
01000000
00000000
00001000
00000000
00011000
00000000
00000000
00000000
00010000
00001000
00010000
00000000
00000100
00001000
00000100
00000000
,
00000010
00000000
00000001
00000000
00001000
00000000
00000010
00000000
00001000
00000100
00001000
00000000
00000100
00010000
00000100
00000000
,
00010000
00000000
00001000
00000000
00100000
00000000
01000000
00000000
10000000
01000000
10000000
00000000
00100000
10000000
00100000
00000000
,
01000000
00000000
00010000
00000000
00100000
00000000
01000000
00000000
00010000
00001000
00010000
00001000
00010000
00000000
00001000
00000000
,
00000010
00000000
00000001
00000010
00000100
00000000
00000000
00000000
00001000
00000100
00001000
00000100
00010000
00000000
00001000
00000000
,
01000000
00000000
00100000
01000000
00010000
00000000
10000000
00000000
01000000
10000000
01000000
10000000
00010000
00000000
01000000
00000000
,
00001000
00000000
00010000
00001000
00010000
00000000
00000010
00000000
00001000
00000001
00000010
00000001
00001000
00000000
00000100
00000000
,
00000010
00000000
00000100
00001000
00000100
00010000
00001000
00000000
00010000
00000000
00001000
00000000
00100000
00010000
00100000
01000000
,
10000000
00000000
00000000
00000000
10010000
00000000
00000000
00000000
00010000
01000000
00010000
01000000
00001000
00000000
00010000
00000000
,
00000100
00000000
00000100
00001000
00000020
00000000
00000000
00000000
00001030
00000100
00001000
00000100
00010000
00000000
00001000
00000000
,
00100000
00010000
00100000
00010000
02000000
00000000
00000000
00000000
03100000
01000000
00100000
01000000
00100000
00000000
10000000
00000000
,
01000000
00100000
00000000
00100000
01000000
00000000
00010000
00000000
00001000
00010000
00001000
00010000
00000100
00010000
00001000
00010000
,
00000100
00000000
00000100
00000000
00000010
00000000
00000000
00000000
00000001
00000000
00000001
00000000
00000100
00000000
00000010
00000100
,
00000000
00000100
00000000
00001000
00010000
00000000
00010000
00000000
00001000
00010000
00001000
00010000
00001000
00000000
00010000
00000000
,
00100000
10000000
01000000
00000000
20020000
00000000
00000000
00000000
,
00000000
00000000
00000000
00000000
,
00000000
00000000
30030000
00000000
;

//--------------- dance-double - forcednature ----------------
#NOTEDATA:;
#STEPSTYPE:dance-double;
#DESCRIPTION:forcednature;
#DIFFICULTY:Challenge;
#METER:17;
#RADARVALUES:0,0,0,0,0;
#OFFSET:-0.001;
#BPMS:0.000=171.000
,141.000=85.500
,172.500=171.000
;
#STOPS:40.000=1.053
,172.500=0.175
,205.000=1.053
;
#TIMESIGNATURES:0.000=4=4,
40.000=1=4,
41.000=4=4,
205.000=1=4,
206.000=4=4
;
#CREDIT:forcednature;
#NOTES:
00000000
00000000
00000000
00000000
,
00000000
00000000
00000000
00000000
,
00000000
00000000
00000000
00000000
,
00000000
00000000
00000000
00000000
,
00000000
00000000
00000000
00000000
,
00000000
00000000
00000000
00000000
,
00001000
00010000
00100000
00000000
00010000
00001000
00000010
00000000
,
00001000
00010000
01000000
10000000
00100000
00000000
01100000
00000000
,
00100000
00010000
00001000
00000000
00000010
00001000
00010000
00000000
,
00001000
00000000
00000100
00000000
00000001
00000000
00000010
00000000
00000100
00000000
00000010
00000001
00001000
00000000
00000000
00000000
,
00001001
00000000
00000000
00000000
00000002
00000203
00000302
00000203
00002300
00003000
00020000
00030000
00200000
00300000
20000000
30000000
,
02000000
03000000
00000000
00000000
01100000
00000000
00100000
00010000
01000000
00000000
00001000
00000000
00011000
00000000
00000000
00000000
,
00010000
00000000
00000010
00000000
00001010
00000000
00001000
00000100
00000010
00000000
00000001
00000000
00000101
00000000
00000000
00000000
,
00000100
00000000
00000000
00000000
00000000
00000000
00001000
00000000
00000000
00000000
00000000
00000000
00011000
00000000
00000000
00000000
00000000
00000000
00010000
00000000
00000000
00001000
00000000
00000000
00100000
00000000
00000000
00000000
00000000
00000000
00010000
00000000
00000000
00000000
00000000
00000000
01000000
00000000
00000000
00000000
00000000
00000000
00100000
00000000
01000000
00000000
00100000
00000000
,
10000000
00000000
00010000
00000000
00100000
00000000
01000000
00100000
00001000
00000000
00010000
00000000
00011000
00000000
00000000
00000000
,
00001000
00000000
00000010
00000000
00000110
00000000
00000100
00000010
00000001
00000000
00000100
00000000
00000101
00000000
00000000
00000000
,
00000010
00000000
00001000
00000000
00001100
00000000
00000100
00010000
00001000
00000000
01000000
00000000
01001000
00000000
00000000
00000000
,
00001000
00000000
00000000
00000000
00000000
00000000
00010000
00000000
00000000
00000000
00000000
00000000
00100000
00000000
00000000
00000000
00000000
00000000
01000000
00000000
00000000
00100000
00000000
00000000
10000000
00000000
00000000
00000000
00000000
00000000
01000000
00000000
00000000
00000000
00000000
00000000
00100000
00000000
00000000
00000000
00000000
00000000
00010000
00000000
00100000
00000000
00001000
00000000
,
00100000
00000000
00010000
00000000
20000000
32000000
23000000
32000000
03020000
00030000
00002000
00003000
00000020
00000030
00000002
00000003
,
00000200
00000300
00000010
00000000
00001001
00000000
00001000
00000100
00000010
00000000
00000100
00000000
00010000
00000000
00001000
00010000
,
00100000
00000000
01000000
00000000
00100000
00000000
10000000
01000000
00100000
00000000
00010000
00000000
01000000
00000000
10000000
01000000
,
00010000
00000000
01000000
00000000
00001000
00010000
00100000
00010000
00001000
00000000
00010000
00000000
00000100
00000000
00001000
00000001
,
00000010
00000000
00000000
00000100
00000000
00000000
00000010
00000000
00000000
00000000
00000000
00000000
00000110
00000000
00000000
00000000
00000000
00000000
00000100
00000000
00001000
00000000
00000100
00000000
00010000
00000000
00000000
00000000
00000000
00000000
00001000
00000000
00000000
00000000
00000000
00000000
00100000
00000000
00000000
00000000
00000000
00000000
01000000
00000000
00000000
00100000
00000000
00000000
,
00010000
00000000
00000000
00000000
10000000
01000000
10000000
01000000
00100000
00010000
00100000
00001000
00010000
00000000
00010000
00001000
,
00000020
00000000
00000000
00000000
00000031
00000100
00000001
00000100
00000010
00001000
00000010
00010000
00001000
00000000
00001000
00010000
,
00200000
00000000
00000000
00000000
01300000
00100000
01000000
00100000
01000000
00000000
00100000
10000000
01000000
00000000
00100000
00010000
,
01000000
00100000
10000000
00010000
20000000
32000000
23000000
32000000
03020000
00030000
00002000
00003000
00000020
00000030
00000002
00000003
,
00000200
00000300
00000000
00000000
00001001
00000000
00000001
00000000
00000010
00000000
00001000
00000010
00000000
00000010
00000000
00001000
,
00010000
00000000
00001000
00000000
00010000
01000000
10000000
01000000
00010000
00000000
00001000
00000000
00100000
00000000
01000000
00000000
,
01100000
00000000
00000000
00000000
10010000
00000000
10000000
00000000
00100000
00000000
00010000
00100000
00000000
00100000
00000000
00010000
,
00001000
00000000
00010000
00000000
00001000
00000100
00000001
00000100
00001000
00000000
00010000
00000000
00000010
00000000
00000100
00000000
,
00000110
00000000
00000000
00000000
00001001
00000000
00001000
00000000
00000001
00000000
00000010
00001000
00000000
00010000
00001000
00010000
,
02000000
00000000
03000000
00000000
10000000
01000000
00010000
01000000
10000000
00000000
00010000
00000000
10000000
00100000
01000000
00010000
,
00200000
00000000
00300000
00000000
00101000
00000000
00011000
00000000
00101000
00000000
00100000
00010000
00000000
01010000
00000000
01000000
,
00100000
00000000
01100000
00000000
10000000
01000000
00100000
00001000
00010000
00000000
00000100
00000000
00000110
00000000
00000110
00000000
,
00001001
00000000
00000000
00000000
00000000
00000000
00000000
00000000
00000101
00000000
00000000
00000000
00000100
00000000
00001000
00000000
00010000
00000000
01000000
00000000
00010000
00000000
00001000
00000000
00000000
00000000
00100000
00000000
01000000
00000000
00100000
00010000
,
00100000
00000000
01000000
10000000
01000000
00000000
00000000
00000000
00100000
00000000
00001000
00010000
00001000
00000000
01000000
00000000
00001000
00010000
00001000
00000000
00100000
00000000
01000000
00000000
00010000
00000000
00001000
00000000
00000010
00000000
00000100
00000000
,
00001000
00000000
00000001
00000100
00001000
00000000
00000000
00000000
00010000
00000000
00100000
00000000
00010000
00000000
00001000
00010000
00001000
00000000
00100000
00000000
01000000
00000000
10000000
00000000
00000000
00000000
00100000
00000000
10000000
00000000
01000000
00100000
,
01000000
00000000
00100000
00010000
00100000
00000000
00000000
00000000
00001000
00000000
00010000
00001000
00010000
00000000
00100000
00000000
00010000
00001000
00010000
00000000
00001000
00000000
00000010
00000000
00000100
00000000
00000001
00000000
00000100
00000000
00010000
00000000
,
00001000
00000000
00000010
00000001
00000100
00000000
00000000
00000000
00000110
00000000
00001000
00000000
00000010
00000000
00000100
00000001
00000100
00000000
00001000
00000000
00010000
00000000
01000000
00000000
10000000
00010000
10000000
00010000
10000000
00000000
00010000
10000000
,
00010000
00000000
00100000
00000000
01000000
00000000
00010000
00000000
00002000
00000000
00000010
00000000
00000010
00000000
00023000
00000000
00100000
00000000
00100000
00000000
00031000
00000000
00000010
00000000
00000100
00000010
00000100
00000010
00000100
00000000
00001000
00000001
,
00000100
00000000
00000010
00001000
00000100
00000000
00000000
00000000
00010000
00000000
00001000
00000000
01000000
00000000
00100000
01000000
00100000
00000000
10000000
00000000
01000000
00000000
00010000
00000000
00001000
00010000
00001000
00010000
00001000
00000000
00010000
00001000
,
00010000
00000000
00000010
00000000
00000100
00000000
00001000
00000000
00020000
00000000
01000000
00000000
01000000
00000000
00032000
00000000
00000100
00000000
00000100
00000000
00013000
00000000
01000000
00000000
10000000
01000000
10000000
01000000
00100000
00000000
00010000
01000000
,
00100000
00000000
10000000
00100000
00020000
00030000
00000000
00000000
00011000
00000000
00000000
00000000
00001000
00000000
00000000
00000000
00000010
00000000
00000000
00000000
00000001
00000000
00000000
00000000
00000100
00000000
00000000
00000000
00001000
00000000
00000000
00000000
,
00010000
00100000
10000000
01000000
00010000
00001000
00000010
00000001
,
00000100
00001000
00010000
01000000
00100000
01000000
00010000
00001000
,
00000100
00000010
00000100
00001000
00010000
00100000
01000000
00010000
,
10000000
00000000
01000000
00000000
00100000
00010000
00100000
00001000
00010000
00001000
00100000
00010000
00100000
00001000
00010000
00001000
,
01000000
00010000
01000000
00001000
00010000
00000010
00001000
00000010
00010000
00001000
00010000
00000010
00001000
00000010
00010000
00001000
,
00010000
00000100
00001000
00000001
00000100
00000010
00000100
00000010
00010000
00001000
00010000
00001000
01000000
00100000
01000000
00100000
,
10000000
00010000
10000000
00010000
00100000
01000000
00100000
01000000
00010000
00001000
00010000
00001000
00000010
00000100
00000010
00000100
,
00001000
00000001
00000100
00000010
00002000
00003000
00000000
00000000
00000002
00000203
00000302
00000203
00002300
00003000
00020000
00030000
,
00200000
00300000
20000000
30000000
02000000
03000000
00000000
00000000
00100000
00010000
00100000
00000000
00001000
00010000
00001000
00000000
,
00000100
00000010
00000100
00000001
00000100
00000000
00000010
00000000
00001000
00000100
00001000
00000000
00000010
00001000
00000010
00000000
,
00010000
00001000
00100000
00010000
00100000
00000000
01000000
00000000
10000000
00100000
10000000
00000000
01000000
00100000
01000000
00000000
,
00010000
00001000
00100000
00001000
00010000
00000000
00000100
00000000
00000010
00000000
00000001
00000000
00000101
00000000
00000000
00000100
,
00000010
00000000
00001000
00000000
00001010
00000000
00000000
00000000
00000010
00001000
00000010
00000000
00010000
00001000
00010000
00000000
,
01000000
00100000
01000000
10000000
01000000
00000000
00100000
00000000
00010000
01000000
00010000
00000000
00100000
00010000
00100000
00000000
,
00001000
00010000
00000010
00001000
00000010
00000000
00000100
00000000
00000001
00000010
00000001
00000000
00000100
00000010
00000100
00000000
,
00001000
00010000
00000010
00010000
00001000
00000000
01000000
00000000
00200000
00000000
20300000
00000000
32000000
00000000
03020000
00000000
,
00032000
00000000
00003010
00000001
00000100
00000000
00000000
00000000
00000010
00001000
00000010
00000100
00000001
00000000
00000100
00000000
,
00001000
00000000
00010000
00001000
00010000
00000000
00100000
00000000
01000000
00010000
10000000
00010000
01000000
00000000
00100000
00000000
,
10000000
00000000
01000000
00010000
00001000
00000000
00010000
00000000
00001000
00100000
00010000
00100000
00001000
00000000
00000010
00000000
,
00000100
00000000
00001000
00000001
00000100
00000010
00001000
00000000
00000100
00000000
00000010
00000000
00000100
00010000
00001000
00100000
,
00010000
00000000
01100000
00100000
10010000
00010000
10000000
00100000
,
00010000
00000000
00010000
00001000
00000200
00000000
00000300
00000000
00000001
00000100
00001000
00000100
00000001
00000000
00001000
00000000
,
00000001
00000010
00000100
00001000
00000020
00000000
00000030
00000000
00010000
00000100
00001000
00000100
00010000
00000000
00001000
00000000
,
00100000
01000000
00000000
01000000
00100000
00010000
10000000
00000000
00100000
01000000
00100000
01000000
00001000
00010000
00000010
00000100
,
00000001
00000000
00001000
00000000
00001001
00000000
00000000
00000000
00000001
00000000
00000010
00000000
00001000
00000000
00010000
00001000
,
00000000
00010000
00000000
00100000
10000000
00000000
00010000
00000000
20000000
32000000
23000000
32000000
03020000
00030000
00002000
00003000
,
00000020
00000030
00000002
00000003
00000200
00000300
00000000
00000000
00002002
00000000
00000000
00000000
00000000
00000000
00000000
00000000
,
00000000
00000000
00000000
00000000
,
00000000
00000000
00003003
00000000
;
