#VERSION:0.83;
#TITLE:灼ナル刃、破カヰ譜;
#SUBTITLE:;
#ARTIST:Symholic feat.狛茉璃奈;
#TITLETRANSLIT:Shakunaru yaiba, hakai uta;
#SUBTITLETRANSLIT:;
#ARTISTTRANSLIT:Symholic feat. Rina Komatsu;
#GENRE:;
#CREDIT:;
#MUSIC:Shakunaru yaiba, hakai uta.ogg;
#BANNER:Shakunaru yaiba, hakai uta.png;
#BACKGROUND:Shakunaru yaiba, hakai uta-bg.png;
#CDTITLE:./CDTitles/SDVX EXCEED GEAR.png;
#SAMPLESTART:68.554;
#SAMPLELENGTH:15.000;
#SELECTABLE:YES;
#OFFSET:-0.084;
#BPMS:0.000=165.000;
#STOPS:;
#TIMESIGNATURES:0.000=4=4,
4.000=3=4,
10.000=4=4,
122.000=3=4,
158.000=4=4,
290.000=6=4,
296.000=4=4
;
#BGCHANGES:0.000=../BGAs/14te.mp4=1.000=0=0=0=StretchNoLoop====,
99999.000=-nosongbg-=1.000=0=0=0=StretchNoLoop====
;
#FGCHANGES:;

//--------------- dance-single - forcednature ----------------
#NOTEDATA:;
#STEPSTYPE:dance-single;
#DESCRIPTION:forcednature;
#CREDIT:forcednature;
#DIFFICULTY:Beginner;
#METER:4;
#RADARVALUES:0,0,0,0,0;
#NOTES:
0000
0000
0000
0000
,
0000
0000
0000
0000
,
0000
0000
0000
0000
,
0000
0000
0000
0000
,
0000
0000
1001
0000
,
0000
0000
0110
0000
,
0000
0000
0001
0000
,
0001
0000
1000
0000
,
0000
0000
1001
0000
,
0000
0000
0110
0000
,
0000
0000
0001
0000
,
0001
0000
0100
0000
,
0010
0000
1000
0000
,
0001
0000
2002
0000
,
3003
0000
1000
0000
,
0000
0000
0100
0000
,
0000
0000
1000
0000
,
0000
0000
0010
0000
,
0000
0000
0110
0000
,
0000
0000
0100
0000
,
0100
0000
0001
0000
,
0010
0000
0100
0000
,
0220
0000
0330
0000
,
0000
0000
1001
0000
,
0000
0000
1000
0000
,
1000
0000
0010
0000
,
1000
0000
0010
0000
,
0000
0000
0100
0000
,
0100
0000
0001
0000
,
0001
0000
0010
0000
,
0001
0000
0100
0000
,
0000
0110
0000
0000
,
1000
0000
0000
1001
,
0000
0000
0001
0000
,
0000
0100
0000
0100
,
0000
0010
0000
1000
,
0000
1000
0000
0002
,
0000
0003
0000
0000
,
0000
0000
0000
0000
,
0000
0000
1001
0000
,
0000
0000
1000
0000
,
0100
0000
1000
0000
,
0010
0000
2002
0000
,
3003
0000
0001
0000
,
0001
0000
1000
0000
,
0001
0000
0010
0000
,
0100
0000
0220
0000
,
0330
0000
1000
1000
,
1000
0000
0001
0000
,
0100
0000
0001
0001
,
0001
0000
1000
0000
,
0100
0000
1000
1000
,
1000
0000
0010
0000
,
0100
0000
0001
0000
,
0010
0000
0220
0000
,
0330
0000
1000
0001
,
1000
0000
0001
1000
,
0001
0000
0100
0001
,
0100
0000
0000
0000
0010
0000
0000
0010
,
0000
0000
1001
0000
,
1000
0000
0100
1000
,
0100
0000
0010
0000
,
0001
0000
0200
0000
,
0000
0300
1001
0000
,
1000
0000
0010
0000
,
0100
0000
0010
0000
,
1000
0000
2002
0000
,
3003
0000
0001
0001
,
0100
0000
0001
0000
,
0010
0000
0100
0100
,
1000
0000
0010
0000
,
1000
0000
0100
0000
,
0010
0000
2002
0000
,
0000
0000
0000
0000
,
3003
0000
0000
0000
,
1000
0000
0000
0000
,
0001
0000
0000
0000
,
0100
0000
0000
0000
;

//--------------- dance-single - forcednature ----------------
#NOTEDATA:;
#STEPSTYPE:dance-single;
#DESCRIPTION:forcednature;
#CREDIT:forcednature;
#DIFFICULTY:Easy;
#METER:9;
#RADARVALUES:0,0,0,0,0;
#NOTES:
0000
0000
0000
0000
,
0000
0000
0000
0000
,
0000
0000
0000
0000
,
0000
0000
0000
0000
,
0000
0000
2002
3003
,
0001
0100
0220
0330
,
0010
1000
1001
0001
,
0010
0000
0000
0000
0100
0000
0000
0000
1000
0000
0000
1000
0000
0000
1000
0000
,
0002
0000
0000
0003
0100
0010
0100
0000
,
0010
0000
1000
0000
0100
1000
0100
0000
,
0010
0000
0001
0000
0100
0001
0100
0000
,
0010
0000
1000
0000
1001
0000
0001
1000
,
0000
0000
1000
0000
0001
0000
0000
0000
0010
0000
0000
0010
0000
0000
0010
0000
,
0000
0100
1000
0000
0002
0000
0000
0000
,
0003
0000
0200
0000
,
0300
0010
2000
3000
,
0001
0000
0000
0000
0010
0000
0000
0010
,
0000
0001
2000
0000
,
3000
0000
1001
0001
,
0100
0001
1001
1000
,
0100
0000
1000
0000
0010
0000
0010
0100
,
0000
0100
0010
0000
1000
0000
0001
1000
,
0002
0000
0003
0000
,
0000
0000
1001
0000
,
1000
0100
1000
0010
,
0100
0010
0100
0000
0001
0000
0000
0000
,
0001
0000
0010
0000
0100
0000
0000
0110
,
0000
0010
1001
1000
,
0100
1000
1001
0001
,
0100
0000
0001
0000
0020
0000
0000
0030
,
0100
0010
1001
1000
,
0010
0000
0200
0000
0000
0300
0001
0100
,
0001
0001
0000
0020
,
0000
0030
0001
0010
0001
0000
0100
0000
,
0000
0000
1001
0000
1000
0000
0100
1000
,
0100
0010
0001
0100
,
0001
0000
0100
0010
0100
0000
0010
0000
,
2002
3003
0000
0000
,
0000
0000
0000
0000
,
0000
0000
0000
0000
1000
0000
0000
0100
,
0010
0001
0100
0010
,
1001
0000
0001
0100
,
1000
0000
0000
0000
0100
0000
0000
0000
0001
0000
0000
0001
0000
0000
1000
0000
,
0002
0000
0003
0000
0010
0001
0010
0000
,
0011
0000
0000
0000
1000
0100
1000
0000
,
1100
0000
0001
0100
,
0010
1000
2002
0000
,
3003
0000
0000
0000
1000
0100
1000
0000
,
0100
0010
0100
0000
0010
0001
0010
0000
,
0011
0000
0000
0000
0001
0100
0001
0000
,
0100
0010
0100
0000
0010
0000
0110
0000
,
1001
0000
0000
0000
1000
0100
1000
0000
,
0001
0100
0001
0000
1000
0010
1000
0000
,
0001
0010
0220
0330
,
1000
0000
0000
0000
0001
0000
0000
0000
0100
0000
0000
0100
0000
0000
0100
0000
,
0020
0030
1010
1000
,
0100
0000
0010
0000
0011
0000
0001
0100
,
0001
0100
1001
1000
,
0010
0000
0100
0000
0001
0001
0000
1000
,
1000
0000
1001
0000
0001
0000
0010
0001
,
0010
0100
1100
1000
,
0020
0000
0000
0030
0000
0000
1000
0000
0001
0000
1000
0000
,
0001
0000
1000
0000
0001
0000
0020
0000
0000
0000
0000
0000
,
0000
0030
2002
3003
,
0001
0100
0220
0330
,
0010
1000
1001
0001
,
0010
0000
0000
0000
0100
0000
0000
0000
1000
0000
0000
1000
0000
0000
1000
0000
,
0002
0000
0000
0003
0100
0010
0100
0000
,
0010
0000
1000
0000
0100
1000
0100
0000
,
0010
0000
0001
0000
0100
0001
0100
0000
,
0010
0000
1000
0000
1001
0000
0001
1000
,
0001
0000
0000
0000
0010
0000
0000
0000
0100
0000
0000
0100
0000
0000
0100
0000
,
0010
0110
2002
0000
,
3000
0000
0000
0000
,
0003
0000
0000
0000
,
1000
0010
0100
0001
,
0100
0010
1000
0001
,
0010
0000
0000
0100
0000
0000
0000
0000
;

//--------------- dance-single - forcednature ----------------
#NOTEDATA:;
#STEPSTYPE:dance-single;
#DESCRIPTION:forcednature;
#CREDIT:forcednature;
#DIFFICULTY:Medium;
#METER:13;
#RADARVALUES:0,0,0,0,0;
#NOTES:
0000
0000
0000
0000
,
0000
0000
0000
0000
,
0000
0000
0000
0000
,
0000
0000
0000
0000
,
0000
0000
0000
0000
1001
0000
1000
0100
,
0010
0000
0000
0001
0000
0000
0100
0000
0110
0000
0000
0000
0001
0000
0100
0000
,
0010
0000
0000
1000
0002
0000
0000
0000
0013
0000
0001
0000
0100
0000
0001
0000
,
0010
0000
0000
0100
0010
0000
0100
0000
2000
0000
0000
0001
0000
0000
0001
0000
,
0020
0000
3030
0000
1000
0001
0100
0010
,
1000
0000
0100
1000
0000
1000
0100
0000
0010
0000
0001
0000
0100
0000
0010
0000
,
1000
0000
0001
1000
0000
1000
0001
0000
0100
0000
0010
0000
1000
0000
0100
0000
,
0010
0000
0001
0010
0000
0010
0001
0000
0100
0000
0000
0010
0000
0000
0110
0000
,
0100
0000
0001
0000
2000
0000
0000
0000
3100
0000
0000
1100
0000
0000
0011
0000
,
0000
0001
1000
0001
0200
0000
0000
0000
,
0300
0000
0020
0000
,
0030
1000
0001
1000
0002
0000
0003
0000
,
0020
0000
0230
0000
2300
0000
0000
3020
,
0000
0230
0302
0000
,
0003
0000
0000
0000
1000
0000
0001
1000
0001
0000
0000
0000
0001
0000
0010
0000
,
0100
0010
0001
1000
0001
0000
0001
0100
,
0010
0100
0001
0000
1001
0000
1000
0100
,
0001
0100
1000
0000
1001
0000
0001
1000
,
0020
0000
0000
0000
0000
0000
0000
0000
0130
0000
0000
0100
0000
0000
0100
0000
,
0001
0000
1000
0001
2000
0000
0000
0000
3100
0000
0010
0000
0100
0000
1000
0000
,
0010
0100
0001
0000
0010
0001
0100
0010
,
1000
0100
0010
0000
0001
0100
1000
0100
,
0001
1000
0010
0000
0010
0100
0000
2002
,
0000
0000
0000
0000
3003
0000
0000
0000
1000
0000
0000
0100
1000
0000
0100
0000
,
0010
0000
0000
0001
0010
0000
0001
0000
0100
0000
0000
0010
0100
0000
0100
0000
,
0010
0000
0000
1000
0000
0000
0001
0000
0000
0000
0000
0000
0010
0000
0001
0000
0010
0000
0000
0000
0001
0000
1000
0000
,
0001
0000
0000
0001
0000
0000
0100
0000
0010
0000
0000
1000
0010
0000
0000
0100
,
0002
0000
0000
0000
1003
0000
0100
0000
1000
0000
0001
1000
0001
0000
0010
0000
,
0100
0000
2002
0000
3003
0000
0001
0100
,
0001
0000
1000
0001
1000
0000
0010
0000
0100
0000
0000
0000
2002
0000
0000
0000
,
3003
0000
1000
0100
0001
0100
1000
0001
,
1000
0000
0000
0010
0000
0000
0001
0000
0000
0010
0000
0000
1000
0000
0000
0001
0000
0000
0100
0000
0000
0000
0010
0000
,
0100
0010
0100
0010
0000
0000
1000
0001
1000
0001
0100
0001
,
0200
0300
0000
0000
,
0000
0000
0000
0000
,
0000
0000
0000
0000
1002
0000
0000
1003
,
1100
0000
0010
0000
1001
0000
1000
0001
,
0102
0013
1001
0010
,
1001
0000
0000
0000
0010
0000
0000
0000
0110
0000
0000
0100
0000
0000
1000
0000
,
0001
0000
1000
0001
2000
0000
0000
0000
3010
0000
0100
0000
0001
0000
0100
0000
,
0020
0000
0000
0000
1030
0000
0000
0000
1001
0000
0000
0001
0010
0000
0100
0000
,
1000
0000
1000
0000
0001
0000
0000
0000
1001
0000
0000
1000
0000
0000
0001
0000
,
0200
0310
2002
0000
,
3003
0000
0000
0000
0000
0000
0000
0000
1000
0000
0001
1000
0001
0000
0100
0000
,
0001
0000
1000
0001
1000
0000
0100
0000
0010
0000
0100
0010
0001
0000
1000
0000
,
2002
0000
0000
0000
3003
0000
0000
0000
0001
0000
1000
0001
1000
0000
0100
0000
,
1000
0000
0001
1000
0001
0000
0100
0000
0010
0000
0000
0100
0010
0000
1000
0000
,
2002
0000
0000
0000
3003
0000
0000
0000
0001
0000
0010
0001
0010
0000
0100
0000
,
1000
0000
0100
1000
0100
0000
0010
0000
0001
0000
1000
0001
1000
0000
0010
0000
,
0210
0301
2002
3003
,
1000
0000
0000
0000
0001
0000
0000
0000
1000
0000
0000
0000
0001
0000
0000
0000
0000
0000
0010
0000
0000
0000
0000
0000
0110
0000
0000
0000
0000
0000
0000
0000
0000
0110
0000
0000
0000
0000
0000
0000
0000
0000
1000
0000
0000
0000
0000
0000
,
0002
0000
0000
0000
0003
0000
0000
0000
0100
0000
0001
0000
0100
0001
0100
0000
,
0001
0000
0010
0000
0001
0010
0001
0000
1000
0000
0010
0000
1000
0010
1000
0000
,
0100
0000
1000
0000
0100
1000
0100
0000
0010
0000
0001
0000
1000
0001
1000
0000
,
0010
0000
0000
0000
0110
0000
0000
0000
0100
0001
1000
0000
0000
0000
0100
1000
,
0001
0000
0000
0000
1001
0000
0000
0000
1000
0000
0010
1000
0010
0000
0100
0000
,
0001
0000
0100
0001
0100
0000
0010
0000
1000
0000
0000
1001
0000
0000
0001
0000
,
0010
0000
0000
0010
0000
0000
0010
0000
0000
0000
0000
0000
0001
0000
0000
0000
0100
0000
0000
0000
1000
0000
0000
0000
,
0100
0000
0001
0000
1000
0000
0020
0000
0000
0000
0000
0000
,
0000
0000
0030
0000
1001
0000
0001
0100
,
0010
0000
0000
1000
0000
0000
0100
0000
0110
0000
0000
0000
1000
0000
0100
0000
,
0010
0000
0000
0001
2000
0000
0000
0000
3010
0000
1000
0000
0100
0000
1000
0000
,
0010
0000
0000
0100
0010
0000
0100
0000
0002
0000
0000
1000
0000
0000
1000
0000
,
0020
0000
0033
0000
0001
1000
0100
0010
,
0001
0000
0100
0001
0000
0001
0100
0000
0010
0000
1000
0000
0100
0000
0010
0000
,
0001
0000
1000
0001
0000
0001
1000
0000
0100
0000
0010
0000
0001
0000
0100
0000
,
0010
0000
1000
0010
0000
0010
1000
0000
0100
0000
0000
0010
0000
0000
0110
0000
,
0100
0000
1000
0000
0002
0000
0000
0000
0103
0000
0000
0101
0000
0000
0010
0000
,
1000
0001
0100
0000
2002
0000
0000
0000
,
0003
0000
0000
0000
,
3000
0000
0000
0000
,
0001
0000
0100
0001
1000
0100
1000
0000
,
0001
0010
0001
1000
0010
1000
0001
0100
,
0010
0000
0000
1000
0000
0000
0000
0000
;

//--------------- dance-single - forcednature ----------------
#NOTEDATA:;
#STEPSTYPE:dance-single;
#DESCRIPTION:forcednature;
#CREDIT:forcednature;
#DIFFICULTY:Hard;
#METER:16;
#RADARVALUES:0,0,0,0,0;
#NOTES:
0000
0000
0000
0000
,
0000
0000
0000
0000
,
0000
0000
0000
0000
,
0000
0000
0000
0000
,
0000
0000
0000
0000
0000
0000
0000
0000
1001
0000
0000
0001
0100
0000
0010
0100
,
0010
0000
0000
1000
0000
0000
0100
0000
1001
0000
0000
1000
0100
0000
0010
0100
,
0010
0000
0000
0001
0200
0000
0000
0000
0310
0000
1000
0010
1000
0000
0001
0010
,
0001
0000
0000
0001
1000
0000
0010
1000
0010
0000
0000
0110
0000
0000
0100
0000
,
0001
1000
0100
0010
0002
0000
0000
0000
0103
0000
0010
0000
0100
0001
0100
0000
,
0001
0000
0010
0100
0000
1000
0001
0000
0100
0000
0010
0000
1000
0010
1000
0000
,
0001
0000
0010
0100
1000
0100
0010
0000
0001
0000
1000
0000
0010
1000
0010
0000
,
0100
0000
0001
1000
0000
0100
0010
0000
0001
1000
0100
1000
0000
0001
0100
0000
,
0100
0000
0010
0100
0010
1000
0001
1000
0100
0000
0000
0110
0000
0000
0110
0000
,
0010
0001
1000
0001
0010
0000
0100
0000
2002
0000
0000
0000
0000
0000
0000
0000
,
3003
0000
2000
0000
,
3000
0010
0100
0001
0200
0000
0300
0000
,
0020
0000
2030
0000
3002
0000
0000
0023
,
0000
0000
0000
0000
0230
0000
0000
0000
1300
0000
0000
0001
1000
0000
0100
0000
,
0010
0000
0001
0100
0020
0000
0000
0000
1030
0000
0001
0000
1000
0000
0010
0000
,
0100
0010
1000
0001
1001
0000
1000
0100
,
0100
0000
1000
0000
0001
1000
0001
1000
0100
0000
0010
0001
0010
0001
1000
0001
,
1000
0000
0010
1000
0010
1000
0001
1000
0001
0000
0100
0001
0100
0001
1000
0100
,
0020
0000
0000
0000
0000
0000
0000
0000
0031
0000
1000
0001
0000
1000
0001
0000
,
0100
0000
0010
0100
0020
0000
0000
0000
1030
0000
0100
0000
1000
0001
1000
0001
,
1000
0000
0001
0000
0010
0000
0100
1000
0001
0000
0100
0000
0010
1000
0010
1000
,
0010
0000
0100
0000
0001
0000
0010
0100
1000
0000
0001
0000
0100
0010
0100
0010
,
0100
0000
0000
0001
1000
0000
0100
0000
1100
0000
0001
0000
0000
0000
0201
0000
,
0000
0000
1300
0000
0100
0000
0001
0100
0001
0000
0010
0001
0010
0000
0100
0010
,
0100
0000
1000
0100
0000
1000
0001
0000
0100
0000
0001
0100
0001
0000
1000
0100
,
1000
0000
0000
0000
0000
0000
0001
0000
0000
0000
0000
0000
0010
0000
0000
0001
0000
0000
0010
0000
0000
0000
0000
0000
0100
0000
0000
0000
1000
0000
0000
0000
0100
0000
0000
0000
1000
0000
0000
0000
0001
0000
0000
0000
0100
0000
0000
0000
,
0010
0000
0000
0110
0000
0000
0100
0000
0001
0000
1000
0010
1000
0000
0001
0010
,
0001
0000
0100
0010
2000
0000
0000
0000
3100
0000
1000
0100
1000
0000
0010
0000
,
0100
0000
0010
0100
0001
0000
0000
0000
0010
0000
0100
0000
0010
0000
0001
0000
,
0100
0000
0001
0000
1000
0001
1000
0010
0100
0000
0001
0000
0201
0000
0000
0000
,
0000
0000
0000
0000
0310
0000
1000
0010
1000
0000
0100
1000
0001
0000
0100
0000
,
0001
0000
0000
0000
0000
0000
0010
0000
0000
0001
0000
0000
0010
0000
0000
0000
0000
0000
0100
0000
0000
1000
0000
0000
0001
0000
0000
0000
0000
0000
0100
0000
0000
0000
0000
0000
0010
0000
0000
0000
1000
0000
0000
0000
0010
0000
0000
0000
,
0100
0001
0100
0010
1000
0001
1000
0100
0001
0100
1000
0001
,
0020
0030
0000
0000
,
0000
0000
0000
0000
,
0000
0000
0000
0000
0000
0000
0000
0000
1001
0000
0000
0000
0001
0000
0100
0001
,
1000
0000
0000
0100
0000
0000
0010
0000
0110
0000
0000
0001
1000
0000
0001
0000
,
0101
0000
0000
0100
0010
0000
0000
0000
1001
0000
0000
1000
0000
0000
0100
0000
,
1001
0000
0000
0001
0000
0000
0100
0000
0110
0000
0000
0110
0000
0000
0001
0000
,
1000
0000
0010
0100
0010
0100
0001
0000
1000
0000
0100
0010
0001
0000
0100
0010
,
2000
0000
0000
0000
3100
0000
0000
0000
1001
0000
0000
0000
0001
1000
0001
1000
,
0010
0000
0100
0000
0001
0000
0000
0000
0011
0000
0000
1000
0000
0000
0100
0000
,
0010
0000
0001
1000
0010
0000
0100
0000
0220
0000
0000
0000
0000
0000
0000
0000
,
0330
0000
0000
0000
0000
0000
0000
0000
1000
0001
0100
0001
1000
0000
0010
0000
,
0100
0010
1000
0001
0100
0000
0001
0000
0010
0001
0010
0100
1000
0000
0001
0000
,
2002
0000
3003
0000
1000
0001
1000
0000
0001
0010
0100
0010
0001
0000
1000
0000
,
0100
1000
0001
0100
0001
0000
1000
0000
1001
0000
0000
1001
0000
0000
0001
0000
,
1000
0000
0010
0000
0100
0010
0100
0000
0001
1000
0100
1000
0001
0000
0010
0000
,
0100
0010
0001
1000
0100
0000
1000
0000
0010
1000
0010
0100
0001
0000
1000
0000
,
2002
0000
3003
0000
1000
0001
0100
0000
0020
0000
0000
0000
0030
0000
1000
0000
,
0001
1000
0100
2000
0000
0000
3001
0010
1000
0010
0001
1000
,
0020
0000
0000
0000
0000
0000
0000
0000
0000
0030
0000
0000
1000
0000
0010
0000
0100
0000
1000
0000
0100
0000
0010
0000
,
1000
0000
0010
0100
0001
0000
0010
0100
1000
0000
0001
0000
1000
0100
0010
0001
,
1000
0000
0010
0100
0001
0000
0010
0000
0100
1000
0000
1000
0100
0000
0010
0000
,
0001
1000
0000
1000
0001
0000
0100
0000
1000
0100
0001
0000
0000
0000
0001
0010
,
1000
0000
0010
0000
0110
0000
0000
0000
0010
0001
0010
0001
1000
0000
0010
1000
,
0001
0000
0100
0010
1000
0000
0100
0000
1000
0001
0000
0001
1000
0000
0100
0000
,
1000
0000
0000
0100
0000
0000
0001
0000
0000
0100
0000
0000
1000
0000
0000
0000
0000
0000
0000
0000
0000
0000
0000
0000
1010
0000
0000
0000
0000
0000
0000
0000
0001
0000
0000
0000
0000
0000
0000
0000
0010
0000
0000
0000
0000
0000
0000
0000
,
0110
0000
1100
0000
1001
0000
0200
0000
0000
0000
0000
0000
,
0000
0000
0000
0000
0300
0000
0000
0000
1001
0000
0000
1000
0100
0000
0010
0100
,
0010
0000
0000
0001
0000
0000
0100
0000
1001
0000
0000
0001
0100
0000
0010
0100
,
0010
0000
0000
1000
0200
0000
0000
0000
0310
0000
0001
0010
0001
0000
1000
0010
,
1000
0000
0000
1000
0001
0000
0010
0001
0010
0000
0000
0110
0000
0000
0100
0000
,
1000
0001
0100
0010
2000
0000
0000
0000
3100
0000
0010
0000
0100
1000
0100
0000
,
1000
0000
0010
0100
0000
0001
1000
0000
0100
0000
0010
0000
0001
0010
0001
0000
,
1000
0000
0010
0100
0001
0100
0010
0000
1000
0000
0001
0000
0010
0001
0010
0000
,
0100
0000
1000
0001
0000
0100
0010
0000
1000
0001
0100
0001
0000
1000
0100
0000
,
0100
0000
0010
0100
0010
0001
1000
0001
0100
0000
0000
0110
0000
0000
0110
0000
,
0010
1000
0001
1000
0010
0000
0100
0000
2002
0000
0000
0000
0000
0000
0000
0000
,
3000
0000
0000
0000
,
0003
0000
0000
0000
,
0001
0000
0100
0010
1000
0010
0100
0001
,
1000
0100
1000
0001
0010
0100
1000
0001
,
0100
0000
0000
0010
0000
0000
0000
0000
;

//--------------- dance-double - forcednature ----------------
#NOTEDATA:;
#STEPSTYPE:dance-double;
#DESCRIPTION:forcednature;
#CREDIT:forcednature;
#DIFFICULTY:Easy;
#METER:9;
#RADARVALUES:0,0,0,0,0;
#NOTES:
00000000
00000000
00000000
00000000
,
00000000
00000000
00000000
00000000
,
00000000
00000000
00000000
00000000
,
00000000
00000000
00000000
00000000
,
00000000
00000000
00022000
00033000
,
00010000
01000000
02200000
03300000
,
00100000
00010000
10010000
10000000
,
00100000
00000000
00000000
00000000
10000000
00000000
00000000
00000000
01000000
00000000
00000000
01000000
00000000
00000000
01000000
00000000
,
00200000
00000000
00000000
00300000
00010000
10000000
00010000
00000000
,
01000000
00000000
00001000
00000000
00010000
00001000
00010000
00000000
,
00000100
00000000
00001000
00000000
00000010
00001000
00000010
00000000
,
00000100
00000000
00000001
00000000
00001001
00000000
00001000
00000001
,
00000000
00000000
00000001
00000000
00001000
00000000
00000000
00000000
00000010
00000000
00000000
00000010
00000000
00000000
00000010
00000000
,
00000000
00010000
00001000
00000000
00022000
00000000
00000000
00000000
,
00033000
00000000
02000000
00000000
,
03000000
00100000
20000000
30000000
,
01000000
00000000
00000000
00000000
00100000
00000000
00000000
00100000
,
00000000
00001000
00020000
00000000
,
00030000
00000000
00011000
00000100
,
00010000
00001000
00011000
01000000
,
00001000
00000000
00010000
00000000
00000010
00000000
00000010
00001000
,
00000000
00001000
00000001
00000000
00000100
00000000
00000010
00000100
,
00000020
00000000
00000030
00000000
,
00000000
00000000
00001001
00000000
,
00001000
00000100
00010000
00001000
,
00100000
00001000
00100000
00000000
00010000
00000000
00000000
00000000
,
01000000
00000000
00010000
00000000
00100000
00000000
00000000
01100000
,
00000000
01000000
10010000
10000000
,
01000000
00010000
00011000
00001000
,
00000100
00000000
00000001
00000000
00000020
00000000
00000000
00000030
,
00000100
00010000
00011000
00001000
,
00100000
00000000
02000000
00000000
00000000
03000000
10000000
01000000
,
10000000
00100000
00000000
02000000
,
00000000
03000000
00010000
01000000
00010000
00000000
00100000
00000000
,
00000000
00000000
00011000
00000000
00001000
00000000
00010000
00001000
,
00010000
00000100
00001000
00000010
,
00000100
00000000
00000001
00000100
00000001
00000000
00000010
00000000
,
00000220
00000330
00000000
00000000
,
00000000
00000000
00000000
00000000
,
00000000
00000000
00000000
00000000
00001000
00000000
00000000
00001000
,
00000100
00010000
00001000
00100000
,
00011000
00000000
01000000
00010000
,
01000000
00000000
00000000
00000000
00100000
00000000
00000000
00000000
10000000
00000000
00000000
10000000
00000000
00000000
00010000
00000000
,
20000000
00000000
30000000
00000000
01000000
00100000
01000000
00000000
,
01100000
00000000
00000000
00000000
00100000
00010000
00100000
00000000
,
00110000
00000000
00001000
00010000
,
00001000
00000010
00000220
00000000
,
00000330
00000000
00000000
00000000
00000100
00001000
00000100
00000000
,
00000010
00000001
00000010
00000000
00000001
00001000
00000001
00000000
,
00000100
00000000
00000000
00000000
00001000
00010000
00001000
00000000
,
01000000
00010000
01000000
00000000
00100000
00000000
01100000
00000000
,
10010000
00000000
00000000
00000000
10000000
01000000
10000000
00000000
,
00010000
01000000
00010000
00000000
00100000
00010000
00100000
00000000
,
00001000
00010000
00022000
00033000
,
00001000
00000000
00000000
00000000
00000010
00000000
00000000
00000000
00000001
00000000
00000000
00000001
00000000
00000000
00000001
00000000
,
00000200
00000300
00000110
00000010
,
00001000
00000100
00011000
00010000
,
00001000
00100000
01100000
01000000
,
10000000
00000000
00010000
00000000
01000000
01000000
00000000
00001000
,
00010000
00000000
00011000
00000000
00001000
00000000
00010000
00001000
,
00010000
00000100
00001000
00000001
,
00000020
00000000
00000000
00000030
00000000
00000000
00000100
00000000
00010000
00000000
00000100
00000000
,
00010000
00000000
00001000
00000000
00010000
00000000
00002000
00000000
00000000
00000000
00000000
00000000
,
00000000
00003000
00022000
00033000
,
00100000
00001000
00022000
00033000
,
00000010
00010000
00011000
00001000
,
01000000
00000000
00000000
00000000
00001000
00000000
00000000
00000000
00010000
00000000
00000000
00010000
00000000
00000000
00010000
00000000
,
00002000
00000000
00000000
00003000
00100000
00010000
00100000
00000000
,
01000000
00000000
00100000
00000000
01000000
10000000
01000000
00000000
,
00100000
00000000
00001000
00000000
00010000
00001000
00010000
00000000
,
00000010
00000000
00001000
00000000
00001001
00000000
00000001
00001000
,
00000001
00000000
00000000
00000000
00000010
00000000
00000000
00000000
00000100
00000000
00000000
00000100
00000000
00000000
00000100
00000000
,
00010000
00001000
00022000
00000000
,
00003000
00000000
00000000
00000000
,
00030000
00000000
00000000
00000000
,
00001000
00100000
00010000
01000000
,
00100000
10000000
01000000
00100000
,
00001000
00000000
00000000
00010000
00000000
00000000
00000000
00000000
;

//--------------- dance-double - forcednature ----------------
#NOTEDATA:;
#STEPSTYPE:dance-double;
#DESCRIPTION:forcednature;
#CREDIT:forcednature;
#DIFFICULTY:Medium;
#METER:13;
#RADARVALUES:0,0,0,0,0;
#NOTES:
00000000
00000000
00000000
00000000
,
00000000
00000000
00000000
00000000
,
00000000
00000000
00000000
00000000
,
00000000
00000000
00000000
00000000
,
00000000
00000000
00011000
00001000
,
00000100
00000000
00000000
00000001
00000000
00000000
00000010
00000000
00000110
00000000
00000000
00000000
00000100
00000000
00000000
00000000
,
00011000
00000000
00200000
00000000
00310000
01000000
00010000
00100000
,
00001000
00000000
00000000
00010000
00000000
00000000
00001000
00000000
00000010
00000000
00000000
00000100
00000000
00000000
00000220
00000000
,
00000000
00000000
00000330
00000000
00000001
00000100
00001000
00000100
,
00001000
00000000
00000000
00010000
00000000
00000000
00001000
00000000
00010000
00000000
00100000
00000000
10000000
00000000
00100000
00000000
,
10000000
00000000
00010000
10000000
00000000
10000000
00010000
00000000
00100000
00000000
01000000
00000000
10000000
00000000
01000000
00000000
,
00010000
00000000
00000000
00001000
00000000
00000000
00010000
00000000
00001000
00000000
00000000
00000100
00000000
00000000
00000001
00000000
,
00000010
00000000
00000100
00000000
00002000
00000000
00000000
00000000
00003010
00000000
00000000
00000010
00000000
00000000
00010000
00000000
,
00000000
00000000
00001000
00010000
00001000
00000000
00010000
00000000
00200000
00000000
00000000
00000000
00000000
00000000
00000000
00000000
,
00300000
00000000
20000000
00000000
,
30000000
00010000
01000000
00010000
02000000
00000000
03000000
00000000
,
00002000
00000000
00023000
00000000
00030200
00000000
00000000
00000320
,
00000000
00000032
00000203
00000000
,
00000300
00000000
00000000
00000000
00000001
00000000
00001000
00000001
00001000
00000000
00000000
00000000
00000010
00000000
00000100
00000000
,
00000000
00001000
00000100
00001000
00010000
00000000
00100000
00010000
,
00000000
00100000
10000000
00000000
10010000
00000000
00010000
00100000
,
01000000
00000000
00100000
00000000
00010000
00000000
00000000
00000000
01000000
00000000
00000000
01000000
00000000
00000000
00001000
00000000
,
00020000
00000000
00000000
00000000
00000000
00000000
00000000
00000000
00030010
00000000
00000000
00000010
00000000
00000000
00000010
00000000
,
00001000
00000000
00000001
00001000
00000002
00000000
00000000
00000000
00000013
00000000
00000100
00000000
00001000
00000000
00000100
00000000
,
00010000
00001000
00010000
00000000
00100000
01000000
00010000
10000000
,
01000000
00100000
00010000
00000000
01000000
00001000
00010000
00000010
,
00010000
00001000
00100000
00000000
00001000
00010000
00000000
00022000
,
00000000
00000000
00000000
00000000
00033000
00000000
00000000
00000000
00001000
00000000
00000000
00001000
00000010
00000000
00000000
00000000
,
00000001
00000000
00000000
00000001
00000010
00000000
00000000
00000000
00000100
00000000
00000000
00000100
00010000
00000000
00010000
00000000
,
00001000
00000000
00000000
00100000
00000000
00000000
00010000
00000000
00000000
00000000
00000000
00000000
01000000
00000000
00010000
00000000
01000000
00000000
00000000
00000000
00010000
00000000
10000000
00000000
,
00010000
00000000
00000000
00010000
00000000
00000000
00100000
00000000
01000000
00000000
00000000
10000000
00100000
00000000
00000000
01000000
,
00020000
00000000
00130000
01000000
00100000
00001000
00010000
00000100
,
00001100
00000000
00000022
00000000
00000033
00000000
00000100
00000001
,
00000100
00000000
00000010
00000100
00000010
00000000
00001000
00000000
00000100
00000000
00000000
00000000
00022000
00000000
00000000
00000000
,
00033000
00000000
00010000
00100000
10000000
00100000
00010000
00001000
,
00010000
01000000
00100000
01000000
10000000
00010000
02000000
00000000
,
03001000
00010000
00001000
00010000
00000000
00000000
00000010
00001000
00000010
00001000
00000001
00001000
,
00000002
00000003
00000000
00000000
,
00000000
00000000
00000000
00000000
,
00000000
00000000
00000000
00000000
00002001
00000000
00000000
00003100
,
00000010
00000000
00001000
00000000
00011000
00000000
00010000
01000000
,
20000000
30100000
10010000
00100000
,
00011000
00000000
00000000
00000000
00000010
00000000
00000000
00000000
00000100
00000000
00000000
00000100
00000000
00000000
00000001
00000000
,
00000010
00000000
00000100
00000010
00000200
00000000
00000000
00000000
00010300
00000000
00001000
00000000
00100000
00000000
00001000
00000000
,
00020000
00000000
00000000
00000000
01030000
00000000
00000000
00000000
01100000
00000000
00000000
00100000
00000000
00000000
00010000
00000000
,
01000000
00000000
01000000
00000000
00001000
00000000
00000000
00000000
00011000
00000000
00000000
00010000
00000000
00000000
00001000
00000000
,
00000020
00000130
00002002
00000000
,
00003003
00000000
00000000
00000000
00000000
00000000
00000000
00000000
00000001
00000000
00000100
00000001
00000100
00000000
00000010
00000000
,
00001000
00000000
00000100
00001000
00000100
00000000
00010000
00000000
00001000
00000000
00010000
00001000
00100000
00000000
00010000
00000000
,
02000000
00000000
00000000
00000000
03000000
00000000
00000000
00000000
00100000
00000000
10000000
00100000
10000000
00000000
01000000
00000000
,
10000000
00000000
00010000
10000000
00010000
00000000
00100000
00000000
00001000
00000000
00000000
00010000
00000000
00000000
00001000
00000000
,
00022000
00000000
00000000
00000000
00033000
00000000
00000000
00000000
00000100
00000000
00001000
00000100
00001000
00000000
00000010
00000000
,
00001000
00000000
00000010
00000100
00000010
00000000
00000100
00000000
00000001
00000000
00000010
00000001
00000010
00000000
00000100
00000000
,
00020000
00031000
00022000
00033000
,
00001000
00000000
00000000
00000000
00010000
00000000
00000000
00000000
00001000
00000000
00000000
00000000
00010000
00000000
00000000
00000000
00000000
00000000
00100000
00000000
00000000
00000000
00000000
00000000
01000000
00000000
00000000
00000000
00000000
00000000
00000000
00000000
00000000
01100000
00000000
00000000
00000000
00000000
00000000
00000000
00000000
00000000
00100000
00000000
00000000
00000000
00000000
00000000
,
20000000
00000000
30000000
00000000
01000000
00100000
00001000
00100000
,
01000000
00010000
00001000
00010000
00000010
00000100
00000001
00000100
,
00001000
00000000
00010000
00000000
00001000
00010000
00001000
00000000
01000000
00000000
00010000
00000000
00100000
00000000
01000000
00000000
,
00010000
00000000
00000000
00000000
00011000
00000000
00000000
00000000
00001000
00010000
00000100
00000000
00000000
00000000
00010000
00001000
,
01000000
00000000
00000000
00000000
01100000
00000000
00000000
00000000
00100000
00000000
10000000
00000000
01000000
10000000
01000000
00000000
,
00100000
00000000
00010000
00000000
00100000
00010000
00100000
00000000
00001000
00000000
00000000
00011000
00000000
00000000
00010000
00000000
,
00000010
00000000
00000000
00000010
00000000
00000000
00000010
00000000
00000000
00000000
00000000
00000000
00001000
00000000
00000000
00000000
00000001
00000000
00000000
00000000
00000100
00000000
00000000
00000000
,
00001000
00000000
00010000
00000000
01000000
00000000
00200000
00000000
00000000
00000000
00000000
00000000
,
00000000
00300000
00011000
00010000
,
01000000
00000000
00000000
10000000
00000000
00000000
00100000
00000000
01100000
00000000
00000000
00000000
01000000
00000000
00000000
00000000
,
00011000
00000000
00000020
00000000
00001030
00000100
00001000
00000010
,
00010000
00000000
00000000
00001000
00000000
00000000
00010000
00000000
00100000
00000000
00000000
01000000
00000000
00000000
02200000
00000000
,
00000000
00000000
03300000
00000000
10000000
01000000
00010000
01000000
,
00010000
00000000
00000000
00001000
00000000
00000000
00010000
00000000
00001000
00000000
00000010
00000000
00000001
00000000
00000010
00000000
,
00000001
00000000
00001000
00000001
00000000
00000001
00001000
00000000
00000010
00000000
00000100
00000000
00000001
00000000
00000100
00000000
,
00001000
00000000
00000000
00010000
00000000
00000000
00001000
00000000
00010000
00000000
00000000
01000000
00000000
00000000
10000000
00000000
,
00100000
00000000
01000000
00000000
00020000
00000000
00000000
00000000
00130000
00000000
00000000
00100000
00000000
00000000
00001000
00000000
,
00000000
00000000
00010000
00001000
00010000
00000000
00000000
00000000
00022000
00000000
00000000
00000000
00000000
00000000
00000000
00000000
,
00030000
00000000
00000000
00000000
,
00003000
00000000
00000000
00000000
,
01000000
00000000
00100000
01000000
00010000
01000000
00001000
00000000
,
00010000
00000010
00001000
00000010
00000100
00000001
00000010
00000100
,
00010000
00000000
00000000
00001000
00000000
00000000
00000000
00000000
;

//--------------- dance-double - forcednature ----------------
#NOTEDATA:;
#STEPSTYPE:dance-double;
#DESCRIPTION:forcednature;
#CREDIT:forcednature;
#DIFFICULTY:Hard;
#METER:16;
#RADARVALUES:0,0,0,0,0;
#NOTES:
00000000
00000000
00000000
00000000
,
00000000
00000000
00000000
00000000
,
00000000
00000000
00000000
00000000
,
00000000
00000000
00000000
00000000
,
00000000
00000000
00000000
00000000
00000000
00000000
00000000
00000000
00011000
00000000
00000000
00010000
00001000
00000000
00100000
00010000
,
00100000
00000000
00000000
00010000
00000000
00000000
01000000
00000000
10010000
00000000
00000000
00010000
01000000
00000000
00001000
00010000
,
00001000
00000000
00000000
00010000
00000020
00000000
00000000
00000000
00001030
00000000
00000100
00001000
00000001
00000000
00000100
00000001
,
00001000
00000000
00000000
00000100
00010000
00000000
00001000
00010000
00001000
00000000
00000000
00011000
00000000
00000000
00010000
00000000
,
00100000
00000000
01000000
00100000
20000000
00000000
00000000
00000000
31000000
00000000
00100000
00000000
01000000
00010000
01000000
00000000
,
00010000
00000000
00001000
00010000
00000000
00001000
00000010
00000000
00000001
00000000
00000100
00000000
00000010
00000100
00000010
00000000
,
00000100
00000000
00001000
00010000
00001000
00010000
00001000
00000000
00010000
00000000
00100000
00000000
10000000
00100000
10000000
00000000
,
01000000
00000000
00100000
00010000
00000000
01000000
00010000
00000000
00100000
00001000
00010000
00001000
00000000
00001000
00010000
00000000
,
00000100
00000000
00001000
00000100
00001000
00000001
00000100
00000001
00000010
00000000
00000000
00000110
00000000
00000000
00000100
00000000
,
00010000
00001000
00100000
00001000
00010000
00000000
01000000
00000000
20000000
00000000
00000000
00000000
00000000
00000000
00000000
00000000
,
30000000
00000000
00200000
00000000
,
00300000
10000000
00100000
10000000
02000000
00000000
03000000
00000000
,
00020000
00000000
00032000
00000000
00003020
00000000
00000000
00000230
,
00000000
00000000
00000000
00000000
00000320
00000000
00000000
00000000
00000031
00000000
00000000
00001000
00000001
00000000
00000100
00000000
,
00000010
00001000
00000100
00010000
00002000
00000000
00000000
00000000
01003000
00000000
00010000
00000000
01000000
00000000
00100000
00000000
,
10000000
01000000
00010000
00001000
00011000
00000000
00010000
00000010
,
00000010
00000000
00001000
00000000
00000100
00001000
00000100
00001000
00000001
00000000
00000100
00000010
00000100
00000010
00001000
00000010
,
00001000
00000000
00000100
00010000
00000100
00010000
00001000
00010000
00001000
00000000
01000000
00010000
01000000
00010000
10000000
01000000
,
00200000
00000000
00000000
00000000
00000000
00000000
00000000
00000000
00301000
00000000
00010000
00001000
00000000
00010000
00001000
00000000
,
00000010
00000000
00000100
00000010
00000002
00000000
00000000
00000000
00000103
00000000
00000010
00000000
00001000
00000100
00010000
00000100
,
00001000
00000000
00000010
00000000
00010000
00000000
00001000
00010000
00100000
00000000
01000000
00000000
00010000
01000000
00001000
01000000
,
00010000
00000000
00100000
00000000
00001000
00000000
00010000
00001000
00000010
00000000
00000100
00000000
00001000
00000100
00010000
00000100
,
00001000
00000000
00000000
00000001
00000010
00000000
00000100
00000000
00000110
00000000
00001000
00000000
00000000
00000000
00020010
00000000
,
00000000
00000000
00030100
00000000
00010000
00000000
00001000
00100000
00010000
00000000
01000000
00010000
00100000
00000000
01000000
10000000
,
00100000
00000000
01000000
00000000
00001000
00010000
00001000
00000000
00000010
00000000
00000100
00001000
00000010
00000000
00000100
00000001
,
00000010
00000000
00000000
00000000
00000000
00000000
00000100
00000000
00000000
00000000
00000000
00000000
00010000
00000000
00000000
00001000
00000000
00000000
00010000
00000000
00000000
00000000
00000000
00000000
00100000
00000000
00000000
00000000
01000000
00000000
00000000
00000000
00100000
00000000
00000000
00000000
01000000
00000000
00000000
00000000
00010000
00000000
00000000
00000000
10000000
00000000
00000000
00000000
,
00100000
00000000
00000000
01100000
00000000
00000000
01000000
00000000
00001000
00000000
01000000
00010000
00100000
00000000
00001000
00010000
,
00001000
00000000
00010000
00000100
00002000
00000000
00000000
00000000
00003010
00000000
00000100
00000010
00000100
00000000
00000010
00000000
,
00000001
00000000
00000010
00001000
00000020
00000000
00000000
00000000
00000130
00000000
00001000
00000000
00010000
00000000
01000000
00000000
,
00100000
00000000
01000000
00000000
10000000
00010000
10000000
00100000
01000000
00000000
00010000
00000000
00210000
00000000
00000000
00000000
,
00000000
00000000
00000000
00000000
00301000
00000000
00010000
00001000
00000010
00000000
00001000
00010000
00000010
00000000
00001000
00000000
,
00000100
00000000
00000000
00000000
00000000
00000000
00000010
00000000
00000000
00000001
00000000
00000000
00000010
00000000
00000000
00000000
00000000
00000000
00000100
00000000
00000000
00001000
00000000
00000000
00000001
00000000
00000000
00000000
00000000
00000000
00000100
00000000
00000000
00000000
00000000
00000000
00001000
00000000
00000000
00000000
00010000
00000000
00000000
00000000
00100000
00000000
00000000
00000000
,
01000000
00100000
00010000
00001000
01000000
00001000
00010000
00000100
00010000
00001000
00000010
00000001
,
00000200
00000300
00000000
00000000
,
00000000
00000000
00000000
00000000
,
00000000
00000000
00000000
00000000
00000000
00000000
00000000
00000000
00011000
00000000
00000000
00000000
00010000
00000000
00001000
00100000
,
00010000
00000000
00000000
01000000
00000000
00000000
00100000
00000000
01100000
00000000
00000000
01000000
00010000
00000000
10000000
00000000
,
10010000
00000000
00000000
00010000
00100000
00000000
00000000
00000000
00011000
00000000
00000000
00001000
00000000
00000000
00000100
00000000
,
00000110
00000000
00000000
00000001
00000000
00000000
00000010
00000000
00001001
00000000
00000000
00001100
00000000
00000000
00010000
00000000
,
00001000
00000000
00100000
00010000
10000000
00010000
00100000
00000000
01000000
00000000
10000000
00100000
01000000
00000000
00010000
00100000
,
02000000
00000000
00000000
00000000
03010000
00000000
00000000
00000000
00011000
00000000
00000000
00000000
00001000
00010000
00000100
00001000
,
00000010
00000000
00000100
00000000
00000101
00000000
00000000
00000000
00000001
00000010
00000000
00000010
00000100
00000000
00010000
00000000
,
00011000
00000000
00001000
00100000
00010000
00000000
01000000
00000000
02200000
00000000
00000000
00000000
00000000
00000000
00000000
00000000
,
03300000
00000000
00000000
00000000
00000000
00000000
00000000
00000000
00100000
10000000
00010000
10000000
00100000
00000000
01000000
00000000
,
00001000
00010000
00001000
00100000
00010000
00000000
01000000
00000000
00001000
00010000
00000100
00001000
00000100
00000000
00000010
00000000
,
00002002
00000000
00003003
00000000
00001000
00000001
00001000
00000000
00000010
00000100
00000001
00000100
00000010
00000000
00001000
00000000
,
00000100
00010000
00001000
00100000
00001000
00000000
01000000
00000000
01010000
00000000
00000000
01010000
00000000
00000000
00010000
00000000
,
10000000
00000000
11000000
00000000
00000000
00010000
00100000
00000000
00001000
00010000
00000100
00010000
00001000
00000000
00000010
00000000
,
00000100
00000010
00000001
00001000
00000100
00000000
00010000
00000000
00001000
01000000
00010000
01000000
00001000
00000000
00010000
00000000
,
00022000
00000000
00033000
00000000
00001000
00010000
00000010
00000000
00002000
00000000
00000000
00000000
00003000
00000000
00000001
00001000
,
00000001
00000000
00000100
00000000
00001000
00000000
00000100
00000000
00000000
00001000
00000000
00000000
00010000
00000000
00100000
00000000
00010000
00000000
00100000
00000000
10000000
00000000
00010000
00000000
,
20020000
00000000
00000000
00000000
00000000
00000000
00000000
00000000
00000000
30030000
00000000
00000000
00010000
00000000
00100000
00000000
01000000
00000000
00010000
00000000
01000000
00000000
00100000
00000000
,
00010000
00000000
01000000
00001000
00010000
00000000
00000100
00010000
00001000
00000000
00010000
00000000
00000010
00001000
00000010
00000100
,
00000001
00000000
00000010
00000100
00001000
00000000
00000010
00000000
00010000
00001000
00000000
00001000
00010000
00000000
00100000
00000000
,
10000000
00010000
01000000
00010000
10000000
00000000
00000000
00000000
01000000
00010000
00001000
00000000
00000000
00000000
00000100
00001000
,
00010000
00000000
00001000
00010000
00000020
00000000
00000000
00000000
00000130
00000001
00001000
00000001
00000100
00000000
00000010
00001000
,
00000100
00000000
00010000
00001000
00010000
00000000
00100000
00000000
01000000
00010000
00000000
00010000
10000000
00000000
01000000
00000000
,
00100000
00000000
00000000
00001000
00000000
00000000
00010000
00000000
00000000
00001000
00000000
00000000
01000000
00000000
00000000
00000000
00000000
00000000
00000000
00000000
00000000
00000000
00000000
00000000
00011000
00000000
00000000
00000000
00000000
00000000
00000000
00000000
00001000
00000000
00000000
00000000
00000000
00000000
00000000
00000000
00000010
00000000
00000000
00000000
00000000
00000000
00000000
00000000
,
00000110
00000000
00000100
00000000
00010000
00000000
00022000
00000000
00000000
00000000
00000000
00000000
,
00000000
00000000
00000000
00000000
00033000
00000000
00000000
00000000
00011000
00000000
00000000
00001000
00010000
00000000
00000010
00001000
,
00000100
00000000
00000000
00000010
00000000
00000000
00000100
00000000
00001001
00000000
00000000
00001000
00000100
00000000
00010000
00001000
,
00100000
00000000
00000000
00010000
01000000
00010000
01000000
00000000
00100000
00000000
10000000
00010000
00100000
00000000
00010000
10000000
,
00100000
00000000
00000000
01000000
00001000
00000000
00010000
00001000
00010000
00000000
00000000
00011000
00000000
00000000
00001000
00000000
,
00000010
00000100
00001000
00000100
00000020
00000000
00000000
00000000
00000031
00000000
00000100
00000000
00000010
00001000
00000010
00000000
,
00000100
00000000
00001000
00010000
00000000
00010000
00001000
00000000
00100000
00000000
00010000
00000000
01000000
00100000
01000000
00000000
,
00100000
00000000
00010000
00001000
01000000
00001000
00010000
00000000
00001000
00000000
00000100
00000000
00000001
00000010
00000001
00000000
,
00000100
00000000
00000010
00001000
00000000
00000100
00001000
00000000
00000010
00010000
00001000
00000000
00011000
00000000
00010000
00000000
,
00100000
00000000
01000000
00010000
10000000
01000000
10000000
00010000
00100000
00000000
00000000
01100000
00000000
00000000
01000000
00000000
,
00010000
00001000
00010000
00000100
00001000
00000000
00000010
00000000
00002002
00000000
00000000
00000000
00000000
00000000
00000000
00000000
,
00000003
00000000
00000000
00000000
,
00003000
00000000
00000000
00000000
,
00000001
00000000
00000100
00000010
00001000
00000010
00000100
00001000
,
00010000
00100000
01000000
00100000
10000000
00010000
10000000
01000000
,
00010000
00000000
00000000
00001000
00000000
00000000
00000000
00000000
;
