#VERSION:0.83;
#TITLE:セロトニン;
#SUBTITLE:;
#ARTIST:U1 overground;
#TITLETRANSLIT:Serotonin;
#SUBTITLETRANSLIT:;
#ARTISTTRANSLIT:;
#GENRE:ORBITALICTRO;
#CREDIT:;
#MUSIC:Serotonin.ogg;
#BANNER:Serotonin.png;
#BACKGROUND:Serotonin-bg.png;
#CDTITLE:./CDTitles/bm IIDX 23 copula.png;
#SAMPLESTART:58.589;
#SAMPLELENGTH:15.000;
#SELECTABLE:YES;
#OFFSET:0.578;
#BPMS:0.000=150.000
,129.000=300.000
,129.750=150.000
,161.000=75.000
,177.000=150.000
;
#STOPS:33.750=0.800
,129.000=0.050
,129.250=0.050
,129.500=0.049
,160.000=0.400
;
#TIMESIGNATURES:0.000=4=4,
32.000=2=4,
34.000=4=4,
158.000=3=4,
161.000=4=4
;
#DISPLAYBPM:75.000:150.000;
#BGCHANGES:0.000=Serotonin.mp4=1.000=0=0=0=StretchNoLoop====,
99999.000=-nosongbg-=1.000=0=0=0=StretchNoLoop====
;
#FGCHANGES:;

//--------------- dance-single - forcednature ----------------
#NOTEDATA:;
#STEPSTYPE:dance-single;
#DESCRIPTION:forcednature;
#CREDIT:forcednature;
#DIFFICULTY:Beginner;
#METER:3;
#RADARVALUES:0,0,0,0,0;
#NOTES:
0000
0000
0000
0000
,
0000
0000
0000
0000
,
0000
0000
0000
0000
,
0000
0000
0000
0000
,
0000
0000
0000
0000
,
1000
0000
0000
0000
,
0100
0000
0000
0000
,
0010
0000
0000
0000
,
0001
0000
0100
0000
,
0000
0000
0010
0000
,
0000
0000
1000
0000
,
0000
0000
0001
0000
,
0000
0000
0010
0000
,
0000
0000
0001
0000
,
0000
0000
0100
0000
,
0000
0000
0001
0000
,
0000
0000
1000
0000
,
0000
0000
0100
0000
,
0000
0000
1000
0000
,
0000
0000
0010
0000
,
0000
0000
0100
0000
,
0000
0000
0001
0000
,
0000
0000
0010
0000
,
0000
0000
0100
0000
,
0000
0000
1001
0000
,
0000
0000
0000
0000
,
0000
0000
0001
0000
,
0000
0000
0100
0000
,
0000
0000
0001
0000
,
0000
0000
0001
0000
,
0000
0000
1000
0000
,
0000
0000
1000
0000
,
0000
0000
1001
0000
,
0000
0000
0000
0000
,
0000
0000
0001
0000
,
0000
0000
0010
0000
,
0000
0000
0001
0000
,
0000
0000
0100
0000
,
0000
0000
0010
0000
,
0000
0000
1000
0000
,
0000
0000
0100
0000
,
0010
0000
0001
0000
,
1000
0000
0100
0000
,
0001
0000
0010
0000
,
0001
0000
0000
0000
,
0000
0100
0000
0000
,
0000
0010
0000
0000
,
0000
1000
0000
0000
,
0000
0001
0000
0000
,
0000
0010
0000
0000
,
0000
0100
0000
0000
,
0000
0110
0000
0000
,
0000
1001
0000
0000
,
0000
0100
0000
0010
,
0000
0110
0000
0000
,
0000
0100
0000
0010
,
0000
1001
0000
0000
,
0000
0010
0000
0100
,
0000
0110
0000
0000
,
0000
0010
0000
0100
,
0000
1001
0000
0000
,
0000
1000
0000
0001
,
0000
0110
0000
0000
,
0000
0100
0000
0010
,
0000
1001
0000
0000
,
0000
0001
0000
1000
,
0000
0110
0000
0000
,
0000
0010
0000
0100
,
0000
1001
0000
0000
;

//--------------- dance-single - forcednature ----------------
#NOTEDATA:;
#STEPSTYPE:dance-single;
#DESCRIPTION:forcednature;
#CREDIT:forcednature;
#DIFFICULTY:Easy;
#METER:6;
#RADARVALUES:0,0,0,0,0;
#NOTES:
0000
0000
0000
0000
,
0000
0000
0000
0000
,
0000
0000
0000
0000
,
0000
0000
0000
0000
,
0000
0000
0000
0000
,
0001
1000
0100
1000
,
0010
1000
0100
1000
,
0001
0010
0100
1000
,
0010
0100
0000
0001
,
1000
0000
0010
0010
,
1000
0001
0200
0000
,
0300
0000
0010
1000
,
0001
0010
0200
0000
,
1000
0300
1000
0001
,
1000
0000
0010
0100
,
0001
0100
0010
1000
,
0001
0000
1001
0000
,
1000
0100
0010
0000
,
0100
1000
0010
0000
,
0100
0001
1000
0001
,
0100
0010
1000
0000
,
0001
0010
0100
0000
,
0010
0001
1000
0010
,
1000
0001
0200
0000
,
0310
0010
1001
0000
,
1000
0100
1000
0010
,
1000
0001
1000
0000
,
0001
0100
0001
0010
,
0001
1000
0100
0100
,
1000
1000
0010
0010
,
0100
0100
0001
0001
,
0010
0010
0100
0100
,
1000
0000
1001
0000
,
0001
0100
0001
1000
,
0010
0000
1000
0100
,
1000
0001
0010
0100
,
0010
0000
1001
0000
,
0001
0100
0001
1000
,
0010
0000
0100
0001
,
0010
0001
1000
0001
,
0000
0000
0110
0000
,
1001
0000
0000
0000
1000
1000
0000
0000
,
0001
0001
0000
0000
0110
0000
0000
0000
,
1001
0000
0000
0000
0010
0010
0000
0000
,
0100
0010
0100
0000
0000
0000
0001
0000
,
1000
0001
0000
0010
,
0001
1000
1000
0010
,
1000
0001
0100
0010
,
0000
1000
0100
1000
,
0000
0001
0100
0001
,
0000
0010
0100
1000
,
0100
0010
0010
0001
,
1000
1001
0000
0001
,
0100
1000
0100
0001
,
1000
1001
0000
1000
,
0100
0001
0100
1000
,
0001
1001
0000
0001
,
0010
1000
0010
0001
,
1000
1001
0000
1000
,
0010
0001
0010
1000
,
0001
1001
0000
1000
,
0100
0010
1000
0010
,
0100
1000
1000
0001
,
0100
0010
0001
0010
,
0100
0001
0001
1000
,
0010
0001
0010
1000
,
0001
0100
0100
0001
,
0010
1000
0010
0001
,
1000
2002
0000
0000
,
0000
0000
0000
0000
,
0000
3003
0000
0000
;

//--------------- dance-single - forcednature ----------------
#NOTEDATA:;
#STEPSTYPE:dance-single;
#DESCRIPTION:forcednature;
#CREDIT:forcednature;
#DIFFICULTY:Medium;
#METER:11;
#RADARVALUES:0,0,0,0,0;
#NOTES:
0000
0000
0000
0000
,
0000
0000
0000
0000
,
0000
0000
0000
0000
,
0000
0000
0000
0000
,
0000
0000
0000
0000
,
1000
0000
0000
0100
0000
0000
1000
0000
0000
1000
0000
0000
0010
0000
0000
0000
,
0100
0000
0000
0001
0000
0000
0010
0000
0000
0010
0000
0000
0100
0000
0000
0000
,
0010
0000
0000
0001
0000
0000
0100
0000
0000
0100
0000
0000
0001
0000
0000
0000
,
1000
0000
0000
0001
0000
0000
1001
0000
1100
0000
0000
0000
0010
0000
0000
0000
,
1001
0000
0000
0000
0001
0000
0010
0001
,
0010
0100
1000
0001
,
1001
0000
0000
0000
1000
0000
0010
1000
,
0010
0000
0100
0000
0110
0000
0001
1000
,
0001
0000
0010
0000
0100
0000
1000
0100
,
1000
0000
0010
0000
0100
0001
1000
0000
,
0100
1000
0001
0000
0010
0000
0110
0000
,
0100
1000
0010
0000
0110
0000
0001
1000
,
0000
0010
0010
1000
0000
0001
0100
0000
,
0010
0000
2000
0000
3100
0000
1000
0001
,
0000
0010
0001
0010
0000
0100
1000
0000
,
0010
0000
0100
0000
0110
0000
0001
1000
,
0000
0001
0001
0010
0000
0100
0010
0000
,
0002
0000
2003
0000
3010
1000
0010
0000
,
0100
0001
0100
0000
0110
0000
0110
0000
,
1000
0000
0000
0000
0001
0000
0000
0000
0011
0000
0000
0000
1000
0000
0000
0100
,
1000
0000
0010
0000
0100
0001
0100
0000
,
0010
0000
1000
0000
0010
0000
0000
0000
0100
0000
0000
0001
0010
0000
0000
0000
,
0001
0000
1000
0000
0100
0010
0001
0000
,
0100
0010
1000
0000
0001
0010
0000
0010
,
0000
0100
0000
0100
0000
1000
0000
1000
,
0000
0001
0000
0001
0000
0100
0000
0010
,
0000
1000
0000
0001
0000
0010
0000
0100
,
0000
1000
0000
0000
0001
0100
0001
0100
,
0010
0000
1000
0000
0001
0010
0100
0000
,
0010
0010
0001
0000
1000
0100
1000
0100
,
0010
0000
0001
0000
1000
0010
0100
0000
,
0010
0010
1000
0000
1001
0000
1100
0000
,
0001
0000
0010
0000
0100
0010
0001
0000
,
0100
0100
0001
0000
1000
0000
0010
0000
,
0100
0010
0100
0000
0001
1000
0100
0000
,
0000
0000
0000
0000
0010
0000
0000
0001
1000
0000
1000
0000
0010
0100
0000
0100
,
0010
0000
1000
0000
0001
0000
0001
0010
0100
0000
0010
0000
0110
0000
1000
0000
,
0001
0100
0000
0100
0001
0000
1000
0000
0010
0100
0010
0000
1000
0000
0000
0000
,
0100
0000
0000
1000
0000
0000
0100
0000
0000
0000
0000
0000
0110
0000
0000
0000
0000
0000
0000
0000
0000
0000
0000
0000
0001
0000
0000
0000
0001
0000
0000
0000
1000
0000
0000
0000
0001
0000
0000
0000
0000
0000
0000
0000
0000
0100
0000
0000
,
0001
0010
1001
0000
1000
0000
0100
0010
,
0001
0000
1000
0010
0100
0000
0001
0000
,
1000
0000
0100
0010
0001
0000
0100
0010
,
1000
0000
0001
0001
0001
0000
0010
0000
,
0110
0000
1000
0100
0010
0000
0100
1000
,
0001
0000
0100
0010
1000
0000
0001
0010
,
0100
0000
0010
0001
0010
0001
1000
0000
,
0100
0000
0000
0000
0010
0000
0000
0010
0000
0000
0100
0000
1000
0000
0000
0000
,
1001
0000
0000
0000
0001
0000
0000
0100
0000
0000
1000
0000
0000
0100
0000
0000
,
0001
0000
0011
0000
0110
0000
1000
0100
,
0010
0000
0000
0000
0001
0000
0000
1000
0000
0000
0010
0000
0000
0001
0000
0000
,
0010
0000
1000
0001
0100
0000
0001
1000
,
0100
0000
0000
0000
0010
0000
0000
1000
0000
0000
0010
0000
0000
0001
0000
0000
,
0010
0000
0100
1000
0010
0000
0100
0001
,
0010
0000
0000
0000
0001
0000
0000
0100
0000
0000
1000
0000
0000
0100
0000
0000
,
0001
0000
0000
0000
1000
0000
0000
1000
0000
0000
0010
0000
0000
0000
0100
0000
,
0001
0000
0011
0000
1000
0100
0010
0100
,
1000
0000
0010
0100
0001
0100
0010
1000
,
0001
0000
0011
0000
1000
0010
0100
1000
,
0100
0000
0001
1000
0010
1000
0001
0010
,
0100
0000
0110
0000
0010
0001
1000
0010
,
0100
0000
0001
1000
0100
0001
0100
1000
,
0001
0000
0010
0001
0010
0000
0100
1000
,
0100
0000
0000
0000
1000
0000
0010
0000
0100
0000
0001
0000
0010
0000
0000
0100
,
0010
2002
0000
0000
,
0000
0000
0000
0000
,
0000
3003
0000
0000
;

//--------------- dance-single - forcednature ----------------
#NOTEDATA:;
#STEPSTYPE:dance-single;
#DESCRIPTION:forcednature;
#CREDIT:forcednature;
#DIFFICULTY:Hard;
#METER:15;
#RADARVALUES:0,0,0,0,0;
#NOTES:
0000
0000
0000
0000
,
0000
0000
0000
0000
,
0000
0000
0000
0000
,
0000
0000
0000
0000
,
0000
0000
0000
0000
,
1000
0000
0000
1000
0000
0000
0100
0000
0000
1000
0000
0000
0001
0000
0010
0000
,
0001
0000
0000
0001
0000
0000
0100
0000
0000
0010
0000
0000
1000
0000
0001
0000
,
0010
0010
0001
0010
0100
0100
1000
0100
,
1000
0001
0000
0100
0010
0000
1000
0001
1100
0000
0000
0000
0101
0000
0000
0000
,
0001
0010
1000
0000
0010
0001
0100
0001
,
1000
0010
0001
0000
0011
0000
1010
0000
,
1000
0000
0100
0000
0001
0000
0000
0000
0100
0000
1000
0000
0010
1000
0010
0000
,
0100
0001
0010
0000
0101
0000
0100
1000
,
0100
0000
0001
0100
0001
0000
0000
0000
1000
0000
0010
0000
0001
0000
0000
0000
,
0010
1000
0010
0000
2000
0000
0000
0000
3200
0000
0000
0000
0310
0000
0001
0000
,
0100
0000
0010
0100
0010
0000
1000
0000
0002
0000
0000
0000
0103
0000
0010
0000
,
1000
0100
0000
1000
0001
0000
0010
0000
0110
0000
0000
1000
0100
0000
0000
0010
,
0100
0000
1000
0001
0010
0001
0010
0001
0000
0000
0001
0000
0100
0000
1000
0000
,
0100
0000
0001
0000
1000
0000
0000
0000
0010
0000
0000
0100
0001
0000
0000
1000
,
0010
0100
0001
0010
0002
0000
1003
0100
,
0001
0000
0100
0000
0010
0000
0000
0000
1001
0000
0000
0001
0100
0000
0000
0010
,
1000
0000
0100
1000
0100
1000
0001
0010
0000
0000
0001
0000
0100
0000
0000
0000
,
0010
1000
0000
1000
0010
0000
0000
0000
0100
0001
0100
0000
0001
0000
0000
0000
,
0010
0001
0010
0200
0000
0000
1300
0000
0001
0000
0000
0100
0010
0000
0000
1000
,
0001
0000
0100
0010
0100
0000
0010
0000
1001
0000
0000
0000
1000
0000
0100
1000
,
0001
0000
0010
0000
0200
0000
0000
0000
0301
0000
0100
0000
1000
0100
1000
0000
,
0001
0000
0010
0000
0100
0000
0000
0000
0010
0000
0000
0001
0100
0000
0010
0100
,
0010
1000
0100
1000
0000
0001
0010
1000
,
0010
0000
0001
0010
0001
0000
0100
0000
0020
0000
0000
0000
1030
0000
0100
1000
,
0100
0000
0010
0000
0001
0000
0100
0000
0001
0000
0010
0000
1000
0000
0010
0001
,
0010
0000
0001
0000
0100
0000
0010
0000
1000
0000
0100
1000
0000
0000
0010
0100
,
0000
0000
0001
0010
0000
0000
0001
1000
0000
0000
0010
0100
0010
0100
0010
0000
,
1000
0000
0001
0000
0010
0001
0010
0000
0200
0000
0000
0000
1300
0000
0100
1000
,
0001
0000
0010
0000
0100
0010
0001
0000
1000
0000
1000
0000
0010
0100
0001
0000
,
1000
0000
0010
1000
0010
0000
0000
0000
0100
0000
0001
1000
0001
0000
0010
0000
,
0001
1000
0000
0100
1000
0100
1000
0000
0010
0000
0100
0000
0001
0010
0001
0000
,
0010
0000
0000
0100
1000
0000
0000
0000
0011
0000
0000
0010
1000
0000
0000
0010
,
0001
0000
0100
0000
0000
0100
0010
0000
1000
0100
0010
0000
0001
0100
0010
0000
,
1000
0001
0100
0001
1000
0000
0000
0000
0001
0000
0010
0000
0100
0000
0010
0000
,
0001
0100
0000
0010
0100
0010
1000
0000
0001
0010
0100
0000
1000
0010
0100
0000
,
0000
0000
0000
0000
0000
0000
0000
0000
0001
0000
0010
0000
0000
0000
0001
0100
0001
0000
1000
0000
0020
0000
0000
0000
0130
0001
0100
0001
0100
0000
0000
0000
,
0010
1000
0000
1000
0200
0000
0000
0000
1300
0000
0001
0000
0000
0000
0001
0010
0001
0000
0100
0000
0010
0000
0000
0000
1000
0000
0001
0000
0000
0000
0010
0001
,
0010
0000
0000
0100
0010
0200
0000
0000
1300
0000
0010
0000
0000
0000
1000
0001
1000
0000
0001
0000
0200
0000
0000
0000
0310
1000
0010
1000
0010
0000
0100
0000
,
0001
0000
0000
0020
0000
0000
0000
0000
0000
0000
0000
0000
0130
0000
0000
2000
0000
0000
0000
0000
0000
0000
0000
0000
3010
0000
0000
0000
0000
0000
0000
0000
0000
0000
0000
0000
0010
0000
0000
0000
0000
0000
0000
0000
0000
0000
0000
0000
1000
0000
0000
0000
0100
0000
0000
0000
0010
0000
0000
0000
0100
0000
0000
0000
0010
0000
0000
0000
0001
0000
0000
0000
1000
0000
0000
0000
0000
0000
0010
0000
0000
0000
0000
0000
0000
0000
0000
0000
0000
0000
0100
0000
0000
0010
0000
0000
,
0100
0000
0001
0000
0010
0001
0000
0000
1001
0000
0000
0000
0000
0000
0000
0000
0101
0000
0000
0000
0000
0000
0000
0000
0001
0000
0000
0000
0010
0000
0000
0000
,
1000
0010
0001
0000
1100
0000
1000
0010
,
0001
0000
0010
0000
1000
0000
0000
0010
0100
0000
0001
0100
0000
0010
1000
0000
,
0100
1000
0000
0000
0001
1000
0001
1000
0001
0000
0010
0000
0001
0100
0000
0100
,
0010
0000
1000
0100
0001
0100
1000
0001
,
1000
0010
1000
0000
0001
0000
0100
0000
1000
0000
0100
0000
0001
0000
0010
0000
,
0001
1000
0001
0000
0010
0000
0100
0000
1000
0000
0010
0000
0100
0000
0001
0000
,
0010
0100
0000
0100
0010
0000
0000
0110
0000
0000
1000
0000
0100
0000
1100
0000
,
1002
0000
0000
0000
0013
0100
0000
1000
0001
0000
0100
0010
0000
1000
0010
1000
,
0002
0000
0000
0000
0013
0100
0000
1000
0100
0000
0010
0001
0000
0100
0001
0000
,
1000
0000
0010
0000
1000
0001
0000
0010
0001
0000
0100
0010
0000
1000
0100
1000
,
0002
0000
0000
0000
0013
0100
0000
0010
0100
0000
1000
0100
0000
0010
0001
0010
,
0001
1000
0010
0000
0100
0010
0000
1000
0010
0000
0100
0001
0000
0010
0001
1000
,
0002
0000
0000
0000
0103
0010
0000
1000
0010
0000
1000
0100
0000
0001
0100
0000
,
1000
0000
0001
0000
0010
0001
0000
0100
0010
0000
1000
0100
0000
1000
0001
1000
,
0020
0000
0000
0000
0130
0001
0000
0100
0001
0000
1000
0010
2000
0000
0000
0000
,
3002
0000
0000
0000
0013
0100
0010
0100
1000
0100
1000
0001
0000
0010
0001
0010
,
0002
0000
0000
0000
1003
0010
0100
0000
0001
0010
0100
0000
1000
0001
1000
0001
,
2000
0000
0000
0000
3010
0100
0010
0100
0001
0100
0001
1000
0000
0010
1000
0001
,
2000
0000
0000
0000
3001
0010
0100
0000
1000
0010
0100
0000
0001
1000
0100
0000
,
1000
0001
0100
0000
0010
1000
0010
1000
0001
0000
0010
0100
0000
1000
0100
0010
,
0002
0000
0000
0000
1003
0010
0100
0010
0100
0000
0001
0000
1000
0100
0010
0000
,
0001
1000
0010
0000
0100
0001
0100
0001
1000
0000
0010
0000
0100
0010
0100
0010
,
1000
0000
0001
0000
0010
0001
0010
0001
1000
0100
1000
0000
0010
0100
0001
0100
,
0010
1000
0001
0100
0020
0000
0000
0000
0000
0000
0000
0000
0000
0000
0000
0000
,
0000
0000
0000
0000
,
0000
0030
0000
0000
;

//--------------- dance-double - forcednature ----------------
#NOTEDATA:;
#STEPSTYPE:dance-double;
#DESCRIPTION:forcednature;
#CREDIT:forcednature;
#DIFFICULTY:Easy;
#METER:7;
#RADARVALUES:0,0,0,0,0;
#NOTES:
00000000
00000000
00000000
00000000
,
00000000
00000000
00000000
00000000
,
00000000
00000000
00000000
00000000
,
00000000
00000000
00000000
00000000
,
00000000
00000000
00000000
00000000
,
00010000
00001000
00100000
00001000
,
00010000
00000100
00010000
00001000
,
01000000
00010000
10000000
00100000
,
01000000
01000000
00000000
00010000
,
10000000
00000000
01000000
01000000
,
00100000
00001000
00020000
00000000
,
00030000
00000000
00000100
00001000
,
00000001
00001000
00000020
00000000
,
00000100
00000030
00001000
00000001
,
00001000
00000000
00000100
00010000
,
00001000
00010000
00001000
00100000
,
00010000
00000000
10010000
00000000
,
10000000
00100000
01000000
00000000
,
00010000
00100000
00001000
00000000
,
00010000
00000100
00001000
00000100
,
00000010
00000001
00001000
00000000
,
00000010
00010000
00001000
00000000
,
01000000
00010000
10000000
00100000
,
10000000
00010000
00200000
00000000
,
00301000
00001000
00011000
00000000
,
00000100
00001000
00000010
00001000
,
00000001
00000100
00000001
00000000
,
00000010
00000100
00001000
00000100
,
00010000
00001000
01000000
01000000
,
00010000
00010000
10000000
10000000
,
00100000
00100000
10000000
01000000
,
00010000
00001000
00000100
00000001
,
00000010
00000000
00001001
00000000
,
00001000
00000100
00010000
00001000
,
00100000
00000000
00010000
01000000
,
00010000
10000000
00100000
01000000
,
00100000
00000000
10010000
00000000
,
00010000
00100000
00001000
00001000
,
00010000
00000000
00000100
00001000
,
00000010
00001000
00000001
00000010
,
00000000
00000000
00000110
00000000
,
00001001
00000000
00000000
00000000
00001000
00001000
00000000
00000000
,
00000100
00010000
00000000
00000000
00011000
00000000
00000000
00000000
,
10010000
00000000
00000000
00000000
10000000
10000000
00000000
00000000
,
00100000
01000000
00100000
00000000
00000000
00000000
10000000
00000000
,
00010000
01000000
00000000
00001000
,
00010000
00000100
00000100
00001000
,
00000100
00000010
00000001
00000010
,
00000000
00000100
00010000
00001000
,
00000000
01000000
00001000
00010000
,
00000000
00001000
00100000
00010000
,
00100000
01000000
01000000
10000000
,
01000000
10010000
00000000
00010000
,
01000000
00001000
00001000
00010000
,
00000010
00011000
00000000
00000100
,
00001000
00000001
00000010
00000001
,
00001000
00001001
00000000
00001000
,
00000100
00010000
00001000
01000000
,
00010000
10010000
00000000
10000000
,
00100000
10000000
00010000
00100000
,
00001000
00011000
00000000
00000100
,
00001000
00000010
00000100
00000001
,
00000010
00000100
00000100
00010000
,
00001000
00100000
00010000
00100000
,
01000000
10000000
10000000
00100000
,
01000000
00001000
00010000
00000010
,
00000100
00000001
00000001
00000010
,
00000100
00010000
00001000
00100000
,
00010000
20020000
00000000
00000000
,
00000000
00000000
00000000
00000000
,
00000000
30030000
00000000
00000000
;

//--------------- dance-double - forcednature ----------------
#NOTEDATA:;
#STEPSTYPE:dance-double;
#DESCRIPTION:forcednature;
#CREDIT:forcednature;
#DIFFICULTY:Medium;
#METER:11;
#RADARVALUES:0,0,0,0,0;
#NOTES:
00000000
00000000
00000000
00000000
,
00000000
00000000
00000000
00000000
,
00000000
00000000
00000000
00000000
,
00000000
00000000
00000000
00000000
,
00000000
00000000
00000000
00000000
,
00001000
00000000
00000000
00010000
00000000
00000000
00001000
00000000
00000000
00001000
00000000
00000000
00100000
00000000
00000000
00000000
,
00010000
00000000
00000000
01000000
00000000
00000000
10000000
00000000
00000000
01000000
00000000
00000000
00010000
00000000
00000000
00000000
,
00100000
00000000
00000000
00001000
00000000
00000000
00010000
00000000
00000000
00010000
00000000
00000000
00000100
00000000
00000000
00000000
,
00001000
00000000
00000000
00000010
00000000
00000000
00001001
00000000
00000011
00000000
00000000
00000000
00000100
00000000
00000000
00000000
,
00001001
00000000
00000000
00000000
00001000
00000000
00000100
00001000
,
00000100
00010000
00001000
00100000
,
00011000
00000000
00000000
00000000
01000000
00000000
00010000
10000000
,
00010000
00000000
00100000
00000000
01100000
00000000
10000000
00010000
,
10000000
00000000
00100000
00000000
01000000
00000000
00001000
00010000
,
00001000
00000000
00010000
00000000
00000100
00001000
00000001
00000000
,
00000100
00000001
00001000
00000000
00000010
00000000
00000110
00000000
,
00000100
00000001
00001000
00000000
00001100
00000000
00010000
00001000
,
00000000
00100000
00100000
00010000
00000000
01000000
00100000
00000000
,
10000000
00000000
02000000
00000000
13000000
00000000
00100000
01000000
,
00000000
00010000
00100000
00010000
00000000
00100000
00001000
00000000
,
00010000
00000000
00000100
00000000
00011000
00000000
00010000
00000010
,
00000000
00001000
00001000
00000100
00000000
00001000
00000001
00000000
,
00000200
00000000
00000320
00000000
00001030
00000100
00001000
00000000
,
00000100
00010000
00000100
00000000
00011000
00000000
00011000
00000000
,
00100000
00000000
00000000
00000000
00010000
00000000
00000000
00000000
01010000
00000000
00000000
00000000
10000000
00000000
00000000
00100000
,
10000000
00000000
00010000
00000000
00100000
00001000
00100000
00000000
,
00001000
00000000
00010000
00000000
00001000
00000000
00000000
00000000
00010000
00000000
00000000
00000100
00001000
00000000
00000000
00000000
,
00000010
00000000
00000100
00000000
00000001
00000010
00000100
00000000
,
00010000
00001000
00100000
00000000
00010000
10000000
00000000
10000000
,
00000000
01000000
00000000
01000000
00000000
00010000
00000000
00010000
,
00000000
00001000
00000000
00001000
00000000
00000010
00000000
00000001
,
00000000
00000100
00000000
00001000
00000000
00010000
00000000
00100000
,
00000000
10000000
00000000
00000000
00010000
01000000
00010000
01000000
,
00100000
00000000
10000000
00000000
01000000
00100000
00001000
00000000
,
00010000
00010000
00000100
00000000
00001000
00000010
00001000
00000010
,
00000100
00000000
00000001
00000000
00000010
00000100
00001000
00000000
,
00000010
00000010
00010000
00000000
00011000
00000000
00101000
00000000
,
01000000
00000000
00010000
00000000
10000000
01000000
00010000
00000000
,
00001000
00001000
00010000
00000000
00001000
00000000
00000010
00000000
,
00000001
00001000
00000001
00000000
00000100
00000010
00001000
00000000
,
00000000
00000000
00000000
00000000
00000100
00000000
00000000
00010000
00001000
00000000
00001000
00000000
00100000
00010000
00000000
00010000
,
00100000
00000000
01000000
00000000
10000000
00000000
10000000
00100000
01000000
00000000
00010000
00000000
00110000
00000000
00001000
00000000
,
00010000
00000100
00000000
00000100
00010000
00000000
00001000
00000000
00010000
00001000
00010000
00000000
00000010
00000000
00000000
00000000
,
00001000
00000000
00000000
00000001
00000000
00000000
00001000
00000000
00000000
00000000
00000000
00000000
00001001
00000000
00000000
00000000
00000000
00000000
00000000
00000000
00000000
00000000
00000000
00000000
00000001
00000000
00000000
00000000
00000001
00000000
00000000
00000000
00000010
00000000
00000000
00000000
00000001
00000000
00000000
00000000
00000000
00000000
00000000
00000000
00000000
00000100
00000000
00000000
,
00000010
00001000
00001001
00000000
00000001
00000000
00000100
00000010
,
00010000
00000000
00001000
01000000
00010000
00000000
00100000
00000000
,
10000000
00000000
00100000
00001000
00010000
00000000
00000100
00010000
,
00001000
00000000
01000000
01000000
01000000
00000000
00010000
00000000
,
10010000
00000000
10000000
01000000
00100000
00000000
00001000
00010000
,
00000100
00000000
00001000
00000001
00000100
00000000
00000010
00010000
,
00001000
00000000
01000000
00010000
01000000
00010000
10000000
00000000
,
01000000
00000000
00000000
00000000
00010000
00000000
00000000
00010000
00000000
00000000
00001000
00000000
00010000
00000000
00000000
00000000
,
00011000
00000000
00000000
00000000
00000100
00000000
00000000
00001000
00000000
00000000
00000010
00000000
00000000
00000100
00000000
00000000
,
00000001
00000000
00000011
00000000
00001100
00000000
00010000
00001000
,
00100000
00000000
00000000
00000000
00010000
00000000
00000000
01000000
00000000
00000000
00100000
00000000
00000000
10000000
00000000
00000000
,
01000000
00000000
00100000
00001000
00010000
00000000
00000010
00010000
,
00001000
00000000
00000000
00000000
01000000
00000000
00000000
00010000
00000000
00000000
10000000
00000000
00000000
00100000
00000000
00000000
,
10000000
00000000
01000000
00100000
00001000
00000000
00010000
00000100
,
00000010
00000000
00000000
00000000
00000001
00000000
00000000
00001000
00000000
00000000
00000010
00000000
00000000
00000100
00000000
00000000
,
00000001
00000000
00000000
00000000
00000010
00000000
00000000
00000010
00000000
00000000
00000100
00000000
00000000
00000000
00010000
00000000
,
00001000
00000000
00011000
00000000
00100000
00010000
10000000
00010000
,
00100000
00000000
00001000
00010000
00000010
00001000
00000010
00000100
,
00000001
00000000
00001001
00000000
00001000
00000100
00010000
00001000
,
00010000
00000000
00001000
01000000
00010000
01000000
00100000
10000000
,
00010000
00000000
10010000
00000000
10000000
01000000
10000000
00010000
,
00100000
00000000
00001000
00010000
00000010
00001000
00000010
00010000
,
00001000
00000000
00010000
00000100
00001000
00000000
00000100
00000010
,
00000001
00000000
00000000
00000000
00000100
00000000
00000010
00000000
00001000
00000000
00000100
00000000
00010000
00000000
00000000
00001000
,
00100000
00022000
00000000
00000000
,
00000000
00000000
00000000
00000000
,
00000000
00033000
00000000
00000000
;

//--------------- dance-double - forcednature ----------------
#NOTEDATA:;
#STEPSTYPE:dance-double;
#DESCRIPTION:forcednature;
#CREDIT:forcednature;
#DIFFICULTY:Hard;
#METER:15;
#RADARVALUES:0,0,0,0,0;
#NOTES:
00000000
00000000
00000000
00000000
,
00000000
00000000
00000000
00000000
,
00000000
00000000
00000000
00000000
,
00000000
00000000
00000000
00000000
,
00000000
00000000
00000000
00000000
,
00001000
00000000
00000000
00001000
00000000
00000000
00100000
00000000
00000000
00001000
00000000
00000000
00010000
00000000
00000100
00000000
,
00001000
00000000
00000000
00001000
00000000
00000000
00000010
00000000
00000000
00001000
00000000
00000000
00000001
00000000
00000100
00000000
,
00001000
00001000
00010000
00001000
00010000
00010000
00100000
10000000
,
00010000
01000000
00000000
00100000
10000000
00000000
00010000
10000000
11000000
00000000
00000000
00000000
01010000
00000000
00000000
00000000
,
00010000
00100000
10000000
00000000
00100000
00001000
00100000
01000000
,
00010000
00001000
00010000
00000000
00001010
00000000
00000011
00000000
,
00000001
00000000
00000100
00000000
00001000
00000000
00000000
00000000
00000100
00000000
00000001
00000000
00000010
00000001
00000010
00000000
,
00000100
00010000
00001000
00000000
00011000
00000000
00100000
00010000
,
01000000
00000000
00100000
01000000
00100000
00000000
00000000
00000000
10000000
00000000
00100000
00000000
00010000
00000000
00000000
00000000
,
00001000
00010000
00001000
00000000
00020000
00000000
00000000
00000000
00030200
00000000
00000000
00000000
00000310
00000000
00000001
00000000
,
00000100
00000000
00000001
00000100
00000001
00000000
00000010
00000000
00000200
00000000
00000000
00000000
00010300
00000000
00001000
00000000
,
00100000
00010000
00000000
00100000
01000000
00000000
10000000
00000000
11000000
00000000
00000000
00010000
00100000
00000000
00000000
00001000
,
00010000
00000000
00000100
00001000
00000100
00001000
00000010
00001000
00000000
00000000
00000001
00000000
00000100
00000000
00001000
00000000
,
00010000
00000000
01000000
00000000
10000000
00000000
00000000
00000000
00100000
00000000
00000000
01000000
00010000
00000000
00000000
10000000
,
00100000
01000000
00010000
00100000
00002000
00000000
00013000
01000000
,
00010000
00000000
00001000
00000000
00000010
00000000
00000000
00000000
00000110
00000000
00000000
00001000
00000010
00000000
00000000
00000100
,
00000001
00000000
00000010
00000001
00000010
00000001
00001000
00000100
00000000
00000000
00010000
00000000
00001000
00000000
00100000
00000000
,
00010000
10000000
00000000
10000000
00010000
00000000
00000000
00000000
01000000
00010000
01000000
00000000
00010000
00000000
00000000
00000000
,
10000000
00100000
01000000
00200000
00000000
00000000
10300000
00000000
00010000
00000000
00000000
00100000
00001000
00000000
00000000
00010000
,
00000100
00000000
00001000
00000100
00001000
00000000
00000010
00000000
00001001
00000000
00000000
00000000
00000001
00000000
00000100
00000001
,
00001000
00000000
00000010
00000000
00000200
00000000
00000000
00000000
00001300
00000000
00010000
00000000
00001000
00100000
00010000
00000000
,
01000000
00000000
00010000
00000000
10000000
00000000
00000000
00000000
01000000
00000000
00000000
00010000
01000000
00000000
00010000
00001000
,
00010000
00001000
00000010
00000100
00000010
00000001
00000100
00000010
,
00010000
00000000
00001000
00010000
00001000
00000000
00000000
00000000
00100000
00000000
00010000
00000000
01000000
00000000
00010000
10000000
,
00010000
00000000
00100000
00000000
00001000
00000000
00010000
00000000
00000100
00000000
00010000
00000000
00001000
00000000
00000010
00000100
,
00000010
00000000
00000001
00000000
00000100
00000000
00001000
00000000
00010000
00000000
00100000
00010000
00000000
00000000
00100000
10000000
,
00000000
00000000
01000000
10000000
00000000
00000000
01000000
00010000
00000000
00000000
00001000
00010000
00001000
00010000
00001000
00000000
,
00000010
00000000
00000001
00000000
00000100
00000001
00000100
00000000
00002000
00000000
00000000
00000000
00013000
00000000
00001000
00010000
,
00001000
00000000
00100000
00000000
01000000
00100000
00010000
00000000
10000000
00000000
10000000
00000000
00100000
01000000
00010000
00000000
,
00100000
00000000
00001000
00100000
00001000
00000000
00000000
00000000
00010000
00000000
00000100
00001000
00000100
00000000
00000010
00000000
,
00000001
00000100
00000000
00000001
00001000
00000001
00001000
00000000
00000010
00000000
00000100
00000000
00001000
00000100
00000001
00000000
,
00000010
00000000
00000000
00001000
00010000
00000000
00000000
00000000
00011000
00000000
00000000
00100000
00010000
00000000
00000000
01000000
,
00010000
00000000
00100000
00000000
00000000
01000000
10000000
00000000
00100000
01000000
00010000
00000000
00100000
00001000
00010000
00000000
,
00000100
00001000
00000001
00001000
00000100
00000000
00000000
00000000
00000010
00000000
00000001
00000000
00000100
00000000
00000001
00000000
,
00000010
00000100
00000000
00001000
00000100
00010000
00001000
00000000
01000000
00010000
10000000
00000000
00100000
01000000
00010000
00000000
,
00000000
00000000
00000000
00000000
00000000
00000000
00000000
00000000
10000000
00000000
01000000
00000000
00000000
00000000
10000000
01000000
10000000
00000000
00010000
00000000
00200000
00000000
00000000
00000000
00301000
00010000
00001000
00010000
00001000
00000000
00000000
00000000
,
00010000
00000100
00000000
00000100
00002000
00000000
00000000
00000000
00003010
00000000
00000100
00000000
00000000
00000000
00000100
00000001
00000100
00000000
00000010
00000000
00000010
00000000
00000000
00000000
00001000
00000000
00000100
00000000
00000000
00000000
00010000
00001000
,
00010000
00000000
00000000
00001000
00100000
00020000
00000000
00000000
01030000
00000000
00100000
00000000
00000000
00000000
10000000
00010000
10000000
00000000
01000000
00000000
00200000
00000000
00000000
00000000
00301000
00010000
00001000
00010000
00000100
00000000
00001000
00000000
,
00000010
00000000
00000000
00000200
00000000
00000000
00000000
00000000
00000000
00000000
00000000
00000000
00000301
00000000
00000000
00002000
00000000
00000000
00000000
00000000
00000000
00000000
00000000
00000000
00003010
00000000
00000000
00000000
00000000
00000000
00000000
00000000
00000000
00000000
00000000
00000000
00000010
00000000
00000000
00000000
00000000
00000000
00000000
00000000
00000000
00000000
00000000
00000000
00000100
00000000
00000000
00000000
00001000
00000000
00000000
00000000
00010000
00000000
00000000
00000000
00001000
00000000
00000000
00000000
00010000
00000000
00000000
00000000
00100000
00000000
00000000
00000000
00000000
00000000
00000000
00000000
00000000
00000000
01000000
00000000
00000000
00000000
00000000
00000000
00000000
00000000
00000000
00000000
00000000
00000000
00100000
00000000
00000000
10000000
00000000
00000000
,
00100000
00000000
10000000
00000000
01000000
00100000
00000000
00000000
10010000
00000000
00000000
00000000
00000000
00000000
00000000
00000000
01010000
00000000
00000000
00000000
00000000
00000000
00000000
00000000
10000000
00000000
00000000
00000000
00100000
00000000
00000000
00000000
,
00010000
00000000
00011000
00000000
00010100
00000000
00000010
00001000
,
00000100
00000000
00000000
00000000
00000010
00000001
00000000
00000001
00000010
00000000
00000100
00001000
00000000
00000100
00010000
00000000
,
00001000
00100000
00000000
00000000
00010000
10000000
00010000
10000000
00010000
00000000
01000000
00000000
00100000
10000000
00000000
10000000
,
00010000
00000000
00100000
01000000
00010000
00001000
00000010
00000100
,
00001000
00000001
00000100
00000000
00000010
00000000
00000100
00000000
00001000
00000000
00010000
00000000
00100000
00000000
01000000
00000000
,
00010000
10000000
00010000
00000000
00100000
00000000
01000000
00000000
00010000
00000000
01000000
00000000
10000000
00000000
00100000
00000000
,
00010000
00000000
00001000
00010000
00001000
00000000
00000000
00011000
00000000
00000000
00010100
00000000
00001100
00000000
00001010
00000000
,
00000210
00000000
00000000
00000000
00000301
00000010
00000000
00000100
00000010
00000000
00000100
00010000
00000000
00001000
00100000
00010000
,
00200000
00000000
00000000
00000000
01300000
10000000
00000000
00100000
10000000
00000000
01000000
00010000
00000000
00001000
00010000
00000000
,
00001000
00000000
00000010
00000000
00000001
00000010
00000000
00000001
00000100
00000000
00000010
00001000
00000000
00000100
00001000
00000100
,
00020000
00000000
00000000
00000000
00031000
01000000
00000000
00010000
01000000
00000000
00001000
01000000
00000000
00010000
00100000
00010000
,
00100000
01000000
10000000
00000000
00100000
01000000
00000000
00010000
01000000
00000000
00100000
10000000
00000000
01000000
00010000
00001000
,
00020000
00000000
00000000
00000000
00030100
00001000
00000000
00000010
00000100
00000000
00000001
00000010
00000000
00001000
00000010
00000000
,
00000001
00001000
00000001
00000000
00000100
00000010
00000000
00001000
00000100
00000000
00010000
00001000
00000000
00001000
00100000
00010000
,
00200000
00000000
00000000
00000000
01300000
10000000
00000000
00100000
01000000
00000000
00010000
00100000
00002000
00000000
00000000
00000000
,
00023000
00000000
00000000
00000000
00030010
00001000
00000010
00001000
00000001
00000100
00000010
00000100
00000000
00000001
00001000
00000010
,
00002000
00000000
00000000
00000000
00003100
00010000
00001000
00000000
00100000
00001000
00010000
00000000
00001000
01000000
00010000
01000000
,
00020000
00000000
00000000
00000000
10030000
00100000
10000000
00010000
01000000
00010000
01000000
00001000
00000000
00010000
00000010
00001000
,
00000020
00000000
00000000
00000000
00000130
00000001
00000010
00000000
00000100
00001000
00000010
00000000
00010000
00001000
00100000
00000000
,
00010000
10000000
01000000
00000000
00100000
00001000
00100000
00001000
00010000
00000000
00000100
00001000
00000000
00000010
00000100
00000001
,
00002000
00000000
00000000
00000000
00003100
00000010
00000001
00000010
00000001
00000000
00000100
00000000
00000010
00010000
00001000
00000000
,
00010000
00000100
00001000
00000000
00000010
00001000
00000010
00010000
00001000
00000000
00100000
00000000
00010000
01000000
00010000
10000000
,
00100000
00000000
01000000
00000000
00010000
00100000
00001000
00000000
00010000
00000010
00001000
00000000
00000001
00000010
00000100
00001000
,
00000100
00010000
00001000
00100000
02000000
00000000
00000000
00000000
00000000
00000000
00000000
00000000
00000000
00000000
00000000
00000000
,
00000000
00000000
00000000
00000000
,
00000000
03000000
00000000
00000000
;
