#VERSION:0.83;
#TITLE:Sanctum Crusade;
#SUBTITLE:;
#ARTIST:Sarastro;
#TITLETRANSLIT:;
#SUBTITLETRANSLIT:;
#ARTISTTRANSLIT:;
#GENRE:SYMPHONIC METAL op.2;
#CREDIT:;
#MUSIC:Sanctum Crusade.ogg;
#BANNER:Sanctum Crusade.png;
#BACKGROUND:Sanctum Crusade-bg.png;
#CDTITLE:./CDTitles/pnm 13 Carnival.png;
#SAMPLESTART:52.437;
#SAMPLELENGTH:25.000;
#SELECTABLE:YES;
#OFFSET:0.205;
#BPMS:0.000=179.995
,192.000=170.000
;
#STOPS:;
#SPEEDS:0.000=1.000=0.000=0;
#SCROLLS:0.000=1.000;
#TICKCOUNTS:0.000=4;
#TIMESIGNATURES:0.000=4=4,
28.000=3=4,
34.000=4=4,
178.000=3=4,
184.000=4=4
;
#LABELS:0.000=Song Start;
#COMBOS:0.000=1;
#DISPLAYBPM:170.000:180.000;
#ORIGIN:;
#PREVIEWVID:;
#JACKET:Sanctum Crusade-jacket.png;
#CDIMAGE:;
#DISCIMAGE:;
#BGCHANGES:0.000=../BGAs/21he.mp4=1.000=0=0=0=StretchNoLoop====,
99999.000=-nosongbg-=1.000=0=0=0=StretchNoLoop====
;
#FGCHANGES:;

//--------------- dance-single - Ben Speirs vs. forcednature ----------------
#NOTEDATA:;
#STEPSTYPE:dance-single;
#DESCRIPTION:Ben Speirs vs. forcednature;
#DIFFICULTY:Beginner;
#METER:4;
#RADARVALUES:0.145781,0.300323,0.089801,0.073474,0,125,114,11,9,0,0,0,0,0,0.145781,0.300323,0.089801,0.073474,0,125,114,11,9,0,0,0,0,0;
#DISPLAYBPM:170.000:180.000;
#CHARTNAME:;
#CHARTSTYLE:;
#CREDIT:Ben Speirs vs. forcednature;
#NOTES:
0000
0000
0000
0000
,
0000
0000
0000
0000
,
1000
0000
0000
0000
,
0001
0000
0000
0000
,
1000
0000
0000
0000
,
0010
0000
0000
0000
,
1000
0000
0000
0000
,
0001
0000
1000
0000
,
0001
0000
1000
0000
,
0020
0000
0000
0000
,
0000
0030
0000
0000
,
0100
0000
0000
0000
,
0001
0000
0000
0000
,
0010
0000
0010
0000
,
0010
0000
0000
0000
,
0100
0000
0000
0000
,
1000
0000
0000
0000
,
0010
0000
0100
0000
,
0010
0000
0000
0000
,
1000
0000
0000
0000
,
0001
0000
0010
0000
,
0001
0000
0010
0000
,
0000
0000
0110
0000
,
0000
0000
1001
0000
,
0000
0000
0110
0000
,
0000
0000
0001
0000
,
0001
0000
1000
0000
,
0001
0000
0020
0000
,
0000
0000
0000
0000
,
0000
0030
0100
0000
,
0000
0000
1000
0000
,
0000
0000
0001
0000
,
0000
0000
0100
0000
,
0000
0000
0010
0000
,
0000
0000
1000
0000
,
0000
0000
0002
0000
,
0000
0000
0003
0000
,
0001
0000
2000
0000
,
0000
0000
3000
0000
,
1000
0000
0010
0000
,
0100
0000
0110
0000
,
0000
0000
0001
0000
,
1000
0000
1001
0000
,
0000
0000
0100
0000
,
0010
0000
0110
0000
,
0000
1001
0000
0000
,
0220
0000
0000
0000
,
0000
0000
0330
0000
,
2002
0000
3003
0000
,
1000
0000
0000
0000
,
0100
0000
0010
0000
,
0001
0000
0000
0000
,
0000
0000
0000
0000
,
1000
0000
0010
0000
,
0100
0000
0000
0000
,
0001
0000
0010
0000
,
0100
0000
0000
0000
,
1001
0000
0000
0000
,
1000
0000
1000
0000
,
0010
0000
0000
0000
,
0100
0000
0100
0000
,
0001
0000
0000
0000
,
0010
0000
0010
0000
,
0100
0000
0000
0000
,
0000
1000
1000
1000
,
0001
0000
0000
0000
,
0100
0100
0100
0000
,
0001
0000
0000
0000
,
0010
0010
0010
0000
,
0001
0000
0100
0000
,
0010
0000
1000
0000
,
0002
0000
0000
0000
,
0000
0000
0003
0000
,
1000
0000
0000
0000
,
0100
0000
0000
0000
,
0010
0000
0000
0000
,
0001
0000
0000
0000
,
1000
1000
1000
1000
,
0100
0100
0100
0100
,
0010
0010
0010
0010
,
0001
1000
0001
1000
,
0010
0000
0100
1001
;

//--------------- dance-single - Ben Speirs vs. forcednature ----------------
#NOTEDATA:;
#STEPSTYPE:dance-single;
#DESCRIPTION:Ben Speirs vs. forcednature;
#DIFFICULTY:Easy;
#METER:8;
#RADARVALUES:0.319552,0.4338,0.326549,0.302058,0,274,234,40,37,0,0,0,0,0,0.319552,0.4338,0.326549,0.302058,0,274,234,40,37,0,0,0,0,0;
#DISPLAYBPM:170.000:180.000;
#CHARTNAME:;
#CHARTSTYLE:;
#CREDIT:Ben Speirs vs. forcednature;
#NOTES:
0000
0000
0000
0000
,
0000
0000
0000
0000
,
1000
0100
0010
0001
,
0100
0000
0000
1001
0000
0000
0000
0000
,
0001
0100
0010
1000
,
0100
0000
0000
1001
0000
0000
0000
0000
,
1000
0100
0010
0001
,
0100
0000
0000
1001
0000
0000
0010
0000
,
0000
1001
0000
0000
0100
0000
0000
0220
,
0000
0000
0000
0000
,
0000
0330
1000
0001
,
0000
0001
0100
0001
,
0000
0001
0010
0100
,
1000
0100
0020
0000
,
0030
0000
0001
1000
,
0000
1000
0100
1000
,
0000
1000
0010
0100
,
0010
1000
0020
0000
,
0030
0000
1000
0001
,
1000
0001
0100
0010
,
0100
0010
1000
0100
,
1000
0001
0200
0300
,
0020
0000
0030
0000
1000
0000
0000
1001
,
0000
0000
0000
0000
0001
0000
0000
1001
,
0000
1000
0100
1000
,
0000
0000
2002
3003
,
0220
0330
2002
3003
,
0220
0330
1000
0001
,
0100
0001
1000
0010
,
0100
0010
1000
0001
,
0010
0001
1000
0100
,
0010
0100
1000
0001
,
0100
0010
1000
0001
,
0010
0100
0010
0001
,
0100
0001
1000
0100
,
1000
0000
0010
0000
0100
0000
0000
0100
,
0000
0002
0000
0003
,
0010
0000
0100
0000
1000
0000
0000
1000
,
0000
0200
0000
0300
,
0010
0000
0001
0000
1000
0001
1000
0000
,
0001
0000
0010
0000
0100
0000
0000
2002
,
0000
0000
3003
0000
0001
1000
0001
0000
,
1000
0000
0010
0000
0100
0000
0000
2002
,
0000
0000
3003
0000
1000
0001
1000
0000
,
0001
0000
0100
0000
0010
0000
0000
1001
,
0000
0000
0100
0000
0000
1001
0000
0000
,
0010
0000
0000
0220
0000
0000
0000
0000
,
0000
0000
0000
0330
,
2002
0000
3003
0000
,
2002
0000
3003
0000
,
0110
0000
1001
0000
,
2200
0000
0000
0000
,
3300
0000
0001
1000
,
1001
0000
0110
0000
,
1001
0000
0001
0100
,
0110
0000
1001
0000
,
2000
0001
0001
3010
,
1000
0001
0100
0001
,
1000
0100
1000
0001
,
0010
0001
1000
0010
,
1000
0001
0010
0001
,
0100
0010
1000
0010
,
0100
0001
0100
0010
,
1000
0000
0000
0000
0100
0000
0000
0010
,
0000
0001
1000
0001
,
2002
0000
3003
0001
,
0100
1001
0110
0000
,
2002
0000
3003
1000
,
0100
1001
0110
0000
,
1001
0000
1010
0000
,
0110
0000
0101
0000
,
2002
0000
0000
0000
,
0000
0000
0000
3003
,
0001
0001
0001
0000
,
1000
1000
1000
0000
,
0010
0010
0010
0000
,
0100
0100
0100
0000
,
0001
1000
0001
0000
1000
0000
0100
0000
,
1000
0001
1000
0000
0001
0000
0100
0000
,
0010
0100
0010
0000
1000
0000
0010
0000
,
0100
1001
0010
0110
,
2002
0000
3003
0000
0001
1000
0010
0000
;

//--------------- dance-single - Ben Speirs vs. forcednature ----------------
#NOTEDATA:;
#STEPSTYPE:dance-single;
#DESCRIPTION:Ben Speirs vs. forcednature;
#DIFFICULTY:Medium;
#METER:11;
#RADARVALUES:0.482826,0.567277,0.383695,0.506151,0.048982,414,367,47,62,0,0,0,0,0,0.482826,0.567277,0.383695,0.506151,0.048982,414,367,47,62,0,0,0,0,0;
#DISPLAYBPM:170.000:180.000;
#CHARTNAME:;
#CHARTSTYLE:;
#CREDIT:Ben Speirs vs. forcednature;
#NOTES:
0000
0000
0000
0000
,
0000
0000
0000
0000
,
1000
0100
1000
0100
0010
0001
1000
0000
,
1001
0000
0000
0220
0000
0000
0330
0000
,
0001
0100
0001
0100
0010
1000
0001
0000
,
1001
0000
0000
0220
0000
0000
0330
0000
,
1000
0100
1000
0100
0010
0001
1000
0000
,
0010
0000
0010
0100
0000
0100
0001
0000
,
0001
1000
0000
1000
0010
0000
0010
0200
,
0000
0001
0001
0001
,
0301
1001
0000
1000
,
0100
1000
0001
0100
,
0010
0000
1000
0000
0001
0000
0001
0010
,
0000
0100
0000
0020
0000
0000
0031
1000
,
0100
1000
0002
0000
0000
0003
1000
0000
,
0010
0100
0010
1000
,
0001
0000
0100
0000
0010
0000
1000
0001
,
0000
0010
0000
0100
1000
0001
1000
0001
,
0100
0010
1000
0000
1001
0000
0001
0000
,
0010
0100
0010
0001
,
1000
0000
0010
0000
0100
0000
0100
0001
,
0000
0010
0000
0110
0000
0000
0100
1000
,
0000
0010
1000
0010
0000
0100
0001
0100
,
0000
0010
1000
0001
0000
0010
0001
1000
,
0000
0100
0010
0001
0020
0000
0001
0000
,
0000
0031
2002
3003
,
2200
3300
0022
0033
,
0220
0000
0330
0000
1001
0000
1000
0100
,
0010
0100
1000
0000
0001
0000
1000
0010
,
0100
0010
1000
0000
0001
0000
0010
0100
,
0010
0001
1000
0000
0010
0000
0100
0010
,
1000
0001
0100
0000
0010
1000
0001
0000
,
0010
0001
1000
0000
0100
0010
0001
0000
,
0100
0010
1000
0000
0001
0010
0100
0010
,
0000
0001
1000
0000
0001
0000
0100
0010
,
0000
1000
0001
0000
0020
0000
0130
2000
,
0000
3001
0200
0000
0010
0000
0310
0000
,
0110
0000
1001
0000
0002
0000
0013
0200
,
0000
1300
0002
0000
0100
0000
0103
0000
,
0110
0000
1001
0000
1000
0100
0010
0001
,
1000
0010
0100
0001
0020
0000
0100
0200
,
0000
0000
0330
0000
0001
0010
0100
1000
,
0001
0100
0010
1000
0200
0000
0010
0020
,
0000
0000
0330
0000
1000
0010
0100
0001
,
0010
0001
1000
0100
0010
0000
0001
1000
,
0000
0010
0100
0000
0001
1000
0000
0100
,
0010
0000
0001
0020
0000
0000
0100
0000
,
0200
0000
0000
0330
,
2002
0000
3003
0000
,
2200
0000
3300
0000
,
0202
0303
0220
0330
,
2002
0000
0000
3003
,
0020
0000
0000
0000
0030
0001
1000
0000
,
2200
3300
0202
0303
,
0022
0000
0000
0033
0000
0000
0010
0000
0100
0000
1000
0000
,
1100
0000
0110
0000
,
0001
1000
0001
1000
0010
0100
0001
0000
,
1001
0000
0000
1000
0000
0000
0100
0000
0010
0001
0000
0000
,
0100
0000
0001
1000
0000
0000
0100
0000
1000
0001
0000
0000
,
0010
0000
0000
0100
0000
0000
0010
0000
0001
1000
0000
0000
,
0010
0000
0100
0001
0000
0000
0010
0000
0100
1000
0000
0000
,
1001
0000
0000
0001
0000
0000
0100
0000
0010
1000
0000
0000
,
0100
0000
0000
0000
0010
0000
0001
0000
0000
0000
0000
0000
1000
0000
0000
0010
0000
0000
0100
0000
0000
0001
0000
0000
,
0010
0001
0000
0000
0100
0010
0000
1000
,
0100
1100
0110
0011
,
2001
0000
0000
0010
3010
0000
0110
0000
,
0101
0011
1100
0000
,
1002
0000
0000
0010
0013
0000
0110
0000
,
1100
1010
0110
0000
,
2002
3003
2200
3300
,
0022
0033
0220
0330
,
2002
0003
0010
0010
,
0001
0001
3100
0110
,
0020
0001
0001
0031
,
0002
0100
0100
0103
,
0200
0010
0010
0310
,
0020
1000
1000
1030
,
1000
0100
1000
0100
1000
0100
1000
0100
,
0010
0001
0010
0001
0010
0001
0010
0001
,
0100
0010
0100
0010
0100
0010
0100
0010
,
1000
0001
0100
0001
1000
0001
0010
0001
,
0200
0000
0000
0000
0300
0000
0000
0000
0001
1000
0001
1000
0001
0000
0000
0000
;

//--------------- dance-single - Ben Speirs vs. forcednature ----------------
#NOTEDATA:;
#STEPSTYPE:dance-single;
#DESCRIPTION:Ben Speirs vs. forcednature;
#DIFFICULTY:Hard;
#METER:14;
#RADARVALUES:0.650766,0.734124,0.473496,0.571461,0.318386,558,500,58,70,0,0,0,0,0,0.650766,0.734124,0.473496,0.571461,0.318386,558,500,58,70,0,0,0,0,0;
#DISPLAYBPM:170.000:180.000;
#CHARTNAME:;
#CHARTSTYLE:;
#CREDIT:Ben Speirs vs. forcednature;
#NOTES:
0000
0000
0000
0000
,
0000
0000
0000
0000
,
1000
0001
0100
0001
1000
0010
0100
0001
,
2002
0000
3003
0220
0000
0330
0000
0000
,
0001
1000
0100
1000
0001
0010
0100
1000
,
2002
0000
3003
0220
0000
0330
0000
0000
,
1000
0001
0010
0001
1000
0100
0010
0001
,
0011
0000
1000
1100
0000
0001
0101
0000
,
1000
1010
0000
0100
0110
0000
0010
1002
,
0000
1000
1000
1000
,
1003
0000
0000
0010
0100
0000
0000
0000
1001
0000
0000
0000
0002
0000
0000
0000
,
0023
0000
2030
0000
3010
0001
0010
0001
,
2000
0000
3010
0000
0200
0000
0301
0100
,
1000
0100
0010
0100
0002
0000
1003
1000
,
0010
1000
2000
0000
3010
0000
2000
0000
,
3200
0000
0302
0000
0103
0010
0100
0010
,
0002
0000
1003
0000
0020
0000
0130
0010
,
0001
0010
0000
1000
0001
0010
0100
1000
,
0001
0100
0010
0010
1001
0000
1000
0100
,
1000
0001
1000
0010
0200
0000
0301
0010
,
0001
1000
0001
0100
0020
0000
1030
0100
,
1000
0001
0010
2000
0000
3010
0001
1000
,
0000
0000
0010
0000
0100
0010
0100
0010
0100
0000
0001
0000
0010
0000
0210
0000
,
0000
1300
0001
0010
0100
1000
0010
0210
,
0000
0301
1000
0010
0200
0000
1000
0000
,
0010
0000
0000
0000
0301
0000
0000
0000
2002
0000
0000
0000
0003
0000
3010
0100
,
0020
0000
0000
0000
0000
0000
1030
0100
2000
0000
0000
0000
0000
0000
3001
0010
,
0001
0000
0100
0000
0010
0000
1000
0000
1010
0000
0000
0001
1000
0000
0001
0000
,
0010
0000
0100
0000
1000
0000
0001
0000
0101
0000
0000
1000
0100
0000
1000
0000
,
0001
0100
0010
1000
1200
0000
0001
0001
,
0000
1000
1300
0001
0200
0000
1000
1000
,
0000
0000
0001
0000
0301
0000
0000
0000
1001
0000
0000
1000
0010
0000
0100
0000
,
1000
0000
0100
0000
0010
0000
1000
0000
0001
0000
0000
0001
0010
0000
0100
0000
,
0001
0100
0010
0001
0200
0000
1000
1000
,
0000
0001
0301
1000
0200
0000
0001
0001
,
0000
1000
1300
0000
2100
0000
3001
0200
,
0000
0310
2000
0000
0001
0000
3100
0000
,
1100
0000
0110
0000
1002
0000
1003
0200
,
0000
0310
0002
0000
1000
0000
0103
0000
,
0001
1000
0001
1000
0001
0000
0000
0000
1000
0000
0100
0000
0010
0000
1000
0000
,
0001
0100
0010
0001
0021
0000
0130
1002
,
0000
0100
0103
0000
0001
0100
0010
0001
,
1000
0100
0010
1000
1020
0000
0130
2001
,
0000
0100
3100
0000
1000
0010
0100
1000
,
0001
0000
0010
0100
0010
0000
1000
0000
1010
0000
0000
0000
0001
0000
0101
0000
,
0000
1000
1100
0000
0001
0011
0000
0100
,
0110
0000
0010
2001
0000
0000
0100
0000
,
0200
0000
3300
0010
,
2002
0000
0000
0000
0000
3003
0000
0000
,
0101
0000
0000
1000
0100
1000
0100
0000
0000
0010
0000
0000
,
0011
0001
0101
1000
,
1010
0000
0000
0001
0100
0001
0100
0000
0000
0010
0000
0000
,
1000
0000
0001
0000
2000
0000
0000
0000
0000
0000
0000
0000
3010
0000
0000
0100
0000
0000
0001
0000
0000
1000
0000
0000
,
0100
1000
0100
0010
0000
0000
0001
0010
0100
1000
0000
0000
,
1000
0001
1000
0010
0000
0000
1010
0000
0110
0000
0101
0000
,
0001
0010
0100
0010
0000
0000
0100
1000
0001
0100
0000
0000
,
0010
1000
0001
2000
0000
0000
0100
0000
0000
3001
0000
0000
,
1000
0100
0010
0002
0000
0000
0203
0000
0000
1000
0000
0000
,
0301
0010
0100
2000
0000
0000
3020
0000
0000
0001
0000
0000
,
1030
0001
1000
0100
0000
0000
0021
0000
0000
1000
0000
0000
,
0031
1000
0001
0100
0000
0000
1020
0000
0000
0001
0000
0000
,
1030
0100
0010
0001
0000
1000
0020
0000
0000
0130
0000
0000
,
0001
0000
0010
0000
0100
0000
1000
0000
0000
0000
0001
0000
0100
0000
0000
0010
0000
0000
1000
0000
0000
0001
0000
0000
,
0010
0010
0000
0000
0100
0100
0000
1000
,
1000
1010
0101
0110
,
2002
0000
0000
0000
3003
0000
0001
0100
0001
0000
0000
0000
1010
0000
0000
0000
,
0101
0011
2100
3010
,
2002
0000
0000
0000
3003
0000
1000
0010
1000
0000
0000
0000
0101
0000
0000
0000
,
1010
1100
0012
1003
,
0201
0000
0000
0000
0000
0000
0310
1000
0020
0000
0000
0000
0000
0000
1030
0001
,
2000
0000
0000
0000
0000
0000
3100
0010
0200
0000
0000
0000
0000
0000
0310
0001
,
0020
0000
0031
0100
1000
0100
0010
0100
,
0001
0000
0000
0100
0000
0000
1000
0000
0000
0100
0000
0000
0001
0000
0000
1000
0000
0000
1001
0000
0000
0000
1000
0000
,
0100
0000
0100
0010
0000
0010
0001
0000
0001
1000
0000
0001
,
0100
0000
0100
0010
0000
0010
1000
0000
1000
0001
0000
1000
,
0100
0000
0100
0001
0000
0001
0100
0000
0100
1000
0000
0001
,
0100
0000
0100
1000
0000
1000
0100
0000
0100
0001
0000
0000
,
1000
0100
1000
0000
0100
0000
0010
0000
0100
0000
0001
0000
0100
0000
1000
0000
,
0001
0100
0001
0000
0100
0000
0010
0000
0100
0000
1000
0000
0100
0000
0001
0000
,
1000
0010
1000
0000
0010
0000
0100
0000
0010
0000
0001
0000
0010
0000
1000
0000
,
0100
1000
0001
0000
0100
0001
1000
0000
0010
1000
0001
0000
0010
0001
1000
0000
,
0200
0000
0000
0000
0310
0000
0000
0000
0100
1000
0001
0010
0100
0000
0000
0000
;

//--------------- dance-single - Ben Speirs vs. forcednature ----------------
#NOTEDATA:;
#STEPSTYPE:dance-single;
#DESCRIPTION:Ben Speirs vs. forcednature;
#DIFFICULTY:Challenge;
#METER:17;
#RADARVALUES:0.793048,1.101185,0.67759,0.563298,0.587789,680,597,83,69,0,0,0,0,0,0.793048,1.101185,0.67759,0.563298,0.587789,680,597,83,69,0,0,0,0,0;
#DISPLAYBPM:170.000:180.000;
#CHARTNAME:;
#CHARTSTYLE:;
#CREDIT:Ben Speirs vs. forcednature;
#NOTES:
0000
0000
0000
0000
,
0000
0000
0000
0000
,
1000
0100
1000
0001
0010
1000
0010
0001
,
0102
0000
0013
2100
0000
0010
3010
0000
,
0001
0100
0001
1000
0010
0001
0010
1000
,
2100
0000
3010
0102
0000
0010
0013
0000
,
1000
0000
0100
0000
0010
0000
0001
0000
0100
0000
0010
0100
0010
1000
0001
0100
,
0020
0000
1030
0102
0000
0013
2100
0000
,
3010
0102
0000
0013
2001
0000
3100
0012
,
0000
1000
1000
1000
,
1003
0000
0001
0010
0100
0000
0000
0000
1001
0000
0000
0000
0002
0000
0000
0000
,
0203
0000
2300
0000
3100
0010
0100
0001
,
0020
0000
0031
0000
2000
0000
3010
0100
,
1000
0000
0100
0000
0001
0000
0100
0000
0020
0000
0000
0000
0130
0001
1000
0001
,
0100
0010
1000
0001
0200
0000
0000
0000
0310
0000
0000
0000
2000
0000
0000
0000
,
3020
0000
0032
0000
0013
0100
0001
0010
,
0200
0000
1300
0000
0020
0000
0130
0010
,
0001
0000
0010
0000
1000
0000
0100
0000
0010
0000
0001
1000
0001
0000
0100
0000
,
0010
1000
0100
1100
1002
0000
1003
0010
,
0100
0010
0001
0010
1000
0100
0010
0100
,
0001
0100
0010
0001
2000
0000
3010
0010
,
0100
1000
0100
0102
0000
1003
0100
0020
,
0000
0000
0031
0000
0100
0010
0100
0001
1000
0000
0001
0010
0100
0000
2100
0000
,
0000
0000
3001
0000
0100
0000
0010
0000
0110
0000
1000
0100
0010
0000
0012
0000
,
0000
1003
0010
0100
0102
0000
1000
1000
,
2003
0000
3100
0000
1001
1000
0010
0100
,
0101
0001
0010
0100
1100
1000
0010
0100
,
0110
0000
1000
0100
0010
0001
0100
0010
1000
0000
0001
0000
0100
0000
0001
0000
,
1000
0000
0001
0010
0100
0000
1000
0010
0100
0000
0001
0000
0010
0000
0001
0000
,
1000
0000
0001
0100
0020
0000
0000
0000
1030
0000
0000
0000
1010
0000
1010
0000
,
0000
1001
2001
0000
3001
0000
0011
0011
,
0000
1001
1002
0000
1003
0010
0100
0001
,
1000
0000
0001
0010
0001
0000
1000
0100
0010
0000
0001
0000
1000
0000
0001
0000
,
0100
0000
0010
1000
0010
0000
1000
0100
0010
0000
0000
0000
0011
0000
0011
0000
,
0000
1100
1100
0000
1001
0000
0101
0110
,
0000
0000
1010
0000
1001
0000
0000
0000
0001
0000
1000
0100
0010
0000
0001
0000
,
0100
0010
1000
0000
0002
0000
0000
0000
0010
0000
0000
0000
1003
0000
0000
0000
,
1010
0000
0000
0000
0101
0000
0000
0000
1000
0000
0001
0010
0100
0000
1000
0000
,
0010
0100
0001
0000
2000
0000
0000
0000
0010
0000
0000
0000
3001
0000
0000
0000
,
1000
0100
1000
0100
0010
0001
0010
0001
1000
0000
0100
0000
0001
0000
1000
0000
,
0010
0001
0100
0010
2010
0000
3100
0012
,
0000
1000
1003
0000
0001
0010
1000
0001
,
0100
1000
0010
0100
0102
0000
0013
2100
,
0000
0001
3001
0000
1000
0010
0001
1000
,
0100
0000
0001
0010
0100
1000
0010
0100
0002
0000
0000
0000
0013
0000
2100
0000
,
0000
3010
1002
0000
0103
2010
0000
3100
,
0021
0000
0130
1002
0000
0000
0103
0010
,
0100
0000
0020
0000
1000
0000
0000
0000
1030
0000
0100
0010
0001
0000
0000
0000
,
2002
0000
0000
0000
0000
3003
0000
0000
,
1000
0010
1000
0001
0010
0001
2000
0000
0000
3100
0000
0000
,
0012
1003
2010
3001
,
1000
0100
1000
0001
0100
0001
1000
0010
1000
0001
0010
0001
,
1000
0000
0010
0000
0200
0000
0000
0000
0000
0000
0000
0000
0310
0000
0000
0010
0000
0000
1000
0000
0000
0001
0000
0000
,
0101
0000
1000
0100
1000
0010
0110
0000
0001
0010
0100
1000
,
1100
0000
0001
1000
0100
0010
0011
0000
0101
0000
0110
0000
,
1010
0000
1000
0001
0010
0100
1100
0000
1000
0010
0100
0001
,
0101
0000
1000
0100
1000
0001
0100
0001
1000
0010
0000
0000
,
1000
0100
0010
0001
0000
0000
0021
0000
0000
1000
0000
0000
,
0031
0100
0010
1000
0000
0000
1020
0000
0000
0001
0000
0000
,
1030
0100
0001
0100
0000
0000
0120
0000
0000
1000
0000
0000
,
0031
0100
1000
0100
0000
0000
1020
0000
0000
0001
0000
0000
,
1030
0100
0010
0001
0100
1000
0200
0000
0000
0010
0000
0000
,
0301
0000
0010
0000
0100
0000
1000
0000
0010
0000
0001
0000
0010
0000
0000
1000
0000
0000
0100
0000
0000
0010
0000
0000
,
0001
1100
0000
0000
1000
0101
0000
0010
,
1001
0110
1100
0011
,
2002
0000
0000
0000
3003
0000
0001
0100
0010
0000
0000
0000
1010
0000
1000
0000
,
1001
0001
0101
0000
0021
0000
0130
0000
,
2002
0000
0000
0000
3003
0000
1000
0010
0100
0000
0000
0000
0101
0000
0001
0000
,
1001
1000
1010
0000
1200
0000
0310
0000
,
2002
0000
0000
0000
3003
0000
1000
0100
0020
0000
0000
0000
0000
0000
0031
0100
,
0020
0000
0000
0000
0000
0000
1030
0100
0002
0000
0000
0000
0000
0000
0103
1000
,
0020
0000
0130
0100
0001
0001
0100
0100
,
0010
0000
1000
0000
0100
0000
0001
0000
1000
0000
0010
0001
1000
0000
0000
0000
,
0100
0000
0001
0100
0000
1000
0100
0000
0001
0100
0000
1000
,
0010
0000
0001
0010
0000
1000
0010
0000
0001
0010
0000
1000
,
0001
0000
0100
1000
0000
0100
0001
0000
0100
1000
0000
0100
,
0001
0000
0010
1000
0000
0010
0001
0000
0010
1000
0000
0010
,
0001
0100
0010
1000
0001
0100
0010
1000
0001
0100
0010
1000
0001
0100
0010
1000
,
0001
0010
0100
0010
0001
0010
0100
0010
0001
0010
0100
0010
0001
0010
0100
0010
,
0001
1000
0010
0100
0001
1000
0010
0100
0001
1000
0010
0100
0001
1000
0010
0100
,
0001
0010
0100
0010
0001
1000
0100
1000
0001
0100
0010
0100
0001
1000
0100
0010
,
0001
0000
0000
0000
0110
0000
0000
0000
1000
0010
0001
0100
1000
0000
0000
0000
;

//--------------- dance-double - Ben Speirs vs. forcednature ----------------
#NOTEDATA:;
#STEPSTYPE:dance-double;
#DESCRIPTION:Ben Speirs vs. forcednature;
#DIFFICULTY:Easy;
#METER:8;
#RADARVALUES:0.257741,0.367062,0.138783,0.302058,0,221,204,17,37,0,0,0,0,0,0.257741,0.367062,0.138783,0.302058,0,221,204,17,37,0,0,0,0,0;
#DISPLAYBPM:170.000:180.000;
#CHARTNAME:;
#CHARTSTYLE:;
#CREDIT:Ben Speirs vs. forcednature;
#NOTES:
00000000
00000000
00000000
00000000
,
00000000
00000000
00000000
00000000
,
00010000
00010000
00001000
00001000
,
00100000
00000000
00000000
00100000
00000000
00000000
00000000
00000000
,
00001000
00001000
00010000
00010000
,
00000010
00000000
00000000
00000010
00000000
00000000
00000000
00000000
,
00010000
00010000
00001000
00001000
,
01000000
00000000
00000000
01000000
00000000
00000000
00100000
00000000
,
00000000
00100000
00000000
00000000
10000000
00000000
00000000
20020000
,
00000000
00000000
00000000
00000000
,
00000000
30030000
10000000
01000000
,
00100000
00000000
00010000
01000000
,
00001000
00000000
00010000
00001000
,
00010000
00001000
00020000
00000000
,
00030100
00000000
00000010
00000010
,
00000010
00000000
00000001
00000001
,
00000001
00000000
00001000
00000001
,
00001000
00000001
00000100
00000010
,
00010000
00000000
00011000
00000000
,
00001000
00001000
00100000
00100000
,
00010000
00000000
10000000
10000000
,
00100000
00100000
01000000
00010000
,
10000000
00000000
00000000
00000000
00010000
00000000
00000000
00010000
,
00000000
00000000
00100000
00000000
00001000
00000000
00000000
00001000
,
00000000
00010000
00000020
00000030
,
00000200
00000300
00002002
00003003
,
00002002
00003003
00022000
00033000
,
00022000
00033000
20020000
00000000
,
00000000
00000000
00000000
00000000
,
30030000
00000000
10000000
00100000
,
01000000
00010000
00100000
00001000
,
00010000
00000100
00000020
00000000
,
00000000
00000000
00000032
00000000
,
00000000
00000000
00001003
00000001
,
00000100
00000010
00010000
00001000
,
00100000
00000000
00010000
00000000
10000000
00000000
00000000
00010000
,
00000000
02000000
00000000
00000000
,
03001000
00000000
00010000
00000000
00001000
00000000
00000000
00010000
,
00000000
00000200
00000000
00000000
,
00000320
00000000
00000031
00001000
,
00000001
00000000
00000100
00000000
00000010
00000000
00000000
00000010
,
00000000
00000000
00001000
00001000
,
00000100
00000000
00010000
00000000
00001000
00000000
00000000
00001000
,
00000000
00000000
00100000
00100000
,
00010000
00000000
10000000
00000000
00100000
00000000
00000000
00100000
,
00000000
00000000
01000000
00000000
00000000
01000000
00000000
00000000
,
00010000
00000000
00000000
20020000
00000000
00000000
00000000
00000000
,
00000000
00000000
00000000
30030000
,
00022000
00000000
00000000
00033000
,
00010000
00000000
00000000
00000000
,
00000100
00000000
00000100
00000000
,
00000010
00000000
00000000
00000000
,
00000000
00000000
00000001
00001000
,
00000010
00000000
00000010
00000000
,
00010000
00000000
00010000
00000000
,
00001000
00000000
00001000
00000000
,
00100000
00000000
00100000
00000000
,
00010000
10000000
00200000
00300000
,
10000000
01000000
00200000
00300000
,
00001000
00010000
00002000
00003000
,
00010000
00000010
00002000
00003000
,
00000001
00000001
00000200
00000300
,
00000010
00000010
00002000
00003000
,
00000100
00000000
00000000
00000000
,
00000000
00011000
00011000
00011000
,
00022000
00000000
00033000
00100000
,
00100000
00100000
00100000
00000000
,
00022000
00000000
00033000
00000010
,
00000010
00000010
00000010
00000000
,
00011000
00000000
10000000
00000000
,
00011000
00000000
00000001
00000000
,
00022000
00000000
00000000
00000000
,
00000000
00000000
00000000
00033000
,
00001000
00001000
00100000
00000000
,
00100000
00100000
00010000
00000000
,
00010000
00010000
10000000
00000000
,
10000000
10000000
00100000
00000000
,
10000000
01000000
10000000
01000000
,
00010000
01000000
00010000
01000000
,
00010000
00001000
00010000
00001000
,
00000100
00001000
00000100
00001000
,
00000200
00000000
00000000
00000310
;

//--------------- dance-double - Ben Speirs vs. forcednature ----------------
#NOTEDATA:;
#STEPSTYPE:dance-double;
#DESCRIPTION:Ben Speirs vs. forcednature;
#DIFFICULTY:Medium;
#METER:11;
#RADARVALUES:0.42568,0.533908,0.277567,0.832701,0.061228,365,331,34,102,0,0,0,0,0,0.42568,0.533908,0.277567,0.832701,0.061228,365,331,34,102,0,0,0,0,0;
#DISPLAYBPM:170.000:180.000;
#CHARTNAME:;
#CHARTSTYLE:;
#CREDIT:Ben Speirs vs. forcednature;
#NOTES:
00000000
00000000
00000000
00000000
,
00000000
00000000
00000000
00000000
,
00010000
00001000
00010000
00000000
00001000
00100000
00010000
00000000
,
00220000
00000000
00330000
00202000
00000000
00000000
00303000
00000000
,
00001000
00010000
00001000
00000000
00010000
00000010
00001000
00000000
,
00002020
00000000
00003030
00020020
00000000
00000000
00030030
00000000
,
00010000
00001000
00010000
00001000
00100000
00010000
00100000
00010000
,
20000000
00000000
00000000
30200000
00000000
00000000
00320000
00000000
,
00000000
00032000
00000000
00000000
00003200
00000000
00000000
00000320
,
00000000
00000000
00000000
00000000
,
00000000
00000130
00001001
00000002
,
00000023
00000230
00020300
00032000
,
02003000
00000000
03200000
00000000
20300000
00000000
30010000
00100000
,
01000000
00100000
00010000
10000000
00200000
00000000
10300000
00010000
,
10000000
00010000
01000000
00000000
10010000
00000000
20000000
00000000
,
32000000
03200000
00302000
00023000
,
00030020
00000000
00000230
00000000
00000302
00000000
00001003
00000100
,
00000010
00000100
00001000
00000001
00000200
00000000
00000301
00001000
,
00000001
00001000
00000010
00000000
00001001
00000000
00000001
00000100
,
00000001
00000100
00000001
00000100
00000020
00000000
00010030
00001000
,
00010000
00001000
00010000
00001000
00200000
00000000
00310000
10000000
,
00010000
10000000
00010000
02000000
00000000
00000000
03200000
00000000
,
10300000
00010000
10000000
01000000
00200000
00000000
00310000
02000000
,
00000000
00000000
03001000
00000000
00021000
00000000
00030100
00000020
,
00000000
00000000
00000031
00000000
00001000
00000001
00001000
00000000
,
00000001
00000100
00000001
00000000
00002000
00000000
00000000
00003010
,
00020000
00000000
00000000
00031000
00200000
00000000
00000000
00310000
,
20000000
30100000
10010000
10010000
,
10000000
00010000
00100000
00000000
00101000
00000000
00101000
00000000
,
00100000
00001000
00010000
00000000
00000020
00000000
00000130
00000200
,
00000000
00000301
00000002
00000000
00000023
00000000
00000130
00000200
,
00000000
00010000
00020300
00000000
00032000
00000000
00100000
00000000
,
00010000
00100000
00023000
00000010
,
00001000
00000000
00000010
00000000
00032000
00000000
00100000
00203000
,
00000000
00010000
00320000
00000000
20030000
00000000
30100000
00200000
,
00000000
10300000
00010000
00000000
10000000
00000000
10000000
01000000
,
00000000
01000000
00200000
00000000
00000000
00000000
00301000
00000000
,
00010000
00000000
00000010
00000000
00000100
00000000
00000100
00000001
,
00000000
00000001
00002000
00000000
00000000
00000000
00000000
00000000
,
00003100
00000000
00010000
00000000
00001000
00010000
00001000
00010000
,
00001000
00010000
00001000
00010000
00000010
00000000
00000000
00020020
,
00000000
00000000
00030030
00000000
00010000
00001000
00010000
00001000
,
00010000
00001000
00010000
00001000
00100000
00000000
00000000
00202000
,
00000000
00000000
00303000
00000000
00001000
00010000
00001000
00010000
,
00001000
00010000
00001000
00010000
00000200
00000000
00000000
00020300
,
00000000
00000000
00032000
00000000
00000000
00203000
00000000
00000000
,
00320000
00000000
00000000
20000000
00000000
00000000
00000000
00000000
,
00000000
00000000
00000000
30030000
,
00022000
00000000
00000000
00033000
,
00010010
00000000
00000000
00000000
,
00001010
00000000
00000110
00000000
,
00000101
00000000
00000000
00000000
,
00001000
00000000
00000001
00000010
,
00000100
00000100
00010000
00010000
,
00001000
00001000
01000000
01000000
,
02020000
03030000
20200000
30300000
,
20020000
00000000
00000000
30030000
,
10000000
00000000
01000000
10000000
00000000
00000000
00020000
00000000
00000000
00000000
00000000
00000000
,
00130000
00000000
00001000
00010000
00000000
00000000
00002000
00000000
00000000
00000000
00000000
00000000
,
00013000
00000000
00000010
00001000
00000000
00000000
00000020
00000000
00000000
00000000
00000000
00000000
,
00001030
00000000
00000001
00000010
00000000
00000000
00000002
00000000
00000000
00000000
00000000
00000000
,
00001003
00000000
00000100
00000010
00000000
00000000
00000002
00000000
00000000
00001003
00000000
00000000
,
00000001
00000000
00000100
00000010
00000000
00000000
00002000
00000000
00000000
00003100
00000000
00000000
,
00010000
00001000
00000000
00000000
00100000
00010000
00000000
10000000
,
00100000
10010000
10010000
10010000
,
20020000
00000000
30030000
10000000
,
01000000
00010000
00011000
00000000
,
00002002
00000000
00003003
00000001
,
00000100
00001000
00011000
00000000
,
20020000
30030000
00022000
00033000
,
00002002
00003003
00022000
00033000
,
20020000
00000000
00000000
00000000
,
00000000
00000000
00000000
30030000
,
10000000
00000000
01000000
10000000
00000000
01000000
10000000
00000000
01000000
10000000
00000000
00000000
,
00010000
00000000
01000000
00010000
00000000
01000000
00010000
00000000
01000000
00010000
00000000
00000000
,
00100000
00000000
00001000
00100000
00000000
00001000
00100000
00000000
00001000
00100000
00000000
00000000
,
00001000
00010000
00000010
00000100
,
00000001
00000100
00000010
00000100
00000001
00000100
00000010
00000000
,
00001000
00000100
00000010
00000100
00001000
00000100
00000010
00000000
,
00000100
00010000
00001000
00010000
00000100
00010000
00001000
00000000
,
00020000
00032000
00203000
02300000
,
23000000
00000000
00000000
00000000
30010000
01000000
00001000
00000000
;

//--------------- dance-double - Ben Speirs vs. forcednature ----------------
#NOTEDATA:;
#STEPSTYPE:dance-double;
#DESCRIPTION:Ben Speirs vs. forcednature;
#DIFFICULTY:Hard;
#METER:14;
#RADARVALUES:0.608781,0.667385,0.400023,0.734736,0.224503,522,473,49,90,0,0,0,0,0,0.608781,0.667385,0.400023,0.734736,0.224503,522,473,49,90,0,0,0,0,0;
#DISPLAYBPM:170.000:180.000;
#CHARTNAME:;
#CHARTSTYLE:;
#CREDIT:Ben Speirs vs. forcednature;
#NOTES:
00000000
00000000
00000000
00000000
,
00000000
00000000
00000000
00000000
,
00001000
00100000
00001000
00010000
00000010
00010000
00000100
00000010
,
00000002
00000000
00000103
00000020
00000000
00000000
00010030
00000000
,
00010000
00000010
00010000
00001000
00100000
00001000
01000000
00100000
,
20000000
00000000
31000000
00200000
00000000
00000000
00301000
00000000
,
00001000
01000000
00001000
00010000
00000100
00010000
00000010
00000100
,
00000102
00000000
00001003
00002000
00000000
00003100
00020100
00000000
,
00031000
00002000
00000000
01003000
01020000
00000000
10030000
21000000
,
00000000
00010000
00010000
00010000
,
30010000
01100000
10010000
20000000
,
30100000
01000000
00100000
00000000
20100000
00000000
30020000
00000000
,
00230000
00000000
00301000
00000000
00021000
00000000
00030010
00000010
,
00000100
00001000
00000100
00000010
00002000
00000000
00003001
00000010
,
00000100
00001000
00000002
00000000
00000013
00000000
00001002
00000000
,
00000103
00000010
00000100
00000000
00000102
00000000
00002003
00000000
,
00003200
00000000
00010300
00000000
00012000
00000000
01003000
01000000
,
00100000
00010000
00100000
01000000
00010000
10000000
01000000
00100000
,
00010000
01000000
00100000
00100000
10000000
00000000
20100000
00000000
,
30010000
00100000
01000000
00100000
00001000
00010000
00001000
00010000
,
00000010
00000100
00000001
00001000
00000200
00000000
00000310
00000010
,
00000001
00001000
00000010
00000002
00000000
00000013
00001000
00000200
,
00000000
00010300
00001000
00010000
00001000
00100000
00010000
02010000
,
00000000
03100000
10000000
00010000
00110000
00000000
00000000
00101000
,
00000000
00011000
00020000
00000010
,
00032000
00000000
00100000
00000000
00023000
00000000
00000000
00030100
,
00000020
00000000
00000000
00000031
00000200
00000000
00000000
00000310
,
00010000
00000000
00001000
00000000
00010000
00000000
00001000
00000000
00100000
00000000
00000000
00010000
10000000
00000000
00100000
00000000
,
01000000
00000000
00100000
00000000
00010000
00000000
00100000
00000000
10000000
00000000
00000000
00010000
00100000
00000000
00001000
00000000
,
00010000
00000010
00000100
00000001
00002000
00000000
00003100
00000200
,
00000000
00010300
00020000
00000000
00030020
00000000
00001030
00002000
,
00000000
00000000
00003001
00000000
00000002
00000000
00000000
00000000
00001003
00000000
00000000
00001000
00000001
00000000
00000010
00000000
,
00000100
00000000
00000010
00000000
00001000
00000000
00000010
00000000
00000001
00000000
00000000
00001000
00000010
00000000
00010000
00000000
,
00001000
00100000
01000000
10000000
00020000
00000000
01030000
02000000
,
00000000
03001000
00002000
00000000
00203000
00000000
00310000
00020000
,
00000000
10030000
20000000
00000000
30100000
01000000
10000000
01000000
,
00100000
10000000
00020000
00000000
00100000
00000000
00130000
00000000
,
00101000
00000000
00011000
00000000
00010000
00000010
00000100
00001000
,
00000100
00000010
00002000
00000000
00000001
00000000
00003001
00000000
,
00001000
00000100
00000010
00000000
00000001
00000010
00001000
00000010
,
00000001
00000010
00001000
00000010
00000200
00000000
00010300
00020000
,
00000000
00031000
01000000
00000000
00010000
01000000
10000000
01000000
,
00010000
01000000
10000000
01000000
00200000
00000000
00310000
00020000
,
00000000
00031000
00100000
00000000
00001000
00010000
00001000
00010000
,
00000010
00000100
00000001
00001000
00001200
00000000
00010300
00020000
,
00000000
00031000
00002000
00000000
01003000
02000000
00000000
03100000
,
01200000
00000000
10300000
20020000
00000000
30030000
10000000
01000000
,
00100000
00002000
00000000
00000000
00000000
00000000
00013000
00000000
,
00022000
00000000
00000000
00033000
,
00010000
00000000
00010000
00000010
00000000
00000010
00000200
00000000
00000000
00000301
00000000
00000000
,
00000202
00000303
00002020
00003030
,
00001000
00000000
00001000
00000100
00000000
00000100
00010000
00000000
00010000
00001000
00000000
00001000
,
00100000
00000000
00010000
00000000
00200000
00000000
00000000
00000000
00000000
00000000
00000000
00000000
01300000
00000000
00000000
01000000
00000000
00000000
10000000
00000000
00000000
00010000
00000000
00000000
,
10000000
00100000
10000000
00100000
00000000
00000000
10000000
00010000
10000000
00010000
00000000
00000000
,
00210000
00000000
00000000
00301000
00000000
00000000
00010000
00000000
00000010
00000000
00000100
00000000
,
00000001
00000100
00000001
00000100
00000000
00000000
00000010
00001000
00000010
00001000
00000000
00000000
,
00000001
00001000
00000001
00001000
00000100
00000100
00010000
00000000
,
00001000
00100000
00001000
00010000
00000000
00000000
00202000
00000000
00000000
00303000
00000000
00000000
,
00010000
00000010
00010000
00001000
00000000
00000000
00020020
00000000
00000000
00030030
00000000
00000000
,
00001000
01000000
00001000
00010000
00000000
00000000
02002000
00000000
00000000
03003000
00000000
00000000
,
00010000
00000100
00010000
00001000
00000000
00000000
00020200
00000000
00000000
00030300
00000000
00000000
,
00010000
00000100
00010000
00002000
00000000
00000000
00203000
00000000
00000000
00310000
00000000
00000000
,
10000000
00000000
00010000
00000000
10000000
00000000
00200000
00000000
00000000
00000000
00000000
00000000
01300000
00000000
00000000
01000000
00000000
00000000
00100000
00000000
00000000
10000000
00000000
00000000
,
00010000
00010000
00000000
00000000
00100000
00100000
00000000
00001000
,
00001000
01001000
00101000
00010100
,
00020020
00030030
00000110
00010010
,
00011000
01001000
01020000
00130000
,
20020000
30030000
11000000
00110000
,
00001100
00000011
00001002
00000013
,
00001002
00000000
00000000
00000103
00002000
00000000
00000000
00013000
,
00200000
00000000
00000000
10300000
02000000
00000000
00000000
03100000
,
00002000
00000000
00013000
00010000
00000010
00000010
00000100
00000100
,
00000001
00000000
00000010
00000000
00000100
00000000
00001000
00000000
00000010
00000000
00000100
00000010
00000100
00000000
00000000
00000000
,
00000101
00000000
00000001
00001000
00000000
00001000
00000100
00000000
00000100
00010000
00000000
00000000
,
00011000
00000000
00001000
01000000
00000000
01000000
00100000
00000000
00100000
10000000
00000000
00000000
,
11000000
00000000
01000000
00100000
00000000
00100000
00010000
00000000
00010000
01000000
00000000
00000000
,
01001000
00000000
00001000
00010000
00000000
00010000
00000100
00000000
00000100
00000010
00000000
00000000
,
00000001
00000010
00000001
00000000
00001000
00000000
00000001
00000000
00000010
00000000
00000001
00000000
00001000
00000000
00000001
00000000
,
00001000
00000010
00001000
00000000
00000001
00000000
00001000
00000000
00000010
00000000
00001000
00000000
00000001
00000000
00001000
00000000
,
00000100
00010000
00000100
00000000
00010000
00000000
00000100
00000000
00010000
00000000
00001000
00000000
00010000
00000000
00000100
00000000
,
00010000
00001000
00010000
00000000
00001000
00100000
00001000
00000000
00100000
00000000
00010000
00000000
01000000
00000000
00100000
00000000
,
20000000
00000000
00000000
00000000
00000000
00000000
00000000
00000000
30010000
00100000
00010000
00100000
00010000
00000000
00000000
00000000
;

//--------------- dance-double - Ben Speirs vs. forcednature ----------------
#NOTEDATA:;
#STEPSTYPE:dance-double;
#DESCRIPTION:Ben Speirs vs. forcednature;
#DIFFICULTY:Challenge;
#METER:17;
#RADARVALUES:0.78022,1.101185,0.661262,0.555134,0.591871,669,588,81,68,0,0,0,0,0,0.78022,1.101185,0.661262,0.555134,0.591871,669,588,81,68,0,0,0,0,0;
#DISPLAYBPM:170.000:180.000;
#CHARTNAME:;
#CHARTSTYLE:;
#CREDIT:Ben Speirs vs. forcednature;
#NOTES:
00000000
00000000
00000000
00000000
,
00000000
00000000
00000000
00000000
,
00010000
00001000
00010000
01000000
00100000
00001000
00010000
00000100
,
00000120
00000000
00000031
00000201
00000000
00000310
00011000
00000000
,
00001000
00010000
00001000
00000100
00000010
00010000
00001000
01000000
,
01200000
00000000
10300000
12000000
00000000
03100000
00011000
00000000
,
00010000
00000000
00001000
00000000
00010000
00000000
01000000
00000000
00100000
00000000
00001000
00010000
00001000
00010000
00001000
00010000
,
00000020
00000000
00000130
00002010
00000000
00003100
00021000
00000000
,
00130000
01020000
00000000
00130000
12000000
00000000
03100000
00012000
,
00000000
00000100
00000100
00000100
,
00003100
00000000
00001000
00010000
00001000
00000000
00000000
00000000
00011000
00000000
00000000
00000000
00201000
00000000
00000000
00000000
,
01300000
00010000
02000000
00000000
03100000
00010000
10000000
00100000
,
01000000
00010000
00200000
00000000
00302000
00000000
00013000
00010000
,
00000010
00000000
00000100
00000000
00001000
00000000
00000100
00000000
00000020
00000000
00000000
00000000
00001030
00000100
00000010
00000001
,
00000100
00000010
00001000
00000001
00000020
00000000
00000000
00000000
00000130
00000000
00000000
00000000
00002100
00000000
00000000
00000000
,
00003010
00000001
00000020
00000000
00000130
00001000
00000100
00000001
,
00001000
00000010
00010000
00000000
00201000
00000000
00310000
00010000
,
01000000
00000000
10000000
00000000
01000000
00000000
00100000
00000000
10000000
00000000
01000000
00100000
00010000
00000000
10000000
00000000
,
00100000
00010000
00001000
00001000
00011000
00000000
00010010
00001000
,
00010000
00000100
00001000
00000010
00010000
00000000
00010100
00010000
,
00001000
01000000
00100000
10000000
01000000
00000000
11000000
00010000
,
00100000
01000000
00010000
00012000
00000000
00003100
00000001
00001000
,
00000010
00000000
00010000
00000000
00001000
00100000
00001000
00100000
00001000
00000000
00100000
00010000
01000000
00000000
00002000
00000000
,
00000000
00013000
00000010
00000100
00000110
00000000
00000001
00000101
,
00000000
00001000
00000100
00000010
00000002
00000000
00000010
00000000
,
00002003
00000000
00000000
00000000
00003010
00000000
00000000
00000000
00002002
00000000
00000000
00000000
00003003
00000000
00001000
00000200
,
00020000
00000000
00000000
00000000
00030300
00000000
00010000
00002000
02000000
00000000
00000000
00000000
03003000
00000000
00001000
01000000
,
00100000
00000000
10000000
00010000
10000000
01000000
00100000
00010000
01000000
00000000
00100000
00000000
10000000
00000000
00100000
00000000
,
01000000
00000000
00010000
00100000
00010000
00000000
00100000
00001000
00100000
00000000
00001000
00000000
00010000
00000000
00000010
00000000
,
00001000
00000000
00000010
00000000
00000100
00000000
00000001
00000010
00000100
00000000
00000000
00000000
00001100
00000000
00001100
00000000
,
00000000
00101000
00101000
00000000
00011000
00000000
00010010
00010010
,
00000000
01010000
01010000
00000000
20010000
00000000
31000000
00100000
,
10000000
00000000
00100000
01000000
00100000
00000000
00010000
01000000
00002000
00000000
00000000
00000000
00013000
00000000
00000010
00000000
,
00000100
00000000
00000001
00001000
00000001
00000000
00001000
00000100
00000010
00000000
00000000
00000000
00001001
00000000
00001001
00000000
,
00000000
00011000
00011000
00000000
01100000
00000000
10010000
10010000
,
00000000
00000000
00011000
00000000
00011000
00000000
00000000
00000000
00010000
00000000
00000010
00000100
00000010
00000000
00010000
00000000
,
00000100
00000010
00000100
00000000
00002000
00000000
00000000
00000000
00000001
00000000
00000000
00000000
00013000
00000000
00000000
00000000
,
00001010
00000000
00000000
00000000
00011000
00000000
00000000
00000000
00001000
00000000
00100000
01000000
00100000
00000000
00001000
00000000
,
01000000
00100000
01000000
00000000
00020000
00000000
00000000
00000000
10000000
00000000
00000000
00000000
00031000
00000000
00000000
00000000
,
00110000
00000000
00011000
00000000
00010000
00001000
00000100
00001000
,
00000100
00000001
00000010
00001000
00020000
00000000
00000001
00000001
,
00000000
00031000
00011000
00000000
00001000
00010000
01000000
00010000
,
01000000
10000000
00100000
00010000
00002000
00000000
10000000
10000000
,
00000000
00013000
00011000
00000000
00010000
00001000
00000100
00000010
,
00001000
00000000
00000001
00001000
00000001
00000010
00000100
00001000
00000020
00000000
00000000
00000000
00001030
00000000
00020100
00000000
,
00000000
00130000
02010000
00000000
03100000
20010000
00000000
31000000
,
00210000
00000000
00301000
00020100
00000000
00000000
00030010
00000100
,
00000001
00000000
00002000
00000000
00000000
00000000
00000000
00000000
00000000
00000000
00003100
00010000
00001000
00000000
00000000
00000000
,
00022000
00000000
00000000
00033000
,
00001000
00100000
00001000
00010000
00000100
00010000
00002000
00000000
00000000
01003000
00000000
00000000
,
01020000
01030000
10200000
10300000
,
10010000
00000000
00000000
10000000
01000000
00100000
00010000
01000000
00100000
00010000
00001000
00100000
,
00010000
00000000
00001000
00000000
00000200
00000000
00000000
00000000
00000000
00000000
00000000
00000000
00000310
00000000
00000000
00000010
00000000
00000000
00000001
00000000
00000000
00001000
00000000
00000000
,
00000001
00000001
00000100
00000010
00001000
00000100
00010000
00010000
00001000
00100000
00010000
01000000
,
00100000
00100000
10000000
01000000
00100000
00010000
01000000
00000000
01010000
00000000
01001000
00000000
,
00001000
00100000
00001000
00020000
00000000
00030010
00000100
00000001
00000100
00000020
00000000
00001030
,
00000001
00000010
00000001
00001000
00000010
00001000
00000001
00000010
00000100
00010000
00000000
00000000
,
00001000
01000000
00100000
10000000
00000000
00000000
20100000
00000000
00000000
30010000
00000000
00000000
,
10000000
01000000
00100000
00001000
00000000
00000000
00102000
00000000
00000000
00013000
00000000
00000000
,
00010000
00000100
00000010
00000001
00000000
00000000
00000012
00000000
00000000
00001003
00000000
00000000
,
00000001
00000100
00000010
00010000
00000000
00000000
00020010
00000000
00000000
00030100
00000000
00000000
,
00010000
00000010
00010000
00001000
00100000
00010000
02000000
00000000
00000000
03100000
00000000
00000000
,
10000000
00000000
00010000
00000000
10000000
00000000
01000000
00000000
00100000
00000000
00001000
00000000
00010000
00000000
00000000
00000010
00000000
00000000
00000100
00000000
00000000
00000001
00000000
00000000
,
00000101
00000101
00000000
00000000
00010100
00011000
00000000
01001000
,
00101000
01100000
00101000
01001000
,
20020000
00000000
00000000
00000000
30030000
00000000
10000000
01000000
00100000
00000000
00000000
00000000
00110000
00000000
00100000
00000000
,
00101000
00001000
00011000
00010000
00010020
00000000
00000130
00000000
,
00002002
00000000
00000000
00000000
00003003
00000000
00000001
00000100
00000010
00000000
00000000
00000000
00001010
00000000
00000010
00000000
,
00010010
00010000
00011000
00001000
00201000
00000000
01300000
00000000
,
20020000
00000000
00000000
00000000
30030000
00000000
10000000
00100000
00020000
00000000
00000000
00000000
00000000
00000000
00130000
00010000
,
00002000
00000000
00000000
00000000
00000000
00000000
00013000
00001000
00000020
00000000
00000000
00000000
00000000
00000000
00001030
00000010
,
00000002
00000000
00001003
00001000
00000001
00000001
00000100
00000100
,
00000010
00000010
00010000
00000100
00000001
00000100
00000110
00000000
,
00001001
00000000
00001000
00000100
00000000
00000001
00000100
00000000
00001000
00000100
00000000
00010000
,
00001000
00000000
00000100
00001000
00000000
00010000
00001000
00000000
00000100
00001000
00000000
00100000
,
01000000
00000000
00010000
01000000
00000000
10000000
01000000
00000000
00010000
01000000
00000000
10000000
,
00100000
00000000
00010000
00100000
00000000
10000000
00100000
00000000
00010000
00100000
00000000
10000000
,
00010000
00100000
01000000
10000000
00010000
00100000
01000000
10000000
00010000
00100000
01000000
10000000
00010000
00100000
01000000
00100000
,
00001000
00010000
00001000
00100000
00001000
00010000
00001000
01000000
00001000
00010000
00001000
00100000
00001000
00010000
00000100
00001000
,
00000001
00000100
00000010
00001000
00000001
00000100
00000010
00001000
00000001
00000100
00000010
00001000
00000001
00000100
00000010
00001000
,
00000100
00000010
00000100
00000010
00000001
00000100
00000001
00000100
00001000
00010000
00001000
00010000
00100000
10000000
00100000
10000000
,
00020000
00000000
00000000
00000000
00000000
00000000
00000000
00030000
10000000
01000000
00010000
00001000
00000010
00000000
00000000
00000000
;
