#VERSION:0.83;
#TITLE:STRAIGHT TO THE STARS;
#SUBTITLE:;
#ARTIST:BEMANI Sound Team "Expander" feat. Starbitz;
#TITLETRANSLIT:;
#SUBTITLETRANSLIT:;
#ARTISTTRANSLIT:Expander feat. Starbitz;
#GENRE:COLOUR BASS BREAKS;
#CREDIT:;
#MUSIC:STRAIGHT TO THE STARS.ogg;
#BANNER:STRAIGHT TO THE STARS.png;
#BACKGROUND:STRAIGHT TO THE STARS-bg.png;
#CDTITLE:./CDTitles/bm IIDX 30 RESIDENT.png;
#SAMPLESTART:83.017;
#SAMPLELENGTH:15.000;
#SELECTABLE:YES;
#OFFSET:0.511;
#BPMS:0.000=158.000
,212.000=79.000
,214.000=158.000
,215.000=316.000
,217.000=553.000
,220.500=158.000
;
#STOPS:220.500=0.190;
#DISPLAYBPM:158.000;
#BGCHANGES:0.000=STRAIGHT TO THE STARS.mp4=1.000=0=0=0=StretchNoLoop====,
99999.000=-nosongbg-=1.000=0=0=0=StretchNoLoop====
;
#FGCHANGES:;

//--------------- dance-single - forcednature ----------------
#NOTEDATA:;
#STEPSTYPE:dance-single;
#DESCRIPTION:forcednature;
#CREDIT:forcednature;
#DIFFICULTY:Beginner;
#METER:4;
#RADARVALUES:0,0,0,0,0;
#NOTES:
0000
0000
0000
0000
,
0000
0000
0000
0000
,
0000
0000
0000
0000
,
0000
0000
0000
0000
,
0000
0000
0000
0000
,
1001
0000
0000
0000
,
1000
0000
1000
0000
,
0100
0000
0010
0000
,
0001
0000
0000
0000
,
1001
0000
0000
0000
,
0001
0000
0001
0000
,
0100
0000
0010
0000
,
2000
0000
3000
0000
,
0000
0001
1000
0000
,
0000
1000
0001
0000
,
0000
0010
0000
0010
,
0000
0100
0010
0000
,
0000
0001
1000
0000
,
0000
1000
0001
0000
,
0000
0100
0010
0000
,
0110
0000
0000
0000
,
1000
0000
0100
0000
,
0001
0000
0000
0000
,
0100
0000
1000
0000
,
0001
0000
0000
0000
,
0001
0000
0100
0000
,
1000
0000
0000
0000
,
0100
0000
0001
0000
,
2000
0000
3000
0000
,
0010
0000
0110
0000
,
0000
0000
0001
0000
,
1000
0000
1001
0000
,
0100
0000
0010
0000
,
0110
0000
0000
0000
,
0001
0000
1000
0000
,
0010
0000
0010
0000
,
0100
0000
0110
0000
,
0000
0000
1001
0000
,
1000
0000
0100
0000
,
0000
0000
1001
0000
,
0001
0000
0010
0000
,
0100
0000
0010
0000
,
0001
0000
1000
0000
,
0100
0000
0100
0000
,
1001
0000
0000
0000
,
0001
0000
0001
0000
,
0100
0000
0000
0000
,
0010
0000
0010
0000
,
1000
0000
0000
0000
,
0001
0000
0010
0000
,
0100
0000
1000
0000
,
0010
0000
0100
0000
,
0001
0000
0000
0000
,
2002
0000
0000
0000
,
0000
0000
0000
0000
,
0000
3003
0000
0000
1000
0000
0100
0000
,
0000
1000
0000
0010
,
0000
0000
0100
0001
,
0000
0010
0010
0001
,
0000
0000
0100
0010
,
0000
1000
0000
1001
,
0000
0000
0001
0100
,
0000
0010
0000
1001
,
0000
0000
1000
0100
,
0000
0001
0000
0100
,
0000
0000
1000
0010
,
0000
0100
0100
0001
,
0000
0000
0010
0001
,
0000
0100
0000
0010
,
0000
1001
0000
0100
,
0000
0110
0000
0010
,
0000
2002
0000
3003
,
0000
0000
1000
0000
,
1000
0000
0001
0000
,
0001
0000
0010
0000
,
0100
0000
0020
0030
,
2002
0000
0000
0000
,
0000
3003
0000
0000
;

//--------------- dance-single - forcednature ----------------
#NOTEDATA:;
#STEPSTYPE:dance-single;
#DESCRIPTION:forcednature;
#CREDIT:forcednature;
#DIFFICULTY:Easy;
#METER:8;
#RADARVALUES:0,0,0,0,0;
#NOTES:
0000
0000
0000
0000
,
0000
0000
0000
0000
,
0000
0000
0000
0000
,
0000
0000
0000
0000
,
0000
0200
0020
0330
,
1001
1000
0100
0010
,
0100
1000
0100
0000
0010
0000
0000
0000
,
0001
0100
0010
0100
,
0001
0100
0001
0000
1000
0000
0000
0000
,
0010
0100
0001
0010
,
0100
0010
0100
0000
1000
0000
0000
0000
,
0001
1000
0010
0100
,
0010
0100
0010
0000
1000
0000
0001
0000
,
0000
1001
1100
0001
,
0000
1001
0101
1000
,
0000
0000
0001
1000
0001
0000
0010
0000
,
0100
0110
1000
0010
,
0000
1100
1001
0010
,
0000
0101
1001
0010
,
0000
0000
1000
0001
1000
0000
0010
0000
,
0200
0000
0000
0000
0001
0001
0301
0000
,
0101
1000
0100
0010
,
0001
0010
0100
0000
1000
0000
0001
0000
,
0100
0010
1000
0100
,
0010
0100
1000
0000
0010
0000
1001
0000
,
0001
0100
0010
1000
,
0100
1000
0001
0000
0010
0000
0100
0000
,
0010
0001
1000
0010
,
0220
0000
0330
0000
0001
1000
0001
0000
,
1001
0000
0110
0000
,
1000
1000
1000
0000
0001
0000
0100
0000
,
1001
0000
0110
0000
,
0001
0001
0001
0000
1000
0000
0100
0000
,
1100
0000
1010
0000
,
0002
0203
0320
1030
,
1010
0000
0101
0000
,
0001
0001
0001
0000
0010
0000
0100
0000
,
1001
0000
0110
0000
,
1000
1000
1000
0000
0010
0000
0100
0000
,
1001
0000
0101
0000
,
0001
0010
0001
0000
0100
0000
0010
0000
,
0110
0000
1001
0000
,
1000
0100
1000
0000
0010
0000
0100
0000
,
0110
0000
1001
0000
,
0002
0023
0230
2300
,
3010
0010
0100
0001
,
0010
0010
0100
1000
,
0001
0001
0100
0010
,
1000
1000
0200
0300
,
0010
0100
0010
0000
0001
0000
1000
0000
,
0010
0100
0010
0000
1000
0000
0001
0000
,
0100
0100
0100
0000
0010
0000
1000
0000
,
0002
0203
0320
0030
,
2002
0000
0000
0000
,
0000
0000
0000
0000
,
0000
3003
0000
0000
1100
0000
0101
0000
,
0000
0000
0001
0010
0100
0000
1000
0000
,
0001
0000
0101
1100
,
0000
0000
1000
0010
0100
0000
0001
0000
,
0010
0000
0000
0100
0010
0100
0010
0000
,
0000
0001
1000
0010
,
0110
0000
0000
0100
0010
0100
0010
0000
,
0000
1000
0001
0020
,
0030
0000
1100
0000
0001
0000
0010
0100
,
0010
0001
0100
1000
,
0100
0000
0101
0000
1000
0000
0010
0100
,
0010
1000
0100
0002
,
0003
0110
1000
0010
,
0100
0000
0001
1000
0100
0000
0010
0000
,
0000
1001
1000
1010
,
0001
0000
0011
0000
0100
0000
0010
0100
,
0020
2000
0000
3030
,
0000
0001
0100
0001
,
0010
0100
1000
0010
,
1000
0000
0100
0000
0010
0100
0010
0000
,
0001
1000
0001
0000
0200
0000
0000
0300
,
2002
0000
0000
0000
,
0000
3003
0000
0000
;

//--------------- dance-single - forcednature ----------------
#NOTEDATA:;
#STEPSTYPE:dance-single;
#DESCRIPTION:forcednature;
#CREDIT:forcednature;
#DIFFICULTY:Medium;
#METER:12;
#RADARVALUES:0,0,0,0,0;
#NOTES:
0000
0000
0000
0000
,
0000
0000
0000
0000
,
0000
0000
0000
0000
,
0000
0000
0000
0000
,
0000
0000
2000
3020
0230
0302
0003
0000
,
0011
0000
1001
0000
1000
0100
0001
0000
,
0100
1000
0020
0000
0130
0001
0100
0000
,
0101
0000
0011
0000
0001
0100
1000
0000
,
0200
0000
0301
0100
0010
1000
0001
0000
,
1001
0000
1000
1000
0100
0001
0100
0000
,
0010
0001
0100
0000
0010
1000
0100
0000
,
1001
0000
0001
0001
0100
1000
0100
0000
,
0110
0000
0010
1000
0001
0100
0010
0000
,
1001
0000
1000
0200
0000
0010
0310
0000
,
0110
0000
0001
0200
0000
0010
0310
0000
,
0110
0000
1000
0001
0100
0001
1000
0000
,
0010
0100
0002
0000
0013
0000
0110
0000
,
1001
0000
0001
0020
0000
0100
0130
0000
,
0110
0000
1000
0020
0000
0100
0130
0000
,
0110
0000
0001
1000
0100
1000
0001
0000
,
0011
0020
0130
1001
,
1000
0010
0100
0010
1000
0100
0001
0000
,
0100
1000
0010
0000
0100
0001
0010
0000
,
0001
0100
0001
0100
0010
1000
0100
1000
,
0001
0010
0100
1000
0010
0000
1001
0000
,
1000
0010
0001
0010
1000
0010
0100
0000
,
0001
0010
1000
0010
0001
0010
0100
0000
,
1000
0001
0100
0001
0010
0100
1000
0100
,
0020
0000
0000
0000
0030
0000
0000
0000
0001
1000
0001
0000
1000
0000
0000
0000
,
1010
0000
0001
0000
0101
0000
0000
1000
,
1000
0001
0001
1000
0020
0000
0030
0000
,
1100
0001
0011
1000
,
0010
0000
0010
0000
0100
0000
0220
0000
0000
0330
0000
0000
,
1000
0001
0100
0100
0001
0000
0020
0000
,
0130
0000
0100
0000
1000
0000
0010
0000
0100
0000
0001
0000
,
0010
0001
0010
0000
0011
0000
1000
0000
,
0010
0000
0010
0000
0010
0000
0200
0000
0000
0301
0000
0000
,
1001
0000
1000
0100
0001
0000
0000
0100
,
0100
1000
1000
0010
0200
0000
0302
0000
,
0013
0000
0001
0001
1000
0000
0010
0100
,
0001
0000
0001
0000
1000
0000
1001
0000
0000
0010
0000
0000
,
0110
0000
1000
1000
0001
0000
0020
0000
,
0130
0000
1000
0000
0001
0000
0100
0000
1000
0000
0100
0000
,
0001
0000
0010
0010
0001
0010
0200
0000
,
1300
0000
0000
0000
1000
0000
0000
0000
0010
0000
0000
0000
0100
0000
0000
0001
0000
0000
0010
0000
0000
0000
0000
0000
,
1001
0000
1000
0100
1000
0100
1000
0000
,
0010
0100
0010
0000
0100
0001
0100
0000
,
0001
0010
0001
0000
0100
0010
0100
0000
,
0010
1000
0010
0000
2000
0000
3000
0000
,
0001
0000
0001
0100
1000
0100
0001
0000
,
1000
0000
1000
0100
0001
0100
1000
0000
,
0010
0000
0010
0100
0001
1000
0010
0000
,
0200
0000
0002
0303
,
0022
0000
0000
0000
,
0000
0000
0000
0000
,
0000
0033
0000
0001
1000
0100
0001
0100
,
1000
0000
0000
0000
0010
1000
0010
0000
1000
0000
0010
0000
0100
0000
0001
0000
,
0010
0000
0110
0000
0100
1000
0010
0100
,
0010
0000
0000
0000
1000
0001
1000
0000
0010
0000
0200
0000
0000
0000
0301
0000
,
0010
0000
0100
1000
0010
0001
0010
1000
,
0100
0000
0000
0000
0001
0000
0100
0000
1000
0100
1000
0000
0100
0000
0010
0000
,
0001
0000
0100
1000
0100
0001
0010
1000
,
0010
0000
0000
0000
0001
0000
0100
0001
0100
0000
0000
0010
0000
0000
1000
0000
,
0000
0000
0110
0000
0001
1000
0010
1000
,
0100
0000
1000
0000
0010
0000
0100
0010
0100
0000
0001
0000
0010
0000
0100
0000
,
1000
0000
0001
0100
0100
0001
0010
0001
,
1000
0000
0010
0000
0100
0000
0001
0100
0001
0000
0010
0000
0100
0000
0010
0000
,
1000
0000
0110
0000
0010
0001
0100
0001
,
1000
0000
0000
0000
0100
1000
0100
0000
1000
0000
0010
0000
0000
0010
0100
0000
,
0000
1001
1100
1001
,
0101
0000
0000
0000
0001
0000
0010
0000
0100
0000
1000
0100
0000
0000
1000
0000
,
0020
0200
0000
0330
,
0000
0000
1000
0001
0100
0000
0001
1000
,
0100
0000
0010
0001
0100
0000
0010
1000
,
0100
0000
0001
0100
1000
0100
1000
0010
,
0001
0010
1000
0000
0001
0200
0000
0300
,
2002
0000
0000
0000
,
0000
3003
0000
0000
;

//--------------- dance-single - forcednature ----------------
#NOTEDATA:;
#STEPSTYPE:dance-single;
#DESCRIPTION:forcednature;
#CREDIT:forcednature;
#DIFFICULTY:Hard;
#METER:16;
#RADARVALUES:0,0,0,0,0;
#NOTES:
0000
0000
0000
0000
,
0000
0000
0000
0000
,
0000
0000
0000
0000
,
0000
0000
0000
0000
,
0000
0000
0000
0000
1000
0000
0001
0000
0010
0100
1000
0001
0020
0000
0000
0000
,
0031
0000
0100
0001
0100
0000
0001
1000
0100
0000
1000
0000
0010
0000
0010
0000
,
0200
0000
0000
0000
0301
1000
0100
0010
0001
0000
0001
0000
0100
0000
0000
0000
,
0120
0000
0000
0000
1030
0000
0010
1000
0001
0000
0010
0001
0010
0000
0100
0000
,
2000
0000
0000
0000
3010
0100
0001
1000
0010
0000
0100
0000
1001
0000
0000
0000
,
0021
0000
0000
0000
0031
0100
0001
1000
0100
0000
1000
0000
0020
0000
0000
0030
,
1000
0010
1000
0001
0010
0000
0010
0000
0100
0000
0010
0001
1000
0000
0000
0000
,
0020
0000
0000
0000
0130
0001
1000
0100
1000
0000
0010
0000
0200
0000
0000
0000
,
0301
0010
0000
0100
1000
0000
0001
0100
0000
0010
1000
0000
1001
0000
0000
0000
,
0001
0010
0000
0000
0011
0000
0201
0000
0000
0000
0310
0000
0100
0000
0010
0000
,
1000
0010
0000
0000
1010
0000
1200
0000
0000
0000
0310
0000
0100
0010
0001
0000
,
2000
0000
0000
0000
3010
0000
0100
0001
1000
0000
0100
1000
0001
0000
0001
0000
,
0010
0100
0000
0100
0010
0000
0001
1000
0000
0010
0100
0000
1001
0000
0000
0000
,
2000
0000
0000
0000
3010
0100
0001
0010
0100
0000
1000
0000
0010
1000
0000
0000
,
0002
0000
0000
0000
0013
0100
1000
0010
0100
0000
0001
0100
0010
0000
0000
0000
,
2001
0000
0000
0000
3100
0000
0010
0100
1000
0000
0010
0100
0001
0000
0010
0000
,
1001
0000
0000
0000
0001
0100
0001
0100
0010
1000
0001
0100
0020
0000
0000
0000
,
1030
0100
0000
1000
0001
0000
0010
0001
0010
0000
0100
0000
2000
0000
0000
0000
,
3010
0100
0001
0000
0001
0010
0100
0000
0100
1000
0001
0000
0100
0010
0000
0100
,
2000
0000
0000
0000
3100
0000
0001
0000
1000
0000
0100
1000
0100
1000
0010
0100
,
0001
0000
0010
0000
1000
0000
0010
0000
0001
0100
0010
1000
0100
0000
0000
0000
,
1001
0000
0000
0001
0100
0000
0010
1000
0010
0000
0100
0000
0002
0000
0000
0000
,
0013
0100
1000
0000
1000
0010
0100
0000
0100
0001
1000
0000
0100
0010
0000
0100
,
0002
0000
0000
0000
0103
0000
1000
0000
0001
0000
0100
0001
0100
0001
0010
0100
,
2000
0000
0000
0000
3000
0000
0000
0000
1000
0100
0010
0100
0001
0000
0000
0000
,
0101
0000
0000
0000
0100
0000
1000
0000
1100
0000
0000
1000
0000
0000
0010
0000
,
0010
0000
0010
0000
0010
0000
0010
0000
2000
0000
0000
0000
3002
0023
0230
2300
,
3010
0000
0000
0100
0010
0100
0010
0100
0001
0000
0000
0010
0001
1000
0001
1000
,
0100
0010
0001
0010
0100
1000
0020
0000
0000
0030
0000
0000
,
1001
0000
0000
0001
0100
0000
0100
0000
1010
0000
0000
1000
0002
0000
0000
0000
,
0013
0100
1000
0010
0100
0001
0010
1000
0010
0001
1000
0100
,
0010
0000
0000
0000
0001
0100
0001
0100
0010
1000
0010
1000
0001
0000
0001
1000
,
0100
0000
0100
0000
1000
0000
0001
0000
0001
0000
1000
0000
0010
0000
0000
0100
0000
0000
0110
0000
0000
0000
0000
0000
,
1001
0000
0000
0000
0001
0000
0100
0000
0101
0000
0000
1000
0000
0000
0010
0000
,
0010
0000
0010
0000
0010
0100
0010
0000
0200
0302
0203
0302
2003
3020
0230
0302
,
0013
0000
0000
0100
1000
0100
0010
0100
1000
0000
0000
0010
0100
0001
0100
0010
,
0100
0001
0010
0100
1000
0010
0220
0000
0000
0330
0000
0000
,
1001
0000
0001
1000
0100
0000
0100
0000
0110
0000
1000
0001
0020
0000
0000
0000
,
0130
1000
0010
0100
0001
0010
1000
0010
0001
1000
0001
0100
,
0010
0000
0000
0000
1000
0100
1000
0001
0100
0001
1000
0100
0010
0000
0010
0001
,
1000
0000
1000
0000
0010
0000
0100
0000
0100
0000
0001
0000
0010
0000
0000
0100
0000
0000
0110
0000
0000
0000
0000
0000
,
2001
0000
0001
0001
0001
0001
0001
0000
,
0100
0100
0100
0000
0010
0010
0010
0000
,
3001
0001
0010
0010
0100
0100
1000
1000
,
0010
0100
0010
0100
0001
1000
0010
0100
0002
0000
0000
0000
0003
0000
0000
0000
,
1000
0100
1000
0001
0100
0001
1000
0010
1000
0000
0100
0000
0010
0000
0001
0000
,
0010
0100
0010
0001
1000
0001
0100
0010
0100
0000
0010
0000
1000
0000
0001
0000
,
0010
0001
1000
0010
1000
0001
0010
0001
1000
0100
0010
0001
1000
0010
0100
0001
,
2000
0000
0000
0000
0000
0000
0000
0000
0000
3000
0000
0000
0200
0000
0000
0000
0000
0000
0000
0000
0300
0000
0000
0000
0020
0000
0000
0000
0000
0000
0030
0000
0000
0000
0000
0000
0002
0000
0000
0000
0003
0000
0000
0000
0000
0000
0000
0000
,
2001
0000
0020
0000
,
0000
0000
0000
0000
,
0000
0000
3030
0000
0000
0000
1000
0100
0010
0000
0001
0100
0010
0000
1000
0100
,
0000
1100
0000
0000
0001
0000
0010
0000
1000
0000
0010
0000
0001
1000
0001
0100
,
0010
0000
0000
0000
1000
0000
0001
0010
0100
0000
1000
0010
0100
0000
0001
0010
,
0000
0011
0000
0000
1000
0100
0000
0100
0001
0000
0100
1000
0000
0001
0010
0000
,
0110
0000
0000
0000
1000
0000
0100
1000
0010
0000
0100
0001
0010
0000
0100
1000
,
0001
0000
0100
0000
0101
0000
0110
0000
1010
0000
1100
0000
0000
0100
1000
0100
,
0010
0000
0000
0000
0001
0000
1000
0010
0100
0000
0100
0001
0010
0000
1000
0000
,
0010
0000
0001
0000
0100
0001
0100
0010
1000
0000
0100
0001
0000
0100
1000
0001
,
0000
0000
0000
0000
1000
0100
0010
0100
1000
0000
0010
0100
0001
0000
0010
0001
,
0000
0011
0000
0000
1000
0000
0100
0000
0001
0000
0100
0000
1000
0001
1000
0010
,
0100
0000
0000
0000
0001
1000
0100
1000
0001
0000
0010
0100
1000
0000
0010
1000
,
0000
1010
0000
0000
0001
0100
0000
0100
1000
0000
0100
0001
0000
1000
0010
0000
,
0110
0000
0000
0000
0100
0001
0010
0100
1000
0000
1000
0001
0100
0000
0010
1000
,
0001
0000
0010
0000
0011
0000
0101
0000
0110
0000
1010
0000
0000
1000
0100
0001
,
0000
0000
0000
0000
0110
0000
0000
0100
1000
0000
0010
1000
0100
0000
0010
0001
,
0010
0100
1000
0000
0100
1000
0010
0100
0001
0000
0100
1000
0000
0100
0001
0000
,
0020
0000
0000
0000
0230
0000
0000
0000
0000
0000
0000
0000
1300
0001
0100
0001
,
0010
0000
0000
0000
1001
0000
1000
0000
0100
1000
0000
1000
0100
0000
1000
0000
,
0010
0100
0001
0000
0100
0000
0010
0000
1000
0001
0000
0001
0010
0000
0001
0000
,
0100
0010
1000
0000
0100
0000
0100
0000
1000
0010
0000
0100
0001
0000
0010
0000
,
0100
1000
0001
0000
0200
0000
0000
0000
0310
0000
0020
0000
0000
1030
0100
0010
,
0002
0000
0000
0000
,
0000
0003
0000
0000
;

//--------------- dance-double - forcednature ----------------
#NOTEDATA:;
#STEPSTYPE:dance-double;
#DESCRIPTION:forcednature;
#CREDIT:forcednature;
#DIFFICULTY:Easy;
#METER:8;
#RADARVALUES:0,0,0,0,0;
#NOTES:
00000000
00000000
00000000
00000000
,
00000000
00000000
00000000
00000000
,
00000000
00000000
00000000
00000000
,
00000000
00000000
00000000
00000000
,
00000000
00002000
00020000
00033000
,
00011000
00010000
00100000
10000000
,
01000000
10000000
01000000
00000000
00100000
00000000
00000000
00000000
,
00001000
00010000
00000100
00001000
,
00000010
00001000
00000010
00000000
00000100
00000000
00000000
00000000
,
00000001
00000010
00000100
00000010
,
00000001
00001000
00000001
00000000
00001000
00000000
00000000
00000000
,
00000100
00010000
00001000
00100000
,
00010000
00100000
00010000
00000000
01000000
00000000
00100000
00000000
,
00000000
10000000
11000000
00010000
,
00000000
00100000
00011000
00010000
,
00000000
00000000
00000100
00001000
00000100
00000000
00000010
00000000
,
00000001
00000101
00001000
00000010
,
00000000
00001000
00001100
00010000
,
00000000
00001000
00101000
00010000
,
00000000
00000000
01000000
00010000
01000000
00000000
00100000
00000000
,
20000000
00000000
00000000
00000000
00010000
00010000
30010000
00000000
,
11000000
00010000
00100000
01000000
,
10000000
00010000
01000000
00000000
00010000
00000000
00100000
00000000
,
00001000
00010000
00000010
00001000
,
00000100
00001000
00000001
00000000
00000100
00000000
00001001
00000000
,
00001000
00000010
00000100
00000010
,
00001000
00000001
00000100
00000000
00000001
00000000
00000010
00000000
,
00000100
00010000
00001000
00100000
,
20020000
00000000
30030000
00000000
10000000
00010000
10000000
00000000
,
10010000
00000000
01100000
00000000
,
00010000
00010000
00010000
00000000
00100000
00000000
00001000
00000000
,
00011000
00000000
00010100
00000000
,
00000100
00000100
00000100
00000000
00001000
00000000
00000001
00000000
,
00000101
00000000
00001010
00000000
,
00002000
00003200
00020300
00031000
,
00011000
00000000
01001000
00000000
,
01000000
01000000
01000000
00000000
00010000
00000000
00100000
00000000
,
10010000
00000000
01100000
00000000
,
10000000
10000000
10000000
00000000
00010000
00000000
00100000
00000000
,
00110000
00000000
00011000
00000000
,
00000100
00001000
00000100
00000000
00001000
00000000
00000010
00000000
,
00000110
00000000
00001001
00000000
,
00000001
00000100
00000001
00000000
00000010
00000000
00000100
00000000
,
00000110
00000000
00001001
00000000
,
00002000
00003200
00020300
00032000
,
00103000
00100000
00010000
00100000
,
01000000
01000000
10000000
01000000
,
00010000
00010000
00001000
00010000
,
00000010
00001000
00000200
00000300
,
00000010
00000001
00000010
00000000
00000100
00000000
00010000
00000000
,
00001000
00010000
00001000
00000000
00100000
00000000
00010000
00000000
,
01000000
01000000
01000000
00000000
00100000
00000000
10000000
00000000
,
02000000
03200000
00302000
00003000
,
00022000
00000000
00000000
00000000
,
00000000
00000000
00000000
00000000
,
00000000
00033000
00000000
00000000
00000100
00010000
00000200
00000000
,
00000300
00000000
00001000
00000010
00001000
00000000
00000001
00000000
,
00000010
00000000
00010100
00022000
,
00033000
00000000
00100000
00010000
00100000
00000000
01000000
00000000
,
10000000
00000000
00000000
00100000
01000000
00000000
00010000
00000000
,
00100000
00001000
00001000
00010000
,
00011000
00000000
00000000
00000100
00001000
00000000
00000010
00000000
,
00000100
00000001
00000010
00000200
,
00000300
00000000
00011000
00000000
00100000
00000000
00010000
00100000
,
01000000
10000000
00100000
00010000
,
00100000
00000000
01100000
00000000
10000000
00000000
01000000
10000000
,
00010000
00100000
00001000
00020000
,
00030000
00011000
00000100
00001000
,
00000010
00000000
00000100
00000001
00001000
00000000
00000100
00000010
,
00000000
00000110
00001000
00001010
,
00010000
00000000
00011000
00000000
00001000
00000000
00100000
00010000
,
00200000
02000000
00000000
03300000
,
00000000
10000000
00100000
00010000
,
00100000
10000000
01000000
00010000
,
00001000
00000000
00000100
00000000
00000001
00000100
00000010
00000000
,
00001000
00000000
00000100
00000000
00020000
00000000
00000000
00030000
,
00202000
00000000
00000000
00000000
,
00000000
00303000
00000000
00000000
;

//--------------- dance-double - forcednature ----------------
#NOTEDATA:;
#STEPSTYPE:dance-double;
#DESCRIPTION:forcednature;
#CREDIT:forcednature;
#DIFFICULTY:Medium;
#METER:12;
#RADARVALUES:0,0,0,0,0;
#NOTES:
00000000
00000000
00000000
00000000
,
00000000
00000000
00000000
00000000
,
00000000
00000000
00000000
00000000
,
00000000
00000000
00000000
00000000
,
00000000
00000000
00000200
00020300
00032000
00203000
00300000
00000000
,
00110000
00000000
10010000
00000000
10000000
01000000
00010000
00000000
,
00001000
00100000
00002000
00000000
00013000
00000100
00001000
00000000
,
00001010
00000000
00001001
00000000
00000001
00000100
00001000
00000000
,
00020000
00000000
00031000
00100000
00010000
00100000
01000000
00000000
,
10010000
00000000
10000000
10000000
01000000
00010000
00001000
00000000
,
00100000
00010000
01000000
00000000
00001000
00010000
00000010
00000000
,
00001010
00000000
00001000
00001000
00000100
00000001
00000100
00000000
,
00000110
00000000
00000010
00000001
00000100
00000010
00001000
00000000
,
00001001
00000000
00000000
00000000
00000001
00000000
00000200
00000000
00000000
00000000
00001300
00000000
00000000
00010000
00000000
00000000
,
00011000
00000000
00000000
00000000
00010000
00000000
00200000
00000000
00000000
00000000
10300000
00000000
00000000
00010000
00000000
00000000
,
10010000
00000000
10000000
01000000
10000000
00010000
01000000
00010000
,
00100000
02000000
03010000
00011000
,
10010000
00000000
00000000
00000000
10000000
00000000
02000000
00000000
00000000
00000000
03010000
00000000
00000000
00001000
00000000
00000000
,
00011000
00000000
00001000
00000020
00000000
00000031
00000001
00000000
,
00001001
00000000
00000001
00000100
00000001
00001000
00000100
00001000
,
00000010
00000000
00000200
00000000
00001300
00001000
00010000
00000000
,
00100000
01000000
00100000
10000000
00100000
01000000
00100000
00000000
,
10000000
01000000
00010000
00000000
00001000
00000100
00000001
00000000
,
00000010
00000100
00000010
00000001
00000010
00000100
00000010
00000000
,
00000001
00000100
00001000
00000000
00010000
00000000
01100000
00000000
,
00010000
10000000
01000000
10000000
00100000
10000000
01000000
00000000
,
10000000
00100000
00010000
00000000
00001000
00000010
00000001
00000000
,
00001000
00000001
00000100
00000001
00000010
00000001
00000100
00000000
,
00002000
00000000
00000000
00000000
00003000
00000000
00000000
00000000
00010000
00001000
00010000
00000000
00001000
00000000
00000000
00000000
,
00101000
00000000
00010000
00000000
01010000
00000000
00000000
10000000
,
10000000
00010000
00010000
10000000
00200000
00000000
00300000
00000000
,
01001000
00010000
00101000
00001000
,
00010000
00000000
00001000
00000000
00000010
00000000
00000220
00000000
00000000
00000330
00000000
00000000
,
00000100
00001000
00000001
00000001
00000100
00000000
00002000
00000000
,
00013000
00000000
00100000
00000000
10000000
00000000
01000000
00000000
00010000
00000000
00001000
00000000
,
00000010
00000100
00000010
00000000
00000110
00000000
00000001
00000000
,
00000100
00000000
00001000
00000000
00010000
00000000
00200000
00000000
00000000
01300000
00000000
00000000
,
10010000
00000000
10000000
01000000
00010000
00000000
00000000
00001000
,
00001000
00010000
00010000
00001000
00000020
00000000
00000230
00000000
,
00000310
00000000
00000001
00000001
00001000
00000000
00000001
00000100
,
00001000
00000000
00001000
00000000
00010000
00000000
00011000
00000000
00000000
00010000
00000000
00000000
,
00101000
00000000
00010000
00010000
10000000
00000000
02000000
00000000
,
03100000
00000000
01000000
00000000
00010000
00000000
00001000
00000000
00000100
00000000
00000010
00000000
,
00000100
00000000
00000001
00000001
00001000
00000001
00000020
00000000
,
00000130
00000000
00000000
00000000
00000100
00000000
00000000
00000000
00010000
00000000
00000000
00000000
00001000
00000000
00000000
00100000
00000000
00000000
00010000
00000000
00000000
00000000
00000000
00000000
,
10010000
00000000
10000000
01000000
10000000
01000000
00010000
00000000
,
00001000
00010000
00001000
00000000
00000010
00000100
00000010
00000000
,
00000001
00001000
00000001
00000000
00000100
00000010
00000100
00000000
,
00001000
00010000
00001000
00000000
00200000
00000000
00300000
00000000
,
00010000
01000000
10000000
00000000
10000000
01000000
00010000
00000000
,
00100000
00001000
00010000
00000000
00010000
00000100
00001000
00000000
,
00000010
00000100
00001000
00000000
00001000
00000100
00000001
00000000
,
00000020
00000000
00000200
00000330
,
00022000
00000000
00000000
00000000
,
00000000
00000000
00000000
00000000
,
00000000
00033000
00000000
00010000
00100000
00010000
00100000
10000000
,
01000000
00000000
00000000
00000000
00100000
01000000
00100000
00000000
01000000
00000000
00010000
00000000
00000000
00000000
00001000
00000000
,
00011000
00000000
00010000
00000100
00001000
00000100
00001000
00000010
,
00000001
00000000
00000000
00000000
00000010
00001000
00000010
00000000
00001000
00000000
00000200
00000000
00000000
00000000
00000310
00000000
,
00001000
00000000
00010000
01000000
10000000
01000000
00010000
00000000
,
00001000
00010000
00001000
00000010
00000100
00002000
00000000
00003001
,
00000100
00000000
00001000
00010000
00100000
01000000
00100000
10000000
,
00010000
00000000
02000000
00000000
00000000
03000000
00100000
01000000
00100000
00000000
00000000
00010000
00000000
00000000
00001000
00000000
,
00000000
00000000
00011000
00000000
00001000
00000010
00000001
00000010
,
00000001
00000000
00000000
00000000
00000010
00000000
00000100
00000010
00000100
00000000
00001000
00000000
00000001
00000000
00000100
00000000
,
00000010
00000000
00001000
00000100
00000100
00010000
00002000
00000000
,
00103000
00000000
00010000
00000000
01000000
00000000
00010000
01000000
00010000
00000000
00100000
00000000
01000000
00000000
00100000
00000000
,
00001000
00000000
00011000
00000000
00010000
00000100
00001000
00000100
,
00001000
00000000
00000000
00000000
00000010
00001000
00000010
00000000
00001000
00000000
00000001
00000000
00000000
00000001
00000100
00000000
,
00000000
00001001
00000100
00011000
,
01000000
00000000
00000000
00000000
10010000
00000000
00000000
00000000
10000000
00000000
01000000
10000000
00000000
00000000
00100000
00000000
,
02000000
00020000
00000000
03030000
,
00000000
00000000
10000000
01000000
00010000
00000000
00010000
00001000
,
00000010
00000000
00000010
00000001
00000100
00000000
00000100
00001000
,
00010000
00000000
00100000
01000000
00100000
01000000
10000000
01000000
,
00010000
00100000
00001000
00000000
00010000
00000200
00000000
00000300
,
00002020
00000000
00000000
00000000
,
00000000
00003030
00000000
00000000
;

//--------------- dance-double - forcednature ----------------
#NOTEDATA:;
#STEPSTYPE:dance-double;
#DESCRIPTION:forcednature;
#CREDIT:forcednature;
#DIFFICULTY:Hard;
#METER:16;
#RADARVALUES:0,0,0,0,0;
#NOTES:
00000000
00000000
00000000
00000000
,
00000000
00000000
00000000
00000000
,
00000000
00000000
00000000
00000000
,
00000000
00000000
00000000
00000000
,
00000000
00000000
00002000
00023000
02030000
03200000
00302000
00000000
,
00013000
00000000
00001000
00010000
00000100
00000000
00001000
00000100
00001000
00000000
00000010
00000000
00000100
00000000
00000100
00000000
,
00000002
00000000
00000000
00000000
00000013
00000100
00000010
00000100
00001000
00000000
00000001
00000000
00000100
00000000
00000000
00000000
,
00002010
00000000
00000000
00000000
00003100
00000000
00001000
00000100
00010000
00000000
00001000
00010000
00001000
00000000
00100000
00000000
,
00020000
00000000
00000000
00000000
01030000
00100000
01000000
00100000
10000000
00000000
01000000
00000000
00010000
00000000
00000000
00000000
,
00012000
00000000
00000000
00003000
00010000
00001000
00010000
00000010
00001000
00000000
00000010
00000000
00000200
00000000
00000000
00000000
,
00000301
00001000
00000100
00000010
00000001
00000000
00000001
00000000
00000100
00000000
00000010
00001000
00000001
00000000
00000000
00000000
,
00000020
00000000
00000000
00000000
00000130
00001000
00000100
00010000
00001000
00000000
00010000
00000000
00002000
00000000
00000000
00000000
,
00103000
00010000
00000000
01000000
00100000
00000000
10000000
01000000
00000000
00010000
00001000
00000000
00100000
00000000
00000000
00000000
,
00110000
00000000
00001000
00000020
00000000
00000031
00001000
00000010
,
00001010
00000000
00000000
00000000
00010000
00000000
00200000
00000000
00000000
00000000
10300000
00000000
00100000
01000000
00010000
00000000
,
02000000
00000000
00000000
00000000
03001000
00000000
00010000
00001000
00010000
00000000
00000100
00001000
00000100
00000000
00001000
00000000
,
00000010
00000100
00000000
00000100
00000010
00000000
00001000
00000001
00000000
00000010
00000001
00000000
00000011
00000000
00000000
00000000
,
00002000
00000000
00000000
00003000
00000100
00001000
00000100
00010000
00001000
00000000
00100000
00000000
00010000
00100000
00000000
00000000
,
00020000
00000000
00000000
00030000
01000000
00010000
01000000
00001000
00010000
00000000
00000010
00001000
00000010
00000000
00000000
00000000
,
00000210
00000000
00000000
00000000
00000301
00000000
00000010
00000100
00001000
00000000
00000100
00010000
00001000
00000000
00010000
00000000
,
00011000
00000000
00000000
00000000
00100000
00000000
00010000
00100000
01000000
10000000
00010000
10000000
00200000
00000000
00000000
00000000
,
01300000
00010000
00000000
01000000
00001000
00000000
00010000
00000000
00001000
00000000
00100000
00000000
01000000
00000000
10000000
00000000
,
00200000
00000000
02300000
00000000
03200000
00000000
00320000
00000000
00032000
00000000
00003200
00000000
00000310
00000000
00000000
00000100
,
00000002
00000000
00000000
00000000
00000013
00000000
00001000
00000000
00000010
00000000
00000001
00000010
00000001
00000010
00000100
00001000
,
00000001
00000000
00000100
00000000
00001000
00000000
00010000
00000000
00100000
01000000
00010000
10000000
00100000
00000000
00000000
00000000
,
10000000
01000000
00000000
10000000
00010000
00000000
00100000
00010000
00100000
00000000
01000000
00000000
00010000
00000000
00001000
00000000
,
00000200
00000000
00000320
00000000
00000230
00000000
00002300
00000000
00023000
00000000
00230000
00000000
01300000
00000000
00000000
00100000
,
20000000
00000000
00000000
00000000
31000000
00000000
00010000
00000000
00001000
00000000
00010000
00001000
00010000
00000100
00001000
00000100
,
00000020
00000000
00000000
00000000
00000030
00000000
00000000
00000000
00000001
00000100
00000010
00000000
00001001
00000000
00000000
00000000
,
00001100
00000000
00000000
00000000
00010000
00000000
00001000
00000000
00101000
00000000
00000000
00010000
00000000
00000000
10000000
00000000
,
10000000
10000000
10000000
10000000
00200000
00000000
00320000
00032000
,
00003100
00000000
00000000
00000010
00000100
00000010
00000100
00000001
00001000
00000000
00000000
00000100
00010000
00001000
00010000
00001000
,
00100000
00010000
00100000
01000000
10000000
01000000
00020000
00000000
00000000
00030000
00000000
00000000
,
00011000
00000000
00000000
00000000
00000010
00000000
00001000
00000000
00001010
00000000
00000000
00010000
00000200
00000000
00000000
00000000
,
00000302
00000203
00000320
00002030
00023000
02030000
03200000
20300000
,
30100000
00000000
00000000
00000000
00010000
00100000
00010000
00100000
01000000
10000000
01000000
10000000
00010000
00000000
00000000
00000000
,
10000000
00000000
00100000
00000000
00010000
00000000
00100000
00000000
00010000
00000000
00001000
00000000
00010000
00000000
00000000
00001000
00000000
00000000
00011000
00000000
00000000
00000000
00000000
00000000
,
01010000
00000000
00000000
00000000
00001000
00000000
00010000
00000000
00010010
00000000
00000000
00001000
00000000
00000000
00000001
00000000
,
00000001
00000001
00000001
00000001
00000020
00000000
00002030
00023000
,
01030000
00000000
00000000
00100000
01000000
00100000
01000000
10000000
00010000
00000000
00000000
01000000
00001000
00010000
00001000
00010000
,
00000010
00001000
00000010
00000100
00000001
00000100
00002000
00000000
00000000
00003000
00000000
00000000
,
00011000
00000000
00000000
00000000
00100000
00000000
00010000
00000000
00110000
00000000
00000000
00001000
02000000
00000000
00000000
00000000
,
23000000
32000000
03200000
00320000
00032000
00003200
00000320
00000032
,
00000013
00000000
00000000
00000000
00001000
00000010
00001000
00000010
00000100
00000001
00000100
00000001
00001000
00000000
00000000
00000000
,
00000001
00000000
00000010
00000000
00001000
00000000
00000010
00000000
00001000
00000000
00010000
00000000
00001000
00000000
00000000
00010000
00000000
00000000
00011000
00000000
00000000
00000000
00000000
00000000
,
00002000
00003200
00000302
00000023
,
00002030
00023000
02030000
23000000
,
30200000
00320000
00032000
00003020
,
00000031
00001000
00000001
00001000
00000100
00001000
00000100
00010000
00002000
00000000
00000000
00000000
00003000
00000000
00000000
00000000
,
00100000
00010000
00100000
01000000
10000000
00000000
00100000
01000000
00010000
00000000
00100000
00000000
01000000
00000000
00010000
00000000
,
00001000
00010000
00001000
00100000
00010000
00000000
00100000
00001000
00010000
00000000
00000100
00000000
00001000
00000000
00000010
00000000
,
00000100
00000001
00000100
00000001
00001000
00000100
00010000
00000000
00001000
00010000
00001000
00100000
00010000
00100000
00001000
00000000
,
00020000
00230000
02300000
03200000
20300000
32000000
03200000
00302000
,
00023000
00000000
00000200
00000000
,
00000000
00000000
00000000
00000000
,
00000000
00000000
00030300
00000000
00000000
00000000
00000100
00001000
00000001
00000000
00000010
00000001
00001000
00000000
00001010
00000000
,
00000000
00000110
00000000
00000000
00000100
00000000
00000001
00000000
00000010
00000000
00002000
00000000
00003000
00010000
00001000
00100000
,
00001000
00000000
00000000
00000000
01000000
00000000
00010000
10000000
00100000
00000000
10000000
00010000
01000000
00000000
01010000
00000000
,
00000000
00110000
00000000
00000000
00100000
01000000
00000000
10000000
01000000
00000000
00000000
00010000
00000000
00001000
00010000
00000000
,
00011000
00000000
00000000
00000000
00001000
00000000
00010000
00000010
00001000
00000000
00000100
00010000
00002000
00000000
00000000
00000000
,
00103000
00000000
00010000
00000000
00110000
00000000
00100000
00000000
01000000
00000000
11000000
00000000
00000000
10000000
00100000
01000000
,
00010000
00000000
00000000
00000000
00100000
00000000
01000000
00100000
00010000
00000000
00100000
00001000
00020000
00000000
00000100
00000000
,
00030100
00000000
00001000
00000000
00000010
00001000
00000010
00000100
00000001
00000000
00000100
00001000
00000000
00010000
00001000
00010000
,
00000000
00000000
00000000
00000000
00100000
00000000
01000000
00010000
00100000
00000000
01000000
10000000
00100000
00000000
01100000
00000000
,
00000000
01001000
00000000
00000000
00001000
00000000
00010000
00000000
00000010
00000000
00000200
00000000
00000300
00001000
00000100
00000001
,
00000100
00000000
00000000
00000000
00000010
00000000
00001000
00000100
00000010
00000000
00000001
00000100
00000010
00000000
00001010
00000000
,
00000000
00010100
00000000
00000000
00010000
00001000
00010000
00000000
00100000
00000000
01000000
00100000
00000000
10000000
01000000
00000000
,
00010000
00000000
00000000
00000000
00011000
00000000
00001000
00100000
00010000
00000000
00100000
00001000
00010000
00000000
00010010
00000000
,
00000000
00001010
00000000
00000000
00001000
00000000
00000100
00000000
00000001
00000000
00000200
00000000
00000300
00000010
00000100
00010000
,
00000000
00000000
00000000
00000000
00011000
00000000
00000000
00100000
00010000
00000000
01000000
00100000
10000000
00000000
01000000
10000000
,
00010000
00100000
00010000
00000000
00100000
00001000
00010000
00001000
00010000
00000000
00000100
00001000
00000000
00000010
00000100
00000001
,
00000020
00000000
00000000
00000000
00000200
00000000
00000000
00000000
00000330
00000000
00000000
00000000
00000100
00010000
00001000
00100000
,
00010000
00000000
00000000
00000000
10010000
00000000
00000000
00000000
10000000
01000000
00000000
01000000
10000000
00000000
00100000
00000000
,
01000000
00010000
01000000
00000000
00001000
00000000
00010000
00000000
00000010
00001000
00000000
00001000
00000010
00000000
00000100
00000000
,
00000001
00000010
00000001
00000000
00001000
00000000
00000100
00000000
00010000
00001000
00000000
00001000
00010000
00000000
00100000
00000000
,
01000000
00100000
10000000
00000000
02000000
00000000
00000000
00000000
03010000
00000000
00002000
00000000
00000000
00003010
00000100
00000010
,
00000002
00000000
00000000
00000000
,
00000000
00000003
00000000
00000000
;
