#VERSION:0.83;
#TITLE:Routing;
#SUBTITLE:;
#ARTIST:かめりあ;
#TITLETRANSLIT:;
#SUBTITLETRANSLIT:;
#ARTISTTRANSLIT:Camellia;
#GENRE:JAZZY-ELECTRO;
#CREDIT:;
#MUSIC:Routing.ogg;
#BANNER:Routing.png;
#BACKGROUND:Routing-bg.png;
#CDTITLE:./CDTitles/bm IIDX 23 copula.png;
#SAMPLESTART:72.782;
#SAMPLELENGTH:15.000;
#SELECTABLE:YES;
#OFFSET:0.534;
#BPMS:0.000=144.000;
#STOPS:;
#TIMESIGNATURES:0.000=4=4;
#BGCHANGES:0.000=Routing.mp4=1.000=0=0=0=StretchNoLoop====,
99999.000=-nosongbg-=1.000=0=0=0=StretchNoLoop====
;
#FGCHANGES:;

//--------------- dance-single - forcednature ----------------
#NOTEDATA:;
#STEPSTYPE:dance-single;
#DESCRIPTION:forcednature;
#DIFFICULTY:Beginner;
#METER:1;
#RADARVALUES:0,0,0,0,0;
#CREDIT:forcednature;
#NOTES:
0000
0000
0000
0000
,
0000
0000
0000
0000
,
0000
0000
0000
0000
,
0000
0000
0000
0000
,
0000
0000
0000
0000
,
0001
0000
0000
0000
,
0000
0000
0000
0000
,
1000
0000
0000
0000
,
0000
0000
0000
0000
,
0010
0000
0000
0000
,
0000
0000
0000
0000
,
0100
0000
0000
0000
,
0000
0000
0000
0000
,
0001
0000
0000
0000
,
0000
0000
0000
0000
,
1000
0000
0000
0000
,
0000
0000
0000
0000
,
0100
0000
0000
0000
,
0000
0000
0000
0000
,
0010
0000
0000
0000
,
0000
0000
0000
0000
,
0001
0000
0000
0000
,
0000
0000
0000
0000
,
2000
0000
0000
0000
,
0000
0000
0000
0000
,
3000
0000
0000
0000
,
0010
0000
0000
0000
,
0000
0000
0000
0000
,
0100
0000
0000
0000
,
0000
0000
0000
0000
,
0001
0000
0000
0000
,
0000
0000
0000
0000
,
1000
0000
0000
0000
,
0000
0000
0000
0000
,
0100
0000
0000
0000
,
0000
0000
0000
0000
,
0010
0000
0000
0000
,
0000
0000
0000
0000
,
0001
0000
0000
0000
,
0000
0000
0000
0000
,
1000
0000
0000
0000
,
0000
0000
0000
0000
,
0010
0000
0000
0000
,
0000
0000
0000
0000
,
1001
0000
0000
0000
,
0000
0000
0000
0000
,
1000
0000
0000
0000
,
1000
0000
0000
0000
,
0100
0000
0000
0000
,
0000
0000
0000
0000
,
0010
0000
0000
0000
,
0001
0000
0000
0000
,
0001
0000
0000
0000
,
0000
0000
0000
0000
,
0100
0000
0000
0000
,
0000
0000
0000
0000
,
0010
0000
0000
0000
,
0000
0000
0000
0000
,
1000
0000
0000
0000
,
0001
0000
0000
0000
,
1000
0000
0000
0000
,
0000
0000
0000
0000
,
0000
0000
0000
0000
,
0010
0000
0000
0000
,
0000
0000
0000
0000
,
0100
0000
0000
0000
,
0000
0000
0000
0000
,
0001
0000
0000
0000
,
2000
0000
0000
0000
,
0000
0000
0000
0000
,
3000
0000
0000
0000
;

//--------------- dance-single - forcednature ----------------
#NOTEDATA:;
#STEPSTYPE:dance-single;
#DESCRIPTION:forcednature;
#DIFFICULTY:Easy;
#METER:6;
#RADARVALUES:0,0,0,0,0;
#CREDIT:forcednature;
#NOTES:
0000
0000
0000
0000
,
0000
0000
0000
0000
,
0000
0000
0000
0000
,
0000
0000
0000
0000
,
0000
0000
0000
0000
,
0001
0000
0000
0100
,
0100
0000
0000
0001
,
1000
0000
0000
0100
,
0200
0000
0000
0300
,
1001
0000
1000
0010
,
0100
0010
1000
0000
,
0001
0010
0100
0000
,
0010
0001
1000
0000
,
0010
0100
0001
0100
,
0010
1000
0001
0000
,
0010
0100
1000
0000
,
0200
0000
0000
0300
,
1001
0000
0001
0100
,
0001
1000
0010
0000
,
1000
0100
0010
0000
,
0100
1000
0001
0000
,
0100
0010
1000
0000
,
0100
0010
0001
0000
,
1000
0010
1000
0000
,
0002
0000
0000
0000
,
0000
0000
0000
0003
,
1001
0000
0000
0000
,
0000
0000
0000
0000
,
0110
0000
0001
0100
,
0001
0010
0001
0000
,
0110
0000
1000
0100
,
1000
0010
1000
0000
,
0001
0001
0100
0000
,
0001
1000
0001
0000
,
1000
0100
0010
0001
,
0200
0000
0000
0300
,
0001
0100
0010
1000
,
0200
0000
0000
0300
,
0010
0001
0100
0010
,
2000
0000
0000
3000
,
0100
1000
0010
0100
,
0002
0000
0003
0000
,
2002
0000
0000
0000
,
0000
0000
0000
3003
,
1000
0100
0010
0100
,
1000
0010
0100
0010
,
0001
0000
0010
1000
,
0001
0001
0100
0000
,
0001
0010
0100
0010
,
0001
0100
0010
0100
,
0001
0000
0010
0100
,
0010
1000
0000
0010
,
0001
0000
0001
1000
,
1001
0000
1000
0010
,
0100
0001
0001
0000
,
1001
0000
1000
1000
,
0100
1000
0010
0000
,
0100
0001
0100
0000
,
0010
0010
1000
0001
,
0010
0001
1000
0010
,
0200
0000
0000
0300
,
1001
0000
0000
1000
,
0100
0000
0000
1000
,
0010
0000
0000
0100
,
0001
0000
0000
0000
,
1001
0000
0000
0001
,
0100
0000
0000
0001
,
0010
0000
0000
0100
,
2002
0000
0000
0000
,
0000
0000
0000
0000
,
3003
0000
0000
0000
;

//--------------- dance-single - forcednature ----------------
#NOTEDATA:;
#STEPSTYPE:dance-single;
#DESCRIPTION:forcednature;
#DIFFICULTY:Medium;
#METER:11;
#RADARVALUES:0,0,0,0,0;
#CREDIT:forcednature;
#NOTES:
0000
0000
0000
0000
,
0000
0000
0000
0000
,
0000
0000
0000
0000
,
0000
0000
0000
0000
,
0000
0000
0000
0000
,
1001
0000
0000
0000
0000
0000
0000
0000
0000
0000
0000
0000
0100
0000
0000
0101
,
0000
0000
0000
0000
0000
0000
0000
0000
0000
0010
0000
0000
1010
0000
0000
0000
,
1001
0000
0000
0000
0000
0000
0000
0000
0000
0000
0000
0000
0001
0000
0000
0022
,
0000
0000
0000
0033
,
0001
1000
0100
1000
0001
0010
0100
0000
,
0010
0001
0100
0000
0110
0000
1001
0000
,
1000
0001
0100
0001
1000
0010
0100
0000
,
0001
0010
0100
0000
0110
0000
1001
0000
,
1000
0010
0001
0010
1000
0010
0100
0000
,
0001
1000
0100
0000
0110
0000
1001
0000
,
0001
0000
0010
0000
1000
0000
0010
0000
0001
0000
0010
0000
0100
0000
0000
2002
,
0000
0000
0000
3003
,
1000
0100
0001
0100
1000
0010
1000
0000
,
0001
0010
0100
0000
0110
0000
1001
0000
,
0001
0100
1000
0100
0001
0010
0001
0000
,
1000
0010
0100
0000
0110
0000
1001
0000
,
0002
0000
0000
1003
0000
0001
0100
0000
0001
0100
0000
0000
,
0000
0000
0110
0000
0010
1000
0010
0000
,
0100
0000
0001
0000
1000
0000
0001
0000
0100
0000
0000
0010
0000
0000
0220
0000
,
0000
0000
0000
0000
,
0000
0000
0000
0330
,
2002
0000
0000
0000
,
0000
0000
0000
0000
0000
0000
3003
0000
0000
0000
1000
0000
0000
0010
0000
0000
,
1001
0000
0001
0100
0001
0000
0001
0010
,
0001
0000
1000
0100
0010
0000
0110
0000
,
1000
0000
1000
0010
1000
0000
1000
0100
,
1000
0000
1000
0001
0010
0000
0110
0000
,
0001
1000
0001
0000
0001
0100
0001
0000
,
1000
0100
1000
1000
0000
0010
0200
0000
,
0301
0000
0000
0000
0001
0000
0000
1000
0000
0000
0001
0000
0000
0010
0000
0200
,
0000
0000
0000
0300
,
1000
0000
0000
0000
1000
0000
0000
0001
0000
0000
1000
0000
0000
0010
0000
0200
,
0000
0000
0001
0000
0000
0000
0000
0000
0000
0000
0310
0000
0000
0100
0000
0000
,
0001
0000
0000
0000
0001
0000
0000
1000
0000
0000
0001
0000
0000
0010
0000
0200
,
0000
0000
0000
0300
,
1000
0000
0000
0000
1000
0000
0000
0001
0000
0000
1000
0000
0000
0010
0000
0200
,
0000
0000
0001
0000
0000
0000
0000
0000
0000
0000
0310
0000
0000
0100
0000
0000
,
2002
0000
0000
0000
,
0000
0000
0000
3003
,
1000
0100
0001
0100
0000
1000
0001
0000
,
1000
0010
0001
0010
0000
1000
0001
0000
,
0101
0010
1100
0010
,
0001
0001
1000
0001
1000
0010
0100
0000
,
0001
0100
1000
0000
0100
0000
0001
0000
,
1000
0010
0001
0000
0010
0000
1000
0000
,
0002
0000
0000
0000
0103
0000
0000
0000
0001
1000
0000
1000
0000
0001
0000
1000
,
0000
0020
0000
0000
0000
0000
0030
0000
,
0100
0001
0100
0001
0010
0001
0010
0001
,
0100
0010
1000
0100
0010
0001
0100
0000
,
0010
1000
0010
1000
0100
1000
0100
1000
,
0010
0100
0001
0010
0100
0010
0001
0000
,
1000
0010
1000
0010
0001
0010
1000
0000
,
0001
0100
0001
0100
1000
0100
0001
0000
,
2002
0000
0000
0000
3003
0000
0000
0000
1000
0000
0000
0100
0000
0000
1001
0000
,
0000
0001
0000
0000
0101
0000
0000
1000
0000
0000
1010
0000
0000
0100
0000
0020
,
0000
0000
0000
0030
,
1001
0000
0000
0000
0000
0000
0000
0000
0000
0000
0000
0000
0100
0000
0000
1100
,
0000
0000
0000
0000
0000
0000
0000
0000
0000
0010
0000
0000
0011
0000
0000
0000
,
1001
0000
0000
0000
0000
0000
0000
0000
0000
0000
0000
0000
1000
0000
0000
2020
,
0000
0000
0000
3030
,
1001
0000
0000
0000
0000
0000
0000
0000
0000
0000
0000
0000
0100
0000
0000
0101
,
0000
0000
0000
0000
0000
0000
0000
0000
0000
0010
0000
0000
1010
0000
0000
0000
,
1001
0000
0000
0000
0000
0000
0000
0000
0000
0000
0000
0000
0001
0000
0000
0022
,
0000
0000
0000
0000
,
0000
0000
0000
0000
,
0033
0000
0000
0000
;

//--------------- dance-single - forcednature ----------------
#NOTEDATA:;
#STEPSTYPE:dance-single;
#DESCRIPTION:forcednature;
#DIFFICULTY:Hard;
#METER:16;
#RADARVALUES:0,0,0,0,0;
#CREDIT:forcednature;
#NOTES:
0000
0000
0000
0000
,
0000
0000
0000
0000
,
0000
0000
0000
0000
,
0000
0000
0000
0000
,
0000
0000
0000
0000
,
1100
0000
0000
0000
0001
0000
0000
0001
0000
0000
0010
0000
0110
0000
0000
1001
,
0000
0000
0001
0000
0100
0000
0010
0100
0000
1010
0000
0000
1100
0000
0000
0000
,
0011
0000
0000
0000
0001
0000
0000
0100
0010
0000
1000
0000
1100
0000
0000
0012
,
0000
0000
0000
0000
0103
0000
0010
0000
1000
0001
0100
0010
1000
0000
0000
0000
,
0001
0000
0010
0000
0100
0000
0001
0100
0000
1000
0001
0000
0010
0000
0100
1000
,
0000
0000
0010
0000
0100
0000
0001
0000
0010
0000
0001
0100
0000
1000
0000
0001
,
0000
0010
0100
0000
0010
0000
1000
0100
0000
1000
0001
0000
0010
0001
0000
0100
,
0000
0000
0010
0000
1000
0010
1000
0000
0100
0010
0000
0000
0001
0100
0000
1001
,
0000
1010
0000
0000
0110
0000
0001
0010
0000
0100
0010
0000
0001
0000
0100
1000
,
0000
0100
0001
0000
1000
0000
0010
0000
0100
0000
0001
0000
0010
0000
0100
1000
,
0000
1000
0010
0000
0100
0000
0001
0010
0000
0001
0100
0000
0110
0000
0000
2001
,
0000
0000
3200
0000
0320
0000
0032
0000
0103
0010
0100
0010
1000
0100
0010
0001
,
1000
0000
0010
0000
0100
0000
1000
0100
0000
0001
1000
0000
0010
0000
0100
0001
,
0000
0010
0001
0000
1000
0000
0100
0000
0001
0000
0100
0000
1000
0001
0000
0011
,
0000
1000
0010
0000
0100
0000
0001
0010
0000
0100
1000
0000
0001
0000
0100
1000
,
0000
0100
0001
0000
0000
0011
0000
0000
1100
0000
1000
0010
0100
0001
0010
0200
,
0000
0000
0000
0000
0000
0000
0300
0000
1000
0000
0001
0000
1000
0000
0000
0000
0010
0000
0000
0000
0001
0000
0000
0000
1000
0000
0000
0000
0100
0000
0000
0000
0001
0000
0000
0000
0010
0000
0000
0000
0000
0000
0000
0000
0000
0220
0000
0000
,
0000
0000
0330
0000
1001
0000
0001
0010
0100
0000
1000
0010
0100
0000
0001
0010
,
0000
0001
0100
0000
0010
0100
0010
1000
0100
0000
0000
1100
0000
0000
0012
0000
,
0000
0000
0103
0000
0010
0000
1000
0100
0010
0000
0001
0100
0010
0000
1000
0100
,
0010
0000
0001
0100
0010
0000
1000
0100
0010
0001
0100
0010
1000
0000
0000
0000
,
2002
0000
0000
0000
,
0000
0000
0000
0000
0000
0000
3003
0000
0000
0000
0011
0000
0000
0110
0000
0000
,
1001
0000
0000
1000
0010
0000
0100
0010
0000
0100
0001
0100
0001
0010
0001
0010
,
0000
0000
0100
0000
1000
0000
0010
1000
0001
0000
0100
1000
0000
0000
0000
0000
,
0100
0000
0001
1000
0010
1000
0000
0100
1000
0100
1000
0010
0100
0001
0010
0100
,
0000
0000
0010
0001
0010
0001
0000
1000
0100
1000
0001
0000
0010
0100
1000
0001
,
0100
0000
0000
0010
0000
0000
1000
0000
0000
0010
0000
0000
0200
0000
0000
0000
0000
0000
0300
0000
0000
0001
0000
0000
0010
0000
0000
0001
0000
0000
1000
0000
0000
0100
0000
0000
2000
0000
0000
0000
0000
0000
3000
0000
0010
0000
0000
0000
,
0100
0000
0000
0000
0001
0000
0000
0000
0001
0000
0000
0000
0010
0000
0000
0000
0000
0000
0011
0000
0000
0000
0000
0000
0000
0000
0000
1000
0000
0000
0010
0000
0000
1000
0000
0000
0010
0000
0000
0100
0000
0000
0001
0000
0000
1000
0000
0000
,
0100
0000
0000
0000
1100
0000
0000
1010
0000
0000
0011
0000
0000
0101
0000
0120
,
0000
0000
1000
0000
1000
0000
0130
0000
0001
0000
0010
0100
1000
0000
0010
0000
,
1001
0000
0000
0000
0101
0000
0000
0011
0000
0000
1010
0000
0000
1100
0000
0110
,
0000
0000
0012
0000
0000
0100
0100
0003
1000
0010
0100
0001
0010
0001
0000
0000
,
1001
0000
0000
0000
1010
0000
0000
1100
0000
0000
0101
0000
0000
0011
0000
0210
,
0000
0000
1300
0010
0100
0000
0001
0010
0100
0010
0001
1000
0100
0000
0000
0000
,
1001
0000
0000
0000
0011
0000
0000
0101
0000
0000
1100
0000
0000
1010
0000
0110
,
0000
0000
0101
0000
0001
0010
0100
1000
0010
0000
0100
1000
0100
0001
0000
0000
,
2002
0000
0000
0000
,
0000
0000
0000
3003
,
1000
0000
0100
0000
0002
0000
0103
1000
0000
0001
0100
0010
1000
0100
0010
0001
,
1000
0000
0010
0000
0002
0000
0013
1000
0000
0001
0010
0100
1000
0010
0100
0000
,
0002
0000
0000
0000
0013
0100
1000
0001
0100
0010
0000
1000
0000
0100
0000
1100
,
0000
2000
3020
0032
2003
3200
0302
0023
,
0031
0000
0100
0000
2000
0000
3100
0001
0000
1000
0100
0010
0001
0100
0010
1000
,
0001
0000
0010
0000
2000
0000
3010
0001
0000
1000
0010
0100
0001
0010
0100
0000
,
1000
0000
0001
0100
1000
0000
0100
0001
0010
0001
0000
0011
0000
0110
0000
1100
,
0000
0000
1020
0000
0100
0000
0100
0000
1030
0001
1000
0001
0100
0010
1000
0001
,
0100
0000
0010
0000
1000
0100
0001
0100
0000
1000
0001
0000
0010
0000
0100
0001
,
0000
0100
1000
0100
1000
0000
0010
0100
0000
0001
0010
0001
1000
0010
1000
0000
,
0001
0000
0000
0000
0100
0000
0000
0000
1000
0000
0000
0000
0200
0000
0000
0000
0000
0000
0000
0000
0000
0000
0000
0000
0310
0000
0000
1000
0000
0000
0001
0000
0000
0000
0000
0000
0010
0000
0000
0100
0000
0000
0000
0000
0000
0110
0000
0000
,
0000
1000
0001
0010
0001
1000
0100
0000
0010
0001
0100
0010
2000
0000
0000
0000
,
3100
0000
0001
0000
0100
1000
0000
0010
0000
0100
0001
0000
0010
0000
1000
0010
,
0000
0001
0010
0001
0100
0000
0010
0100
0000
0010
1000
0100
1000
0000
1100
0000
,
1002
0000
0000
0000
0013
0100
1000
0010
0100
0000
0000
0101
0000
0000
0011
0000
,
0000
1010
0000
0000
1000
0100
1000
0001
0100
0001
0010
0100
0000
0110
0000
1001
,
0000
0000
1000
0010
1000
0010
0100
0010
0100
0001
1000
0010
0100
0000
0000
0000
,
1001
0000
0000
0000
1000
0100
0000
0010
0000
0000
0001
0000
0101
0000
0000
0110
,
0000
0000
0001
1000
0000
0010
0000
0100
0000
0101
0000
0000
1010
0000
0000
0000
,
1001
0000
0000
0001
0010
0000
0100
0010
0000
0100
0000
0000
1100
0000
0000
1010
,
0000
0010
0100
0001
0100
0000
0010
0000
1000
0100
0000
1000
0001
0000
0000
0000
,
1001
0000
0000
0000
1000
0010
0000
0100
0000
0000
0001
0000
0011
0000
0000
1100
,
0000
1000
0001
0100
0001
1000
0000
0010
0000
0110
0000
0000
0101
0000
0000
0000
,
0011
0000
0000
0000
1000
0100
1000
0100
0010
0001
0010
0001
1000
0001
0100
2000
,
0000
0000
0000
0000
,
0000
0000
0000
0000
,
3000
0000
0000
0000
;

//--------------- dance-double - forcednature ----------------
#NOTEDATA:;
#STEPSTYPE:dance-double;
#DESCRIPTION:forcednature;
#DIFFICULTY:Easy;
#METER:6;
#RADARVALUES:0,0,0,0,0;
#CREDIT:forcednature;
#NOTES:
00000000
00000000
00000000
00000000
,
00000000
00000000
00000000
00000000
,
00000000
00000000
00000000
00000000
,
00000000
00000000
00000000
00000000
,
00000000
00000000
00000000
00000000
,
00010000
00000000
00000000
00001000
,
00001000
00000000
00000000
00100000
,
00001000
00000000
00000000
00010000
,
00020000
00000000
00000000
00030000
,
00011000
00000000
00000010
00001000
,
00000010
00000100
00000010
00000000
,
00000100
00000001
00001000
00000000
,
00000100
00001000
00000001
00000000
,
00000010
00000100
00001000
00000100
,
00010000
00001000
00010000
00000000
,
00001000
00100000
00010000
00000000
,
02000000
00000000
00000000
03000000
,
10010000
00000000
00010000
01000000
,
00010000
10000000
00100000
00000000
,
10000000
01000000
00100000
00000000
,
00010000
00100000
00001000
00000000
,
00010000
00000100
00010000
00000000
,
00001000
00010000
00000010
00000000
,
00001000
00000001
00000100
00000000
,
00000020
00000000
00000000
00000000
,
00000000
00000000
00000000
00000030
,
00001001
00000000
00000000
00000000
,
00000000
00000000
00000000
00000000
,
00000110
00000000
00001000
00000100
,
00010000
00001000
00010000
00000000
,
00011000
00000000
01000000
00010000
,
01000000
00100000
10000000
00000000
,
00010000
00010000
01000000
00000000
,
00001000
00010000
00001000
00000000
,
00010000
00000100
00001000
00000100
,
00000020
00000000
00000000
00000030
,
00000001
00000100
00000010
00001000
,
00000020
00000000
00000000
00000030
,
00010000
00001000
00100000
00010000
,
00200000
00000000
00000000
00300000
,
01000000
10000000
00100000
01000000
,
00020000
00000000
00030000
00000000
,
20020000
00000000
00000000
00000000
,
00000000
00000000
00000000
30030000
,
00010000
00100000
01000000
00100000
,
00010000
00100000
00001000
00010000
,
00001000
00000000
00010000
00000100
,
00001000
00001000
00000001
00000000
,
00000100
00000001
00000100
00000010
,
00001000
00000100
00001000
00000100
,
00010000
00000000
00001000
00010000
,
00001000
00100000
00000000
00010000
,
01000000
00000000
01000000
00100000
,
10010000
00000000
10000000
00100000
,
01000000
00010000
00010000
00000000
,
10010000
00000000
10000000
10000000
,
01000000
10000000
00100000
00000000
,
01000000
00010000
01000000
00000000
,
00001000
00001000
00010000
00000100
,
00001000
00000100
00010000
00001000
,
00020000
00000000
00000000
00030000
,
00011000
00000000
00000000
00000010
,
00001000
00000000
00000000
00001000
,
00000100
00000000
00000000
00000010
,
00000001
00000000
00000000
00000000
,
00001001
00000000
00000000
00001000
,
00000100
00000000
00000000
00010000
,
00001000
00000000
00000000
01000000
,
00020000
00000000
00000000
00000000
,
00000000
00000000
00000000
00000000
,
00030000
00000000
00000000
00000000
;

//--------------- dance-double - forcednature ----------------
#NOTEDATA:;
#STEPSTYPE:dance-double;
#DESCRIPTION:forcednature;
#DIFFICULTY:Medium;
#METER:11;
#RADARVALUES:0,0,0,0,0;
#CREDIT:forcednature;
#NOTES:
00000000
00000000
00000000
00000000
,
00000000
00000000
00000000
00000000
,
00000000
00000000
00000000
00000000
,
00000000
00000000
00000000
00000000
,
00000000
00000000
00000000
00000000
,
00011000
00000000
00000000
00000000
00000000
00000000
00000000
00000000
00000000
00000000
00000000
00000000
00100000
00000000
00000000
00110000
,
00000000
00000000
00000000
00000000
00000000
00000000
00000000
00000000
00000000
00001000
00000000
00000000
00011000
00000000
00000000
00000000
,
00010100
00000000
00000000
00000000
00000000
00000000
00000000
00000000
00000000
00000000
00000000
00000000
00000100
00000000
00000000
00002002
,
00000000
00000000
00000000
00003003
,
00001000
00000001
00000100
00000001
00001000
00000010
00000100
00000000
,
00001000
00010000
00001000
00000000
00011000
00000000
00100000
00000000
,
00010000
01000000
00010000
10000000
01000000
00100000
01000000
00000000
,
00100000
00001000
00010000
00000000
00011000
00000000
00000100
00000000
,
00001000
00000010
00000100
00001000
00000100
00000001
00001000
00000000
,
00000010
00001000
00000100
00000000
00011000
00000000
00010000
00000000
,
00100000
00000000
01000000
00000000
00010000
00000000
01000000
00000000
10000000
00000000
01000000
00000000
00010000
00000000
00000000
20020000
,
00000000
00000000
00000000
30030000
,
10000000
01000000
00010000
00001000
01000000
00010000
00100000
00000000
,
00001000
00010000
00000010
00000000
00001010
00000000
00001100
00000000
,
00000100
00000010
00000001
00000100
00001000
00000100
00000001
00000000
,
00000010
00000100
00001000
00000000
00001100
00000000
00010000
00000000
,
00002000
00000000
00000000
01003000
00000000
01000000
00010000
00000000
01000000
00010000
00000000
00000000
,
00000000
00000000
01100000
00000000
00100000
10000000
00100000
00000000
,
01000000
00000000
00010000
00000000
10000000
00000000
00010000
00000000
00100000
00000000
00000000
01000000
00000000
00000000
02200000
00000000
,
00000000
00000000
00000000
00000000
,
00000000
00000000
00000000
03300000
,
20020000
00000000
00000000
00000000
,
00000000
00000000
00000000
00000000
00000000
00000000
30030000
00000000
00000000
00000000
00010000
00000000
00000000
00100000
00000000
00000000
,
00011000
00000000
00010000
00000100
00010000
00000000
00010000
00001000
,
00010000
00000000
00000010
00001000
00000010
00000000
00000110
00000000
,
00000001
00000000
00000001
00000100
00000001
00000000
00000001
00000010
,
00000001
00000000
00000001
00001000
00000100
00000000
00001100
00000000
,
00010000
00001000
00010000
00000000
00010000
00000010
00010000
00000000
,
00001000
00010000
00001000
00001000
00000000
01000000
00020000
00000000
,
00130000
00000000
00000000
00000000
00100000
00000000
00000000
00001000
00000000
00000000
00010000
00000000
00000000
00000100
00000000
00002000
,
00000000
00000000
00000000
00003000
,
00000010
00000000
00000000
00000000
00000010
00000000
00000000
00010000
00000000
00000000
00001000
00000000
00000000
01000000
00000000
00020000
,
00000000
00000000
00100000
00000000
00000000
00000000
00000000
00000000
00000000
00000000
00130000
00000000
00000000
00001000
00000000
00000000
,
00100000
00000000
00000000
00000000
00100000
00000000
00000000
00001000
00000000
00000000
00010000
00000000
00000000
00000100
00000000
00002000
,
00000000
00000000
00000000
00003000
,
00000010
00000000
00000000
00000000
00000010
00000000
00000000
00010000
00000000
00000000
00001000
00000000
00000000
01000000
00000000
00020000
,
00000000
00000000
00100000
00000000
00000000
00000000
00000000
00000000
00000000
00000000
00130000
00000000
00000000
00001000
00000000
00000000
,
00022000
00000000
00000000
00000000
,
00000000
00000000
00000000
00033000
,
00010000
00100000
01000000
00100000
00000000
10000000
00010000
00000000
,
00100000
01000000
10000000
01000000
00000000
00100000
00010000
00000000
,
00110000
00001000
00011000
00000100
,
00001000
00001000
00000001
00001000
00000010
00000100
00000001
00000000
,
00001000
00000010
00000001
00000000
00000010
00000000
00001000
00000000
,
00000001
00000100
00001000
00000000
00010000
00000000
00001000
00000000
,
00020000
00000000
00000000
00000000
00130000
00000000
00000000
00000000
10000000
00010000
00000000
00010000
00000000
10000000
00000000
00010000
,
00000000
00200000
00000000
00000000
00000000
00000000
00300000
00000000
,
00001000
00010000
00001000
00010000
00001000
00000010
00001000
00000010
,
00000001
00001000
00000100
00000010
00000001
00000100
00000010
00000000
,
00000100
00001000
00000100
00001000
00010000
00001000
00010000
00001000
,
00010000
00100000
01000000
00100000
10000000
00010000
01000000
00000000
,
00100000
10000000
00100000
10000000
01000000
10000000
01000000
00000000
,
00100000
00010000
00100000
00010000
01000000
00010000
01000000
00000000
,
00022000
00000000
00000000
00000000
00033000
00000000
00000000
00000000
00001000
00000000
00000000
00000010
00000000
00000000
00000001
00000000
,
00000000
00000100
00000000
00000000
00001000
00000000
00000000
00010000
00000000
00000000
01000000
00000000
00000000
10000000
00000000
00200000
,
00000000
00000000
00000000
00300000
,
10010000
00000000
00000000
00000000
00000000
00000000
00000000
00000000
00000000
00000000
00000000
00000000
01000000
00000000
00000000
11000000
,
00000000
00000000
00000000
00000000
00000000
00000000
00000000
00000000
00000000
00100000
00000000
00000000
00110000
00000000
00000000
00000000
,
00011000
00000000
00000000
00000000
00000000
00000000
00000000
00000000
00000000
00000000
00000000
00000000
00000100
00000000
00000000
00002200
,
00000000
00000000
00000000
00003300
,
00001001
00000000
00000000
00000000
00000000
00000000
00000000
00000000
00000000
00000000
00000000
00000000
00000001
00000000
00000000
00000101
,
00000000
00000000
00000000
00000000
00000000
00000000
00000000
00000000
00000000
00001000
00000000
00000000
00001010
00000000
00000000
00000000
,
00011000
00000000
00000000
00000000
00000000
00000000
00000000
00000000
00000000
00000000
00000000
00000000
00100000
00000000
00000000
00220000
,
00000000
00000000
00000000
00000000
,
00000000
00000000
00000000
00000000
,
00330000
00000000
00000000
00000000
;

//--------------- dance-double - extraordiberry ----------------
#NOTEDATA:;
#STEPSTYPE:dance-double;
#DESCRIPTION:extraordiberry;
#DIFFICULTY:Hard;
#METER:16;
#RADARVALUES:0,0,0,0,0;
#CREDIT:extraordiberry;
#NOTES:
00000000
00000000
00000000
00000000
,
00000000
00000000
00000000
00000000
,
00000000
00000000
00000000
00000000
,
00000000
00000000
00000000
00000000
,
00000000
00000000
00000000
00000000
,
00020000
00000000
00000000
00000000
00032000
00000000
00000000
00003020
00000000
00000000
00000031
00000000
00000010
00001000
00000000
00010000
,
00000000
00000000
00001000
00000000
02000000
00000000
00000000
03002000
00000000
00013000
00000000
00000000
00011000
00000000
00000000
00000000
,
00002000
00000000
00000000
00000000
00023000
00000000
00000000
00230000
00000000
00000000
10300000
00000000
00100000
00010000
00000000
00002000
,
00000000
00000000
00003010
00000001
00000100
00001000
00010000
00000000
,
00001000
00000000
00100000
00000000
01000000
10000000
00000000
00100000
00000000
01000000
00010000
00000000
10000000
01000000
00000000
00020000
,
00000000
00000000
00030100
00000000
00000010
00000000
00000001
00000000
00000100
00000000
00000000
00000010
00000000
00001000
00000000
00010000
,
00000000
00000000
01000000
00000000
00010000
10000000
00000000
01000000
00000000
10000000
00010000
00000000
01000000
00001000
00000000
00010000
,
00000000
00001000
01000000
00000000
00100000
00000000
00010000
00000000
00002000
00000000
00000000
00000000
00003020
00000000
00000000
00001030
,
00000000
00010000
00000010
00000000
00000100
00000001
00000000
00000010
00000000
00000100
00001000
00000000
00000001
00000100
00000000
00002000
,
00000000
00000000
01003000
00000000
00100000
00000000
10000000
00000000
01000000
00000000
00100000
00000000
00020000
00000000
00000000
00031000
,
00000000
00000000
00000100
00000000
00001000
00000001
00000000
00000100
00000000
00001000
00010000
00000000
01000000
00100000
00000000
00002000
,
00000000
00100000
00010000
00003100
,
00001000
01000000
00010000
00000000
10000000
00010000
10000000
00010000
00000000
00100000
00010000
00000000
10000000
00100000
00000000
00020000
,
00000000
00000000
00030010
00000000
00000100
00000000
00000001
00000000
00000010
00000000
00000000
00000100
00000000
00001000
00000000
00010000
,
00000000
00000000
00100000
00000000
00010000
10000000
00000000
00100000
00000000
10000000
00010000
00000000
00100000
00001000
00000000
00010000
,
00000000
00001000
00100000
00000000
01000000
00000000
00010000
00000000
00002000
00000000
00000000
00003100
00001000
00000100
00000000
00000101
,
00000000
00000000
00000000
00000000
00000000
00000000
00000000
00000000
00001000
00000000
00000000
00000000
00000001
00000000
00000000
00000000
00000100
00000000
00000000
00000000
00001000
00000000
00000000
00000000
00010000
00000000
00000000
00000000
00100000
00000000
00000000
00000000
10000000
00000000
00000000
00000000
00010000
00000000
00000000
00100000
00000000
00000000
00000000
00000000
00000000
00020000
00000000
00000000
,
00000000
00000000
00030010
00000000
00000100
00000000
00000000
00000000
00000010
00000000
00000001
00000000
00001000
00000000
00000000
00010000
,
00000000
00000000
01000000
00000000
00100000
10000000
00010000
00100000
02000000
00000000
00000000
03020000
00000000
00000000
00002000
00000000
,
00000000
00000000
00000000
00000000
,
00000000
00000000
00000000
00033000
,
00010000
00000000
00000100
00001000
00000100
00000010
00000000
00000002
00000000
00000103
00000010
00000000
00010000
00001000
00010000
00000200
,
00000000
00000000
00020300
00000000
00000000
00000000
00000000
00000000
00000000
00000000
00001000
00000000
00000000
00001000
00000000
00000000
,
00031000
00000000
01000000
00010000
01000000
00100000
00000000
20000000
00000000
31000000
00100000
00000000
00001000
00010000
00001000
01000000
,
00000000
00000000
00010000
00000000
10000000
00000000
01000000
00000000
00100000
00000000
00001000
00010000
00000000
00000000
00001000
00000000
,
00010000
00000000
00000010
00001000
00000010
00000100
00000000
00000002
00000000
00000013
00000100
00000000
00010000
00001000
00010000
00000020
,
00000000
00000000
00010030
00000000
00001000
00000000
00100000
00000000
00010000
00000000
10000000
00000000
00100000
01000000
00010000
01000000
,
00001000
00000000
00010000
00000010
00000000
00001000
00000010
00000100
00000001
00000000
00000001
00001000
00000000
00000100
00000000
00000020
,
00000000
00002030
00000000
00013000
00001000
00000000
00010000
00000000
02000000
00000000
00000000
00000000
00000000
00000000
00000000
00000000
,
13000000
00000000
00000000
00000000
01000000
00000000
00000000
00110000
00000000
00000000
00001000
00000000
00000000
01000000
00000000
10020000
,
00000000
10000000
00100000
00031000
,
00000001
00000000
00000000
00000000
00000100
00000000
00000000
00001010
00000000
00000000
00010000
00000000
00000000
00000100
00000000
00000010
,
00000000
00000000
00002001
00000000
00000000
00000000
00000000
00000000
00000000
00000000
00000010
00000000
00000000
00013000
00000000
00000000
,
01000000
00000000
00000000
00000000
00010000
00000000
00000000
00110000
00000000
00000000
00001000
00000000
00000000
00000010
00000000
00000012
,
00000000
00000010
00001000
00000103
,
00000001
00000000
00000000
00000000
00000100
00000000
00000000
00001010
00000000
00000000
00010000
00000000
00000000
00100000
00000000
10000000
,
00000000
00000000
00120000
00000000
00000000
00000000
00000000
00000000
00000000
00000000
00031000
00000000
00000000
00000100
00000000
00000000
,
00012000
00000000
00000000
00000000
,
00000000
00000000
00000000
00003000
,
00010000
00000000
00001000
00000000
00000010
00000000
00000001
00000100
00000000
00000100
00001000
00000000
00010000
00001000
00010000
00000000
,
00001000
00000000
00010000
00000000
00100000
00000000
10000000
01000000
00000000
01000000
00010000
00000000
00001000
00010000
00001000
00000000
,
00000200
00000000
00000000
00000000
00000310
00000000
00001000
00000001
00000100
00000010
00000000
00001000
00000000
00010000
00000000
02000000
,
00000000
03001000
00010000
01000000
00100000
00001000
00011000
00000000
,
00001000
00000000
00010000
00000000
00100000
00000000
10000000
01000000
00000000
01000000
00010000
00000000
00001000
00010000
00001000
00000000
,
00010000
00000000
00001000
00000000
00000010
00000000
00000001
00000100
00000000
00000100
00001000
00000000
00010000
00001000
00010000
00000000
,
02000000
00000000
00000000
00000000
03100000
00000000
00010000
10000000
01000000
10000000
00000000
00010000
00000000
00001000
00000000
00000002
,
00000000
00002000
00000000
00000000
00000000
00000000
00003003
00000000
,
00000001
00000000
00000100
00000000
00000010
00010000
00000000
00001000
00000000
00010000
00000010
00000000
00002000
00000000
00000000
00013000
,
00000000
01000000
00100000
01000000
00100000
10000000
00000000
00010000
00000000
10000000
01000000
00000000
00010000
00000000
00001000
00000000
,
00000010
00000001
00001000
00000001
00000200
00000000
00000000
00000000
00001300
00010000
00000100
00000000
00000010
00000001
00000000
00001000
,
00000000
00000010
00000000
00000000
00010000
00000000
00001000
00000000
00100000
00010000
00100000
00010000
10000000
00000000
00100000
00000000
,
10000000
00000000
01000000
00000000
00100000
00001000
00000000
00010000
00000000
00001000
00100000
00000000
00020000
00000000
00000000
00031000
,
00000000
00000100
00000010
00000100
00000010
00000001
00000000
00001000
00000000
00000001
00000100
00000000
00001000
00000000
00010000
00000000
,
00210000
00000000
00000000
00000000
00000000
00000000
10300000
00000000
11000000
00000000
00000000
00100000
00000000
00000000
00011000
00000000
,
00000000
00000100
00000000
00000000
00000011
00000000
00000000
00001000
00000000
00000000
00001010
00000000
00000000
00010000
00000000
00022000
,
00000000
00000000
00000000
00033000
,
00002000
00000000
00000000
00000000
00013000
01000000
00100000
02000000
00000000
00000000
13000000
00000000
01000000
00010000
00000000
00001000
,
00000000
00000000
00010000
00000010
00000000
00000100
00000000
00000010
00000000
00010000
00001000
00000000
00011000
00000000
00000000
00000000
,
00020000
00000000
00000000
00000000
00031000
00000100
00000010
00000200
00000000
00000000
00000301
00000000
00000100
00001000
00000000
00010000
,
00000000
00000000
00001000
00000000
00010000
00000000
00100000
00000000
10000000
00000000
00010000
00000000
20000000
00000000
00000000
32000000
00000000
00000000
03020000
00000000
00000000
00030000
00000000
00000000
,
00002000
00000000
00000000
00000000
00013000
00100000
01000000
00200000
00000000
00000000
10300000
00000000
01000000
00010000
00000000
00001000
,
00000000
00000010
00000001
00000000
00001000
00000010
00000000
00001000
00000000
00010000
00000000
00000000
02010000
00000000
00000000
00000000
,
03002000
00000000
00000000
00000000
00003010
00000001
00000000
00000100
00000000
00000000
00010000
00000000
01000000
00100000
00000000
20100000
,
00000000
00000000
00000000
32000000
,
03020000
00000000
00032000
00000000
00003020
00000000
00000032
00002003
,
00003000
00000000
00000000
00000000
;
