#VERSION:0.83;
#TITLE:ロミとロボの宇宙飛行;
#SUBTITLE:;
#ARTIST:onoken;
#TITLETRANSLIT:Romi to robo no uchuuhikou;
#SUBTITLETRANSLIT:;
#ARTISTTRANSLIT:;
#GENRE:ARTCORE;
#CREDIT:;
#MUSIC:Romi to robo no uchuuhikou.ogg;
#BANNER:Romi to robo no uchuuhikou.png;
#BACKGROUND:Romi to robo no uchuuhikou-bg.png;
#CDTITLE:./CDTitles/jb festo.png;
#SAMPLESTART:92.602;
#SAMPLELENGTH:15.000;
#SELECTABLE:YES;
#OFFSET:0.347;
#BPMS:0.000=172.000;
#STOPS:;
#TIMESIGNATURES:0.000=4=4;
#BGCHANGES:0.000=../BGAs/29cy.mp4=1.000=0=0=0=StretchNoLoop====,
99999.000=-nosongbg-=1.000=0=0=0=StretchNoLoop====
;
#FGCHANGES:;

//--------------- dance-single - forcednature ----------------
#NOTEDATA:;
#STEPSTYPE:dance-single;
#DESCRIPTION:forcednature;
#CREDIT:forcednature;
#DIFFICULTY:Beginner;
#METER:3;
#RADARVALUES:0,0,0,0,0;
#NOTES:
0000
0000
0000
0000
,
0000
0000
0000
0000
,
0000
0000
0000
0000
,
0000
0000
0000
0000
,
0000
0000
0000
0000
,
0000
0000
0000
0000
,
0000
0000
0000
0000
,
0000
0000
0000
0000
,
0000
0000
0000
0000
,
0001
0000
0000
0000
,
0000
0000
0000
0000
,
0100
0000
0000
0000
,
0000
0000
0000
0000
,
0001
0000
0000
0000
,
0000
0000
0000
0000
,
0010
0000
0000
0000
,
0000
0000
0000
0000
,
0100
0000
0000
0000
,
0000
0000
0000
0000
,
1000
0000
0000
0000
,
0000
0000
0000
0000
,
0010
0000
0000
0000
,
0000
0000
0000
0000
,
1000
0000
0000
0000
,
0001
0000
0000
0000
,
1001
0000
0000
0000
,
1000
0000
0000
0000
,
1000
0000
0000
0000
,
0010
0000
0000
0000
,
1000
0000
1001
0000
,
0000
0000
0001
0000
,
0000
0000
0010
0000
,
0000
0000
0001
0000
,
0000
0000
0100
0000
,
0000
0000
0000
0010
,
0000
0010
0000
0010
,
0000
0000
0000
1000
,
0000
1000
0000
1000
,
0000
0000
0000
0001
,
0000
0001
0000
0001
,
0000
0000
0000
0100
,
0000
0100
0000
0100
,
0000
0000
0000
0000
,
0010
0000
1000
0000
,
0001
0000
0000
0000
,
0010
0000
0001
0000
,
1000
0000
0000
0000
,
0001
0000
0000
0000
,
0100
0000
0100
0000
,
0001
0000
0100
0000
,
0010
0000
0000
0000
,
0000
0000
0000
0000
,
1000
0000
0000
0000
,
0000
0000
0000
0000
,
0001
0000
0000
0000
,
0000
0000
0000
0000
,
0100
0000
0000
0000
,
0000
0000
0000
0000
,
1001
0000
0000
0000
,
1000
0000
0000
0000
,
0100
0000
0000
0000
,
1000
0000
0000
0000
,
0010
0000
0000
0000
,
0100
0000
0000
0000
,
0001
0000
0000
0000
,
0100
0000
0100
0000
,
0010
0000
0000
0000
,
2002
0000
0000
0000
,
0000
0000
3003
0000
,
0110
0000
0000
0001
,
0000
0001
0000
1000
,
0000
0000
0000
0100
,
0000
0100
0000
1000
,
0000
0000
0000
0010
,
0100
0100
0010
0100
,
0000
0000
0001
0000
,
1000
0000
0001
0000
,
1000
0000
0100
0000
,
1000
0000
0000
0000
,
0010
0000
0000
0010
,
0100
0000
0000
0100
,
0010
0000
0100
0000
,
0001
0001
1000
0000
,
1001
0000
0000
0000
,
0001
0000
0000
0000
,
0010
0000
0000
0000
,
0001
0000
0000
0000
,
0100
0000
0000
0000
,
0001
0000
0000
0000
,
0010
0000
0000
0000
,
1001
0000
0000
0000
;

//--------------- dance-single - forcednature ----------------
#NOTEDATA:;
#STEPSTYPE:dance-single;
#DESCRIPTION:forcednature;
#CREDIT:forcednature;
#DIFFICULTY:Easy;
#METER:7;
#RADARVALUES:0,0,0,0,0;
#NOTES:
0000
0000
0000
0000
,
0000
0000
0000
0000
,
0000
0000
0000
0000
,
0000
0000
0000
0000
,
0000
0000
0000
0000
,
0000
0000
0000
0000
,
0000
0000
0000
0000
,
0000
0000
0000
0000
,
0000
0000
0000
0000
,
1000
0000
0100
0000
,
1000
0000
0010
0000
,
0100
0000
0001
0000
,
0010
0000
0001
0000
,
0100
0010
0100
0000
,
0010
1000
0010
0000
,
1000
0100
0010
0000
,
0001
1000
0001
0000
,
1001
0000
1000
0000
,
0010
0000
0100
0010
,
0100
0000
0001
0000
,
0010
0000
0100
0010
,
0100
0000
1000
0100
,
1000
0000
0010
1000
,
0010
0000
0100
0001
,
0100
0000
0010
0000
,
2002
0000
3003
0000
,
0110
0000
0001
0001
,
0010
0000
0001
1000
,
0001
0000
1000
1000
,
0100
0000
2002
0000
,
3003
0000
1000
1000
,
0010
0000
0100
0000
,
0001
0001
1000
0000
,
0100
1000
0100
0000
,
1001
0000
0001
0010
,
0100
0000
0010
0000
,
0001
0000
1000
0010
,
0100
0000
0010
0000
,
1000
0000
0001
0100
,
1000
0000
0100
0001
,
1000
0000
0010
0100
,
0001
0000
0010
0000
,
1001
0000
0001
0010
,
0100
0000
0010
0000
,
0001
0000
1000
0010
,
0100
0000
1000
0000
,
0100
0000
0100
0100
,
0001
0000
0001
0001
,
0010
0000
0010
0010
,
0100
0000
1000
0000
,
1001
0000
0000
0000
,
0001
0000
0100
0000
,
0001
0000
0000
0000
,
1000
0000
0100
0000
,
1000
0010
1000
0000
,
0001
0010
0001
0000
,
0100
0010
0000
0010
,
0100
0000
0110
0000
,
0001
0001
1000
0000
,
0100
0100
1000
0000
,
0010
0010
1000
0000
,
0001
0001
1000
0000
,
0100
0010
0100
0000
,
0010
0001
1000
0000
,
0010
1000
0010
0000
,
0100
0001
1000
0000
,
2002
0000
3003
0000
,
0002
0000
0023
0230
,
2300
0000
3010
0000
,
1001
0000
0001
0010
,
0100
0010
0001
1000
,
0010
0000
0100
0001
,
1000
0000
0100
1000
,
0001
0000
0100
0010
,
1000
0100
0010
0001
,
0000
1000
0010
1000
,
0010
0100
0001
0100
,
0001
0010
0100
1000
,
0100
0010
0001
1000
,
0010
0000
0000
0010
0000
0000
0100
0000
,
0001
0000
0000
0001
0000
0000
0100
0000
,
0010
0010
1000
0010
,
1000
0001
0100
0000
,
1001
0000
1000
0000
,
0100
1000
0100
0000
,
1000
0000
0010
0000
,
0100
0010
0100
0000
,
0001
0000
0010
0000
,
0001
1000
0001
0000
,
1000
0100
0010
0000
,
0002
0000
0000
0000
,
0003
0000
0000
0000
;

//--------------- dance-single - forcednature ----------------
#NOTEDATA:;
#STEPSTYPE:dance-single;
#DESCRIPTION:forcednature;
#CREDIT:forcednature;
#DIFFICULTY:Medium;
#METER:10;
#RADARVALUES:0,0,0,0,0;
#NOTES:
0000
0000
0000
0000
,
0000
0000
0000
0000
,
0000
0000
0000
0000
,
0000
0000
0000
0000
,
0000
0000
0000
0000
,
0000
0000
0000
0000
,
0000
0000
0000
0000
,
0000
0000
0000
0000
,
0000
0000
0000
0000
,
1000
0000
0100
1000
0000
1000
0010
0000
,
0100
0000
0001
0100
0000
0001
0010
0000
,
0001
0000
0100
0001
0000
0001
0010
0000
,
0100
0000
1000
0100
0000
1000
0010
0000
,
0100
0000
0010
0100
0000
0100
0001
0000
,
0010
0000
0001
1000
0000
0100
1000
0000
,
0001
0000
0100
0001
0000
0001
1000
0000
,
1010
0000
0000
0110
0000
0000
0001
0000
,
1001
0000
1000
0100
0000
0010
0100
0000
,
1000
0001
0000
0001
0000
1000
0010
0000
,
0100
0000
0001
0010
0000
0001
1000
0000
,
0010
0100
0000
0100
0000
0010
1000
0000
,
0100
0010
0000
0010
0000
0001
0100
0000
,
0010
1000
0000
1000
0000
0001
0100
0000
,
0010
1000
0010
1000
0000
0010
0100
0000
,
0002
0000
0000
0010
0000
0000
1003
0000
,
0001
0000
0001
0000
0100
0000
0010
0000
0000
0000
0000
0000
,
1010
0000
0001
0000
1000
0000
0100
1000
,
0000
1000
0010
0000
1000
0000
0000
0000
,
1100
0000
0001
0000
0010
0000
0001
0100
,
0000
0000
0000
0100
0000
0000
0010
0000
0000
0000
0000
0000
1000
0000
0000
0000
1000
0000
0000
0000
0100
0000
0000
0000
,
1001
0000
0001
0010
0000
0001
1000
0000
,
0100
0000
0100
0000
1000
0001
1000
0000
,
0010
0100
0010
0000
0100
0001
0000
0010
,
0000
0001
1000
0100
1000
0000
0010
0000
,
1000
0100
0001
0000
0100
0000
1000
0000
,
0001
0000
0010
0000
1000
0010
0001
0000
,
0001
0100
1000
0000
0100
0000
0001
0000
,
0010
0000
1000
0000
0010
0001
1000
0000
,
0001
0100
1000
0000
0100
0000
0001
0000
,
0010
1000
0010
0001
,
1000
0100
0001
0000
0100
0000
1000
0000
,
0002
0000
0103
0020
0000
1030
0001
0000
,
1000
0100
0001
0000
0100
0000
1000
0000
,
0010
0001
0010
0000
1000
0010
1000
0000
,
0001
0100
1000
0000
0100
0000
0001
0000
,
0010
1000
0010
0000
0001
0010
0001
0000
,
0001
0100
0100
0001
0000
1000
0010
0000
,
1000
0100
0100
1000
0000
0001
0010
0000
,
0110
0000
1000
0100
0000
1000
0010
0000
,
0210
0001
0001
0310
,
1001
0000
0000
1000
0000
0100
1000
0000
,
0010
1000
0000
0010
0100
0000
0001
0010
,
0000
0000
0001
1000
0000
0100
1000
0000
,
0001
0100
0000
0010
0000
0100
0010
0000
,
1000
0100
1000
0001
0000
0010
0001
0000
,
1000
0010
0000
0100
0001
0000
0010
0100
,
0000
0000
0010
0001
0000
1000
0010
0000
,
0100
0001
0000
1000
0000
0100
1000
0000
,
1010
0000
0010
0000
0100
0001
0010
0000
,
0100
1000
0000
0010
0100
0000
0001
0000
,
0010
0001
1000
0010
0000
0100
0001
0000
,
0010
0100
0000
1000
0000
0010
0100
0000
,
0001
1000
0001
1000
0000
1000
0100
0000
,
0010
0001
0000
0100
0001
0000
0100
0000
,
0010
1000
0001
1000
0000
0010
0100
0000
,
0001
0010
0000
0100
0000
1000
0001
0200
,
0000
0000
0020
0000
0000
0330
0000
0002
,
0000
0000
0000
0203
0000
0320
0000
2030
,
0000
0000
3100
0000
1000
0001
0000
0100
,
0010
0000
0110
0000
0100
0001
1000
0000
,
0100
1000
0010
1000
0001
0000
0010
0000
,
0100
0010
0001
0000
0100
0010
1000
0000
,
0001
0100
0010
0100
0001
0000
0011
0000
,
1000
0000
0010
0100
0000
0001
0000
0010
,
0010
0110
1000
1001
,
0001
0100
0010
0000
0010
1000
0001
0000
,
0001
0010
0100
0000
0110
0000
1001
0000
,
1000
0010
0100
0000
0100
0001
1000
0000
,
1000
0100
0010
0000
0110
0000
1001
0000
,
0001
0100
0000
0100
0000
0010
1000
0000
,
0100
0010
0000
0010
0000
0001
0100
0000
,
0010
0000
1000
0100
0000
0110
0000
0000
,
0002
0100
1003
1100
,
2000
0000
0000
0010
0000
0000
3010
0000
,
0001
0000
0100
0001
0000
0100
0010
0000
,
2000
0000
0000
0100
0000
0000
3100
0000
,
0001
0000
0010
0100
0000
0010
0001
0000
,
1000
0000
0010
0100
0000
0001
0100
0000
,
0010
0000
1000
0001
0000
0010
0001
0000
,
1000
0000
0100
0010
0000
0001
1000
0020
,
0000
0000
0000
0000
,
0030
0000
0000
0000
;

//--------------- dance-single - forcednature ----------------
#NOTEDATA:;
#STEPSTYPE:dance-single;
#DESCRIPTION:forcednature;
#CREDIT:forcednature;
#DIFFICULTY:Hard;
#METER:13;
#RADARVALUES:0,0,0,0,0;
#NOTES:
0000
0000
0000
0000
,
0000
0000
0000
0000
,
0000
0000
0000
0000
,
0000
0000
0000
0000
,
0000
0000
0000
0000
,
0000
0000
0000
0000
,
0000
0000
0000
0000
,
0000
0000
0000
0000
,
0000
0000
0000
0000
,
1001
0000
0001
0011
0000
0010
0110
0000
,
0100
1000
0001
1000
0100
0010
0001
0000
,
1001
0000
1000
1010
0000
0010
0110
0000
,
0100
0001
1000
0001
0010
0100
2000
0000
,
3010
0000
0010
0100
0000
0100
0001
0000
,
1001
0000
1000
0100
0010
0100
1000
0001
,
0010
0000
0010
0001
0000
0001
0100
0000
,
0110
0000
0010
1010
0000
1000
0200
0000
,
0310
0001
0100
0010
0100
0001
0010
0000
,
0100
1000
0010
0100
0010
1000
0100
0000
,
1000
0001
0100
0001
1000
0010
0100
0000
,
0001
1000
0100
1000
0001
0010
0200
0000
,
0310
0001
0100
0010
1000
0100
0010
0000
,
0100
1000
0010
0100
0001
0010
0100
0000
,
0010
0001
1000
0010
1000
0001
0100
0000
,
0020
0000
1030
2000
0000
3100
0100
0000
,
1001
0000
0000
0000
1001
0000
0000
0000
0001
0000
0010
0000
0100
0000
0000
0000
0000
0000
1000
0000
0000
0010
0000
0000
,
0110
0000
0001
0000
0001
0000
0000
0000
1000
0000
0100
1000
0100
0000
1000
0000
,
0001
0000
0000
0010
0000
0000
0100
0000
0000
0010
0000
0000
0002
0000
0000
0000
0000
0000
0103
0000
0010
0000
0100
0000
,
0010
0000
1000
0000
0000
0000
1000
0000
0100
0000
0010
0100
0010
0000
0001
0000
,
0200
0000
0000
0300
0000
0000
0020
0000
0000
0030
0000
0000
1001
0000
0000
0000
1001
0000
0000
0000
1000
0000
0010
0000
,
0100
0000
0001
0010
0110
1000
1000
0000
,
0001
0000
0100
0001
0100
0000
0001
0000
1000
0000
0010
0000
0100
0000
0010
0000
,
0000
1000
0100
0100
0001
0100
0000
1000
,
0010
0000
0100
0010
0100
0000
0001
0000
0020
0000
0030
0000
0200
0000
0300
0000
,
1000
0010
0100
1000
0100
0001
1000
0000
,
0001
0000
0010
0000
0001
0000
0010
0000
0000
0000
0000
0000
0100
0000
0000
1000
0000
0000
1100
0000
0000
0000
0000
0000
,
0001
0010
0100
0001
0100
1000
0010
0000
,
1000
0000
0010
0000
1000
0000
0010
0000
0000
0000
0000
0000
0100
0000
0000
0001
0000
0000
0101
0000
0000
0000
0000
0000
,
1000
0100
0001
0100
1000
0001
0010
0000
,
0001
0100
0001
0100
0000
0010
1000
0010
1000
0100
0000
0000
,
0010
0001
0100
0001
0010
1000
0010
0000
,
0210
0000
1300
2000
0000
3010
0100
0000
,
1001
0001
0010
0100
0001
0100
1000
0000
,
0010
0000
0100
0000
0001
0000
0100
0000
0000
0000
0000
0000
0010
0000
0000
1000
0000
0000
1100
0000
0000
0000
0000
0000
,
0001
1000
0100
0001
0100
1000
0001
0000
,
0010
0001
0010
0001
0000
0100
0010
0100
0010
1000
0000
0000
,
0001
0000
0010
0000
0010
0000
0001
0000
0100
0000
0100
0000
0001
0000
0000
0001
,
1000
0000
0010
0000
0010
0000
1000
0000
0100
0000
0100
0000
1000
0000
0000
1000
,
0001
0000
0010
0000
0100
0000
0010
0000
0001
0000
0100
0000
0010
0000
0000
0010
,
1000
0000
0000
0100
0000
0000
0100
0000
0000
1000
0000
0000
0001
0000
0010
0000
0100
0000
0010
0000
0000
0000
0000
0000
,
0001
0001
0100
0002
0000
0103
0020
0000
,
1030
0200
0000
1300
0020
0000
0130
0002
,
0000
0003
0010
0200
0000
0310
0002
0000
,
1003
0020
0000
0230
0000
0302
0000
0013
,
0100
1000
0010
2000
0000
3001
0020
0000
,
0031
0200
0000
0310
0200
0000
0310
2000
,
0000
3000
0100
0020
0000
0031
0200
0000
,
0310
2000
0000
3002
0000
0013
0100
0000
,
1000
0001
0100
0001
0010
0001
0100
0000
,
0010
1000
0100
1000
0001
1000
0100
0000
,
0010
0001
0100
0010
1000
0100
0010
0000
,
0100
1000
0010
0100
0001
0010
0100
0000
,
0010
0010
0001
0001
0100
0100
0010
1000
,
0100
0100
1000
1000
0010
0010
0100
0001
,
1000
0100
0001
0100
1000
0010
0001
0010
,
1000
0002
0000
0203
0000
0310
1000
0002
,
0000
0100
0100
0100
0000
0013
0100
2000
,
0000
0000
3010
0200
0000
0302
0000
0023
,
0000
0000
0000
0000
0130
0000
1000
0000
0010
0000
0100
0010
0100
0000
0000
0000
,
1001
0000
0000
0000
1000
0000
0000
0100
0010
0000
0100
0000
1000
0000
0002
0000
,
0000
0000
0103
0000
0010
0000
1000
0010
1000
0000
0001
0000
0000
0000
0101
0000
,
0000
0000
1000
0000
0010
1000
0020
0000
0000
0000
0130
0000
0001
0000
1000
0000
,
0000
0000
0000
0000
0100
0000
0000
0000
1000
0000
0000
0000
0100
0000
0000
0000
0000
0000
0010
0000
0000
0000
0000
0000
0000
0000
0000
0000
0000
0000
0001
0000
0000
0000
0000
0000
0000
0000
0000
0000
0000
0000
0100
0000
0000
0001
0000
0000
,
0200
0000
0000
0000
0310
0000
1000
0000
0000
0000
0001
0000
0010
0000
0100
0010
,
0100
0000
1100
0000
1010
0000
0010
0100
,
1001
0000
0001
0010
0001
0100
0001
1000
,
0010
0000
0100
0000
0010
0000
1000
0000
0001
0000
0100
0000
0001
0000
0000
0010
,
0200
0000
0000
0000
0000
0000
1300
0000
0100
0000
1000
0000
0001
0000
0000
0010
0000
0000
0000
0000
0000
0110
0000
0000
,
0000
0000
0100
0000
1000
0000
0001
0000
0010
0000
0001
0000
0010
0000
0000
0100
0000
0000
0000
0000
0000
0010
0000
0000
,
0001
0000
0100
0000
0100
0000
1000
0000
0100
0000
0100
0000
0001
0000
0000
0001
,
1000
0000
0100
0000
0100
0000
0001
0000
0100
0000
0100
0000
1000
0000
0000
1000
,
0010
0100
0100
0001
0010
0010
0100
0000
,
1000
0010
1000
0010
0100
0010
0100
0001
1000
0010
0000
0000
,
1000
0100
0010
0100
1000
0001
0010
0000
,
0001
0100
0010
2000
0000
3100
0020
0000
,
0130
1000
0001
0100
0001
1000
0010
0000
,
2000
0000
3100
0200
0000
0310
0010
0001
,
0100
0010
0100
0001
0010
0100
1000
0000
,
0001
0100
0010
0100
0001
1000
0100
0000
,
0010
0001
1000
0010
1000
0001
0010
0200
,
0000
0000
0000
0000
,
0300
0000
0000
0000
;

//--------------- dance-double - forcednature ----------------
#NOTEDATA:;
#STEPSTYPE:dance-double;
#DESCRIPTION:forcednature;
#CREDIT:forcednature;
#DIFFICULTY:Easy;
#METER:7;
#RADARVALUES:0,0,0,0,0;
#NOTES:
00000000
00000000
00000000
00000000
,
00000000
00000000
00000000
00000000
,
00000000
00000000
00000000
00000000
,
00000000
00000000
00000000
00000000
,
00000000
00000000
00000000
00000000
,
00000000
00000000
00000000
00000000
,
00000000
00000000
00000000
00000000
,
00000000
00000000
00000000
00000000
,
00000000
00000000
00000000
00000000
,
00001000
00000000
00010000
00000000
,
00000100
00000000
00010000
00000000
,
00001000
00000000
00100000
00000000
,
00001000
00000000
00010000
00000000
,
00000010
00001000
00000010
00000000
,
00001000
00000100
00001000
00000000
,
00000001
00000100
00000010
00000000
,
00001000
00000001
00001000
00000000
,
00001001
00000000
00000001
00000000
,
00000010
00000000
00000100
00000010
,
00000100
00000000
00010000
00000000
,
00001000
00000000
00100000
00010000
,
00100000
00000000
01000000
00100000
,
01000000
00000000
10000000
01000000
,
10000000
00000000
00100000
01000000
,
00010000
00000000
00100000
00000000
,
00022000
00000000
00033000
00000000
,
00011000
00000000
00000100
00000100
,
00001000
00000000
00000010
00001000
,
00000010
00000000
00000100
00000100
,
00000001
00000000
00002002
00000000
,
00003003
00000000
00001000
00001000
,
00000100
00000000
00010000
00000000
,
00001000
00001000
00010000
00000000
,
00001000
00100000
00010000
00000000
,
10010000
00000000
10000000
00100000
,
01000000
00000000
00010000
00000000
,
00100000
00000000
00001000
00010000
,
00000100
00000000
00001000
00000000
,
00000010
00000000
00000100
00000001
,
00001000
00000000
00000100
00010000
,
00001000
00000000
00100000
00001000
,
00010000
00000000
00001000
00000000
,
00011000
00000000
01000000
00010000
,
01000000
00000000
00100000
00000000
,
10000000
00000000
01000000
00100000
,
00010000
00000000
00100000
00000000
,
00001000
00000000
00001000
00001000
,
00010000
00000000
00010000
00010000
,
00000100
00000000
00000100
00000100
,
00001000
00000000
00000010
00000000
,
00001001
00000000
00000000
00000000
,
00000001
00000000
00000100
00000000
,
00001000
00000000
00000000
00000000
,
00010000
00000000
00100000
00000000
,
10000000
00100000
10000000
00000000
,
00010000
00100000
00010000
00000000
,
01000000
00010000
00000000
00010000
,
00100000
00000000
00011000
00000000
,
00000100
00000100
00001000
00000000
,
00000010
00000010
00001000
00000000
,
00000001
00000010
00000100
00000000
,
00001000
00000010
00000100
00000000
,
00001000
00010000
00001000
00000000
,
00100000
00010000
00100000
00000000
,
01000000
10000000
01000000
00000000
,
10000000
00010000
00100000
00000000
,
20020000
00000000
30030000
00000000
,
00020000
00000000
00230000
00302000
,
00023000
00000000
00030100
00000000
,
00011000
00000000
00000010
00001000
,
00000010
00000100
00000001
00000100
,
00000010
00000000
00001000
00000100
,
00010000
00000000
00001000
01000000
,
00010000
00000000
00100000
01000000
,
10000000
01000000
00100000
00010000
,
00000000
10000000
00100000
10000000
,
00100000
01000000
00010000
01000000
,
00010000
00100000
00001000
00010000
,
00000100
00010000
00001000
00010000
,
00000010
00000000
00000000
00000010
00000000
00000000
00001000
00000000
,
00000001
00000000
00000000
00000001
00000000
00000000
00001000
00000000
,
00000100
00000100
00010000
00001000
,
00100000
00001000
00010000
00000000
,
00011000
00000000
01000000
00000000
,
00010000
01000000
00010000
00000000
,
10000000
00000000
00100000
00000000
,
01000000
00100000
01000000
00000000
,
00010000
00000000
00100000
00000000
,
00001000
00010000
00001000
00000000
,
00010000
00000100
00001000
00000000
,
00000020
00000000
00000000
00000000
,
00000030
00000000
00000000
00000000
;

//--------------- dance-double - forcednature ----------------
#NOTEDATA:;
#STEPSTYPE:dance-double;
#DESCRIPTION:forcednature;
#CREDIT:forcednature;
#DIFFICULTY:Medium;
#METER:10;
#RADARVALUES:0,0,0,0,0;
#NOTES:
00000000
00000000
00000000
00000000
,
00000000
00000000
00000000
00000000
,
00000000
00000000
00000000
00000000
,
00000000
00000000
00000000
00000000
,
00000000
00000000
00000000
00000000
,
00000000
00000000
00000000
00000000
,
00000000
00000000
00000000
00000000
,
00000000
00000000
00000000
00000000
,
00000000
00000000
00000000
00000000
,
00001000
00000000
00000000
00010000
00000000
00000000
00100000
00000000
,
01000000
00000000
00000000
00010000
00000000
00000000
01000000
00000000
,
00100000
00000000
00000000
10000000
00000000
00000000
01000000
00000000
,
00010000
00000000
00000000
00001000
00000000
00000000
00010000
00000000
,
00001000
00000000
00000000
00000010
00000000
00000000
00000100
00000000
,
00000010
00000000
00000000
00000001
00000000
00000000
00000100
00000000
,
00001000
00000000
00000000
00010000
00000000
00000000
00001000
00000000
,
00100000
00000000
00000000
00011000
00000000
00000000
01000000
00000000
,
01010000
00000000
10000000
00100000
00000000
01000000
00100000
00000000
,
10000000
00000000
01000000
00100000
00000000
00010000
00100000
00000000
,
00001000
00000000
00010000
00000100
00000000
00001000
00000100
00000000
,
00000010
00000000
00000001
00001000
00000000
00000010
00001000
00000000
,
00000001
00000100
00000000
00000100
00000000
00000010
00001000
00000000
,
00000100
00010000
00000000
00010000
00000000
00001000
01000000
00000000
,
00010000
10000000
00100000
10000000
00000000
00100000
01000000
00000000
,
00020000
00000000
00000000
00100000
00000000
00000000
10030000
00000000
,
00010000
00000000
00010000
00000000
01000000
00000000
00001000
00000000
00000000
00000000
00000000
00000000
,
00011000
00000000
00000100
00000000
00001000
00000010
00000000
00000010
,
00000100
00000001
00000010
00000000
,
00000011
00000000
00001000
00000000
00000100
00010000
00000000
00010000
,
00001000
00000000
00000000
00001000
00000000
00000000
00100000
00000000
00100000
00000000
00010000
00000000
,
00110000
00000000
10000000
00100000
00000000
00100000
10000000
00000000
,
01000000
10000000
01000000
00000000
00100000
00000000
00001000
00000000
,
00011000
00000000
00000100
00000000
00001000
00000010
00000000
00000010
,
00000000
00000100
00000001
00000000
00000101
00000000
00001000
00000000
,
00000010
00000100
00001000
00010000
,
00100000
00000000
01000000
00000000
00010000
10000000
00010000
00000000
,
00100000
01000000
00010000
00001000
,
00000010
00000000
00000100
00000000
00001000
00000001
00001000
00000000
,
00000010
00000100
00001000
00010000
,
01000000
00000000
00100000
00000000
00010000
10000000
00010000
00000000
,
00100000
01000000
00010000
00001000
,
00000200
00000000
00000000
00000302
00000000
00000000
00000013
00000000
,
00001001
00000000
00001000
00000010
00000000
00010000
00001000
00000000
,
00100000
00000000
00010000
01000000
00000000
00100000
10000000
00000000
,
01000000
00000000
00100000
00001000
00000000
00010000
00001000
00000000
,
00011000
00000000
00000100
00000000
00001000
00000010
00001000
00000000
,
00000001
00000100
00000100
00000001
00000000
00001000
00000010
00000000
,
00010000
00001000
00001000
00010000
00000000
00001000
00100000
00000000
,
00011000
00000000
01000000
00010000
00000000
00010000
00100000
00000000
,
02000000
10000000
10000000
03100000
,
10010000
00000000
00000000
10000000
00000000
00000000
01000000
00000000
,
00010000
00000000
00000000
00001000
00000000
00000000
00010000
00000000
,
00001000
00000000
00000000
00000010
00000000
00000000
00000100
00000000
,
00000010
00000001
00000000
00000100
00000000
00000001
00001000
00000000
,
00000100
00000000
00000000
00010000
00000000
00000000
00001000
00000000
,
00100000
00000000
00000000
00010000
00000000
00000000
01000000
00000000
,
00100000
00000000
00000000
10000000
00000000
00000000
01000000
00000000
,
00010000
00001000
00000000
00001000
00000000
00100000
00010000
00000000
,
00110000
00000000
00001000
00000000
00010000
00001000
00010000
00000000
,
00000100
00001000
00000000
00000010
00001000
00000000
00000001
00000000
,
00000100
00000000
00000010
00001000
00000000
00001000
00000100
00000000
,
00010000
00001000
00000000
00100000
00000000
00010000
00100000
00000000
,
01000000
10000000
01000000
00000000
00100000
00000000
00001000
00000000
,
00010000
00001000
00010000
00000000
00000100
00000000
00001000
00000000
,
00000010
00000100
00000010
00000000
00000100
00000000
00000001
00000000
,
00000010
00000100
00000000
00010000
00000000
00001000
00200000
00000000
,
00000000
00000000
02000000
00000000
00000000
03300000
00000000
20000000
,
00000000
00000000
00000000
30020000
00000000
02030000
00000000
03002000
,
00000000
00000000
00013000
00000000
00000010
00001000
00000000
00000100
,
00001000
00000000
00001001
00000000
00000001
00000010
00000100
00000000
,
00001000
00000000
00000100
00010000
00001000
00000000
00100000
00000000
,
00010000
00000000
01000000
00000000
00100000
10000000
00010000
00000000
,
00100000
00000000
00001000
00010000
00000100
00000000
00001000
00000000
,
00000010
00000000
00000100
00000001
00000000
00000010
00000000
00000100
,
00000100
00010000
00001000
00100000
,
00011000
00000000
01000000
00010000
00100000
00000000
01000000
00000000
,
10000000
00000000
00100000
01000000
00010000
00000000
00100000
00000000
,
00011000
00000000
00000100
00001000
00000010
00000000
00000100
00000000
,
00000001
00000000
00000010
00000100
00001000
00000000
00000010
00000000
,
00010000
00001000
00000000
00001000
00000000
01000000
00010000
00000000
,
00100000
00010000
00000000
00010000
00000000
01000000
00100000
00000000
,
10000000
00000000
01000000
00010000
00000000
00001000
00000000
00000000
,
00000020
00000100
00000031
00001001
,
00002000
00000000
00000000
00000010
00000000
00000000
00003010
00000000
,
00001000
00000000
00000100
00010000
00000000
00001000
00010000
00000000
,
00002000
00000000
00000000
00100000
00000000
00000000
00103000
00000000
,
00001000
00000000
00100000
00010000
00000000
01000000
00010000
00000000
,
10000000
00000000
00100000
01000000
00000000
00010000
00100000
00000000
,
00001000
00000000
00010000
00000100
00000000
00001000
00000010
00000000
,
00000100
00000000
00000001
00000010
00000000
00000001
00001000
00000200
,
00000000
00000000
00000000
00000000
,
00000300
00000000
00000000
00000000
;

//--------------- dance-double - forcednature ----------------
#NOTEDATA:;
#STEPSTYPE:dance-double;
#DESCRIPTION:forcednature;
#CREDIT:forcednature;
#DIFFICULTY:Hard;
#METER:14;
#RADARVALUES:0,0,0,0,0;
#NOTES:
00000000
00000000
00000000
00000000
,
00000000
00000000
00000000
00000000
,
00000000
00000000
00000000
00000000
,
00000000
00000000
00000000
00000000
,
00000000
00000000
00000000
00000000
,
00000000
00000000
00000000
00000000
,
00000000
00000000
00000000
00000000
,
00000000
00000000
00000000
00000000
,
00000000
00000000
00000000
00000000
,
00011000
00000000
00010000
00100000
00000000
00100000
10000000
00000000
,
01000000
00010000
00001000
00100000
00000000
00010000
01000000
00000000
,
00011000
00000000
00001000
00000010
00000000
00000010
00000001
00000000
,
00000100
00001000
00010000
00000010
00000000
00001000
00000100
00000000
,
00011000
00000000
00010000
01000000
00000000
01000000
10000000
00000000
,
00100000
00010000
00001000
01000000
00000000
00010000
00100000
00000000
,
00011000
00000000
00001000
00000100
00000000
00000001
00000001
00000000
,
00000010
00001000
00010000
00000100
00000000
00001000
00000020
00000000
,
00000130
00001000
00010000
00001000
00010000
00100000
10000000
00000000
,
01000000
00100000
00001000
00010000
00000100
00001000
00000010
00000000
,
00010000
00001000
00000010
00000100
00000010
00000001
00001000
00000000
,
00000010
00000100
00001000
00010000
00001000
00010000
00200000
00000000
,
01300000
00010000
00100000
00010000
10000000
01000000
00010000
00000000
,
00001000
00000010
00000001
00000100
00000001
00001000
00000010
00000000
,
00000100
00001000
00010000
00001000
00010000
00100000
10000000
00000000
,
02000000
00000000
03010000
00002000
00000000
00003010
00000100
00000000
,
00000110
00000000
00000000
00000000
00000110
00000000
00000000
00000000
00000010
00000000
00000001
00000000
00001000
00000000
00000000
00000000
00000000
00000000
00000010
00000000
00000000
00000100
00000000
00000000
,
00000001
00000000
00000100
00000000
00001000
00000000
00000000
00000000
00010000
00000000
00001000
00010000
00001000
00000000
00001000
00000000
,
00100000
00000000
00000000
00010000
00000000
00000000
01000000
00000000
00000000
10000000
00000000
00000000
00000000
00000000
00000000
01000000
00000000
00000000
00010000
00000000
01000000
00000000
00010000
00000000
,
00100000
00000000
00001000
00000000
00000000
00000000
00010000
00000000
00001000
00000000
00010000
00001000
00010000
00000000
00000100
00000000
,
00001000
00000000
00000000
00000010
00000000
00000000
00000100
00000000
00000000
00000010
00000000
00000000
00000110
00000000
00000000
00000000
00000110
00000000
00000000
00000000
00000001
00000000
00001000
00000000
,
00000100
00000000
00000010
00000100
00010000
00000100
00000100
00000000
,
00010000
00000000
00001000
00010000
00001000
00000000
00001000
00000000
01000000
00000000
00010000
00000000
00100000
00000000
10000000
00000000
,
00000000
00100000
00001000
01000000
00010000
00100000
00000000
01000000
,
00010000
00000000
00001000
00010000
00001000
00000000
00001000
00000000
00000010
00000000
00000100
00000000
00001000
00000000
00000100
00000000
,
00000110
00000000
00000010
00000001
00000100
00000001
00000010
00000000
,
00020100
00031000
00020100
00030010
,
00010000
00001000
00100000
00001000
00010000
01000000
00100000
00000000
,
00102000
00013000
00102000
01003000
,
00001000
00010000
00100000
01000000
00100000
10000000
00010000
00000000
,
00100000
00000000
01000000
00000000
00100000
00000000
01000000
00000000
10000000
00000000
01000000
00000000
10000000
00000000
00000000
00000000
00000000
00000000
00010000
00000000
00000000
00100000
00000000
00000000
,
01000000
00010000
00001000
00010000
00001000
00000000
00000010
00000000
,
00000002
00000000
00000103
00002000
00000000
00013000
00100000
00000000
,
01100000
00000000
00100000
10000000
01000000
10000000
00100000
00000000
,
01002000
00013000
01002000
00103000
,
00001000
00010000
00000010
00010000
00001000
00000100
00000010
00000000
,
00020010
00031000
00020010
00030100
,
00001000
00000010
00000010
00000001
00000010
00000010
00001000
00000100
,
00010000
00001000
00001000
00100000
00001000
00001000
00010000
01000000
,
10000000
00100000
01000000
00100000
00010000
00001000
00000100
00000010
,
00000100
00000000
00000000
00000001
00000000
00000000
00000001
00000000
00000000
00000100
00000000
00000000
00000010
00000000
00001000
00000000
00000010
00000000
00001000
00000000
00000000
00000000
00000000
00000000
,
00000001
00000100
00001000
00000200
00000000
00001300
00020000
00000000
,
00130000
02000000
00000000
03010000
20000000
00000000
31000000
00020000
,
00000000
00031000
00100000
00002000
00000000
00013000
00000200
00000000
,
00001300
00000020
00000000
00000032
00000000
00001003
00000100
00000001
,
00000010
00000100
00001000
00000020
00000000
00010030
00002000
00000000
,
00103000
00020000
00000000
01030000
20000000
00000000
31000000
00010000
,
00100000
01000000
00010000
00002000
00000000
00003010
00000200
00000000
,
00010300
00000020
00000000
00000230
00000000
00000301
00000010
00000000
,
00000100
00010000
00001000
00000010
00001000
00010000
01000000
00000000
,
00100000
00001000
00010000
00100000
00010000
00001000
00100000
00000000
,
01000000
10000000
00100000
00010000
00100000
10000000
01000000
00000000
,
00010000
00001000
00000010
00000100
00000010
00001000
00010000
00000000
,
00000100
00000001
00000100
00000001
00001000
00000010
00001000
00010000
,
00100000
00010000
10000000
01000000
10000000
01000000
00010000
00100000
,
01000000
00010000
00001000
00000010
00001000
00010000
00100000
00010000
,
00001000
00000200
00000000
00000302
00000000
00000013
00001000
00020000
,
00000000
01000000
01000000
01000000
00000000
00031000
00100000
02000000
,
00000000
03000000
10000000
00200000
00000000
00320000
00000000
00032000
,
00000000
00000000
00000000
00000000
00003100
00000000
00000010
00000000
00000100
00000000
00000001
00000100
00000001
00000000
00000010
00000000
,
00001001
00000000
00000000
00000000
00001000
00000000
00000000
00000100
00000010
00000000
00001000
00000000
00000010
00000000
00000002
00000000
,
00000000
00000000
00000103
00000000
00000010
00000000
00001000
00000010
00001000
00000000
00000100
00000000
00000000
00000000
00011000
00000000
,
00000000
00000000
01000000
00000000
00100000
10000000
00200000
00000000
00000000
00000000
01300000
00000000
00010000
00000000
10000000
00000000
,
00000000
00000000
00000000
00000000
01000000
00000000
00000000
00000000
00100000
00000000
00000000
00000000
00010000
00000000
00000000
00000000
00000000
00000000
01000000
00000000
00000000
00000000
00000000
00000000
00000000
00000000
00000000
00000000
00000000
00000000
00001000
00000000
00000000
00000000
00000000
00000000
00000000
00000000
00000000
00000000
00000000
00000000
00010000
00000000
00000000
00000100
00000000
00000000
,
00020000
00000000
00000000
00000000
00031000
00000000
00000010
00000000
00000000
00000000
00000110
00000000
00000000
00000000
00000001
00001000
,
00000001
00000000
00000101
00000000
00001100
00000000
00010000
00001000
,
00011000
00000000
00010000
00100000
00010000
00001000
00010000
00100000
,
01000000
00000000
00010000
00000000
00100000
00000000
10000000
00000000
00010000
00000000
01000000
00000000
10000000
00000000
00000000
00010000
,
00200000
00000000
00000000
00000000
00000000
00000000
00301000
00000000
00010000
00000000
00001000
00000000
00010000
00000000
00000000
00000010
00000000
00000000
00000000
00000000
00000000
00001010
00000000
00000000
,
00000000
00000000
00001000
00000000
00000100
00000000
00001000
00000000
00000001
00000000
00000100
00000000
00000001
00000000
00000000
00000010
00000000
00000000
00000000
00000000
00000000
00001000
00000000
00000000
,
00010000
00000000
01000000
00000000
01000000
00000000
10000000
00000000
01000000
00000000
01000000
00000000
00010000
00000000
00000000
00010000
,
00001000
00000000
00000100
00000000
00000100
00000000
00000001
00000000
00000100
00000000
00000100
00000000
00001000
00000000
00000000
00001000
,
00010000
00100000
00100000
10000000
01000000
01000000
00010000
00000000
,
00001000
00000010
00001000
00000010
00000100
00000010
00000100
00000010
00000001
00002000
00000000
00000000
,
00003010
00000100
00001000
00010000
00000000
00100000
00010000
00000000
,
00100000
10000000
01000000
20000000
00000000
31000000
00020000
00000000
,
00031000
00100000
00001000
00010000
00000000
00001000
00000010
00000000
,
00000200
00000000
00001300
00000002
00000000
00000103
00000020
00000000
,
00000130
00001000
00000100
00001000
00010000
00100000
01000000
00100000
,
10000000
01000000
00100000
01000000
00010000
00001000
00000010
00000100
,
00010000
00000010
00001000
00000100
00000010
00001000
00010000
00200000
,
00000000
00000000
00000000
00000000
,
00300000
00000000
00000000
00000000
;
