#VERSION:0.83;
#TITLE:Red. by Jack Trance;
#SUBTITLE:;
#ARTIST:DJ Mass MAD Izm*;
#TITLETRANSLIT:;
#SUBTITLETRANSLIT:;
#ARTISTTRANSLIT:;
#GENRE:TECH-BREAKS;
#CREDIT:;
#MUSIC:Red. by Jack Trance.ogg;
#BANNER:Red. by Jack Trance.png;
#BACKGROUND:Red. by Jack Trance-bg.png;
#CDTITLE:./CDTitles/bm IIDX 26 Rootage.png;
#SAMPLESTART:99.970;
#SAMPLELENGTH:15.000;
#SELECTABLE:YES;
#OFFSET:0.507;
#BPMS:0.000=160.000
,167.000=40.000
,168.000=160.000
;
#STOPS:;
#TIMESIGNATURES:0.000=4=4,
164.000=5=4,
169.000=4=4
;
#DISPLAYBPM:160.000;
#BGCHANGES:0.000=../BGAs/26he.mp4=1.000=0=0=0=StretchNoLoop====,
99999.000=-nosongbg-=1.000=0=0=0=StretchNoLoop====
;
#FGCHANGES:;

//--------------- dance-single - forcednature ----------------
#NOTEDATA:;
#STEPSTYPE:dance-single;
#DESCRIPTION:forcednature;
#DIFFICULTY:Beginner;
#METER:5;
#RADARVALUES:0,0,0,0,0;
#CREDIT:forcednature;
#NOTES:
0000
0000
0000
0000
,
0000
0000
0000
0000
,
0000
0000
0000
0000
,
1000
0000
0100
0000
,
1000
1000
1000
0000
,
0001
0000
0100
0000
,
0001
0001
0001
0000
,
1001
0000
0000
0000
,
1000
0000
0010
0000
,
1000
0000
0000
0000
,
1000
0000
0100
0000
,
1000
0000
0000
0000
,
0001
0000
0010
0000
,
0001
0000
0000
0000
,
0001
0000
0100
0000
,
0010
0010
0000
0000
,
0010
0010
0000
0000
,
1000
0000
0001
0000
,
0100
0000
0110
0000
,
1001
0000
0000
0001
,
0010
0000
0000
0001
,
1000
0000
0000
0001
,
0100
0000
0001
1000
,
0000
0000
0000
1000
,
0100
0000
0000
1000
,
0001
0000
0000
1000
,
0010
0000
0100
0000
,
0110
0000
0000
0000
0000
1001
0000
0000
,
1000
1000
0000
1000
,
0000
1000
0100
0000
,
0010
0010
0000
0001
,
0010
0000
0001
0000
,
0100
0100
0000
0001
,
0100
0000
0001
0000
,
1000
1000
0000
0001
,
1000
0000
0000
0020
0000
0000
0000
0000
,
0130
0100
0001
0000
,
0010
0010
0001
1001
,
0000
1000
0100
0000
,
1000
1000
0010
1001
,
0000
0110
0000
1001
,
0000
0100
0010
0220
,
0330
1001
0000
0000
,
0000
1000
1000
0100
,
0000
1001
0000
0000
,
0000
0001
0001
0100
,
0000
1001
0000
0000
,
0000
0110
0000
0000
,
0000
1001
0000
0000
,
0000
0001
0001
0010
,
0000
0100
0000
0110
,
0000
1000
0000
1001
,
0000
0010
0000
0110
,
0000
0001
0000
1001
,
0000
1000
0000
0110
,
0000
0001
0000
1001
,
0000
0010
0000
0110
,
0000
0100
0000
1001
,
0000
1000
1000
0100
,
0000
1000
1000
0010
,
0000
1000
1000
0001
,
0000
1000
1000
0010
,
0000
0100
0000
0001
,
0100
0001
0000
0010
,
0001
0010
0000
0010
,
0000
0000
0100
0000
0100
0000
0000
1001
,
0000
1000
0010
0100
,
0010
1000
0000
0001
,
1000
0001
0010
0100
,
0010
0000
0001
0000
0001
0000
0000
1001
,
0000
1000
0010
0100
,
0010
1000
0000
0001
,
1000
0001
0010
0100
,
0010
0001
0000
1000
,
0001
0100
0000
0010
,
0010
0000
1000
0000
0001
0000
0000
1001
,
0000
1000
0100
0010
,
0010
0001
0100
0010
,
0000
1001
0000
0000
0000
0000
0000
0000
;

//--------------- dance-single - forcednature ----------------
#NOTEDATA:;
#STEPSTYPE:dance-single;
#DESCRIPTION:forcednature;
#DIFFICULTY:Easy;
#METER:9;
#RADARVALUES:0,0,0,0,0;
#CREDIT:forcednature;
#NOTES:
0000
0000
0000
0000
,
0000
0000
0000
0000
,
0000
0000
0000
0000
,
1000
0100
1000
0100
,
0010
0001
1000
0000
,
0001
0001
0100
0100
,
0001
1000
0010
0110
,
0000
1000
0100
0001
,
0100
0100
1000
0001
,
0010
0010
1000
0010
,
0001
0001
1000
0001
,
0010
1000
0010
0001
,
1000
0100
0001
0100
,
1100
1000
0001
0010
,
1000
0010
0001
1000
,
0020
0100
0030
0100
,
0002
1000
0003
1000
,
0001
0000
0000
0001
0000
0000
0001
0000
0010
0000
0000
0010
0000
0000
0010
0000
,
0100
0000
0000
0100
0000
0000
0100
0000
1000
0000
0000
0001
0000
0000
1000
0000
,
0000
0000
0010
0000
0100
0010
0100
0000
,
0001
0000
1000
0000
0001
1000
0001
0000
,
0010
0000
0100
0000
0010
0100
0010
0000
,
0100
0000
1000
0000
0100
1000
0100
0000
,
0000
0000
1000
0000
0010
1000
0010
0000
,
0100
0000
0010
0000
0100
0001
0100
0000
,
0001
0000
1000
0000
0001
1000
0001
0000
,
0010
0000
0000
0010
0000
0000
0010
0000
0100
0000
0000
0100
0000
0000
0100
0000
,
1000
0000
0000
0001
0000
0000
0010
0000
0000
0000
2002
0000
0000
0000
3003
0000
,
1000
0000
1000
0000
0010
1000
0010
0000
,
0100
0010
0100
0000
0001
0000
0010
0000
,
0001
0000
1000
0001
1000
0000
0100
0000
,
1000
0010
1000
0000
0001
0100
0001
0000
,
0010
0000
0001
0010
0001
0000
1000
0000
,
0100
0010
0100
0000
0010
0000
0001
0000
,
1000
0010
1000
0000
0001
0010
0001
0000
,
0100
0000
0100
0020
0000
0000
0030
0000
,
1001
1000
0100
0001
,
0100
1000
0001
0000
0010
0000
0110
0000
,
0001
0100
1000
0100
,
0001
1000
0010
0000
0100
0000
1001
0000
,
0100
0110
0010
1001
,
1000
0000
0100
0000
0010
0100
0020
0000
,
0030
1001
0001
0100
,
0010
0000
0100
0010
0100
0000
0000
0000
,
0010
1000
0100
0001
,
0100
0000
1000
0100
1000
0000
0000
0000
,
0001
0000
0010
0100
0010
0000
0100
0000
,
1000
0000
0001
0100
0001
0000
0100
0000
,
0010
0000
1000
0001
1000
0000
0100
0000
,
0010
1001
1000
0010
,
0200
0000
0301
0000
0001
0001
0001
0000
,
0010
0000
0100
0000
1000
1000
1000
0000
,
0010
0000
0100
0000
0001
0001
0001
0000
,
0010
0000
0100
0000
1000
1000
1000
0000
,
0010
0000
1000
0000
0001
0001
0001
0000
,
0100
0000
0010
0000
1000
1000
1000
0000
,
0001
0000
0010
0000
0100
0100
0100
0000
,
0010
0000
0001
0000
1000
1000
1000
0000
,
0010
0000
0100
0000
0001
0001
0001
0000
,
0010
0000
0001
0000
1000
1000
1000
0000
,
0100
0000
1000
0000
0010
0010
0010
0000
,
0100
0000
0001
0000
0010
0010
0010
0000
,
0100
0110
0001
0100
,
0010
0110
1000
0100
,
0010
0000
0100
1000
0100
0000
0010
0001
,
0010
0000
0001
1000
0001
0000
0000
2002
,
0000
3003
1000
0100
1000
0000
0010
0000
,
0100
0000
0000
0000
0001
0000
0000
0000
0010
0000
0000
0000
0100
0000
0000
0100
,
0000
1000
0100
1000
0100
0000
0010
0000
,
0001
0000
1000
0000
1000
0010
0000
0220
,
0000
0330
0001
0100
0001
0000
1000
0000
,
0010
0000
0000
0000
1000
0000
0001
0000
1000
0000
0000
0000
0100
0000
0000
0100
,
0000
0010
0001
0010
0001
0000
1000
0000
,
0010
0000
0000
0000
0100
0000
0001
0000
0100
0000
0000
0000
0010
0000
0000
0010
,
0000
0000
1000
0000
0001
0000
1000
0000
0001
0000
0000
0000
0100
0000
0000
0100
,
0000
0010
1000
0000
1000
0001
0000
2002
,
0000
0000
3003
0000
1000
0000
0100
0000
1000
0000
0000
0000
0001
0000
0000
0001
,
0000
0000
0010
0000
0100
0000
0010
0000
0100
0000
0000
0000
1000
0000
0000
0001
,
0000
1001
0000
0000
0000
0000
0000
0000
;

//--------------- dance-single - forcednature ----------------
#NOTEDATA:;
#STEPSTYPE:dance-single;
#DESCRIPTION:forcednature;
#DIFFICULTY:Medium;
#METER:12;
#RADARVALUES:0,0,0,0,0;
#CREDIT:forcednature;
#NOTES:
0000
0000
0000
0000
,
0000
0000
0000
0000
,
0000
0000
0000
0000
,
1000
0100
1000
0010
,
0100
0000
0000
0000
0001
0000
0000
0000
0010
0000
0000
0001
1000
0000
0000
0000
,
0001
0100
0001
0000
0001
0010
0001
0000
,
1000
0100
1000
0010
0100
0001
0010
0000
,
0100
1000
0001
1000
0100
0010
0100
0000
,
0010
0001
0100
0001
1000
0001
0100
0000
,
0010
1000
0001
0010
0001
1000
0010
0000
,
0100
0100
0100
0001
1000
0010
1000
0000
,
0001
0010
0100
0010
0001
1000
0100
0000
,
1000
0010
0100
0010
1000
0001
0100
0000
,
0001
0010
1000
0010
0001
1000
0100
0000
,
1000
0010
0001
0010
1000
0001
0100
0000
,
0010
0000
0000
0010
0100
0000
0000
0000
0001
0000
1000
0000
0100
0000
0000
0000
,
0010
0000
0000
0010
0100
0000
0000
0000
1000
0000
0001
0000
0100
0000
0000
0000
,
0020
0000
0000
1000
0000
0000
1030
0000
2000
0000
0000
0100
0000
0000
3100
0000
,
0200
0000
0000
0010
0000
0000
0310
0000
0110
0000
0000
0110
0000
0000
1001
0000
,
0000
1000
0100
0001
0100
1000
0001
0010
,
0000
0001
0100
1000
0100
0001
1000
0010
,
0000
1000
0001
0010
1000
0010
0001
1000
,
0000
0001
1000
0010
0001
0010
1000
0001
,
0000
0100
1000
0100
0001
1000
0010
1000
,
0000
0100
0001
0100
1000
0001
0010
0001
,
0000
0100
1000
0100
0001
0010
1000
0000
,
0010
0000
0000
0010
0000
0000
0001
0000
0100
0000
0000
0100
0000
0000
0010
0000
,
1000
0000
0000
1000
0100
0000
0010
0000
0000
0000
2002
0000
0000
0000
3003
0000
,
1000
0010
0100
0010
0000
0010
0001
0010
,
1000
0000
0000
0100
1000
0000
0001
0000
0010
0000
0100
0000
0010
0000
0000
0000
,
0001
0100
0010
0100
0000
0100
1000
0100
,
0001
0000
0000
0001
1000
0000
0100
0000
1000
0000
0001
0000
0010
0000
0000
0000
,
0100
1000
0010
1000
0001
1000
0010
0000
,
0100
0001
0010
0001
1000
0001
0010
0000
,
0100
1000
0010
0100
0001
0010
0100
1000
,
0010
0100
0220
0000
0000
0000
0330
0000
,
2001
0000
3100
0001
0100
1000
0001
1000
,
0010
0001
0010
1000
0001
0100
0020
0000
,
0130
1000
0100
0001
1000
0010
1000
0001
,
0010
1000
0010
0001
1000
0100
0020
0000
,
0031
0100
2000
0000
3001
0010
2000
0000
,
3001
0000
0100
0000
0010
0000
1000
0000
0001
1000
0001
0000
0020
0000
0000
0000
,
0030
0000
1001
0000
1000
0100
0010
0000
,
0110
0000
0100
1000
1000
0010
0100
0001
,
0010
0000
0110
0000
0001
0100
0010
0000
,
1001
0000
0001
0001
0100
0001
1000
0010
,
0100
0000
0110
0000
0001
0010
1000
0010
,
0001
0000
0110
0000
1000
0010
0001
0010
,
1000
0000
0110
0000
0001
0100
1000
0100
,
0001
0000
1000
1000
0010
0100
0001
0010
,
0200
0000
0310
0001
0100
0100
0001
1000
,
0010
0000
1000
0100
0100
1000
1000
0001
,
0010
0000
0100
0010
0010
0001
0001
1000
,
0010
0000
0100
0100
0001
0001
1000
0010
,
0100
0000
0001
1000
1000
0100
1000
0001
,
0001
0000
0010
0100
0100
0010
0001
1000
,
0010
0000
0100
0001
0001
1000
1000
0010
,
0100
0000
0001
0001
1000
1000
0100
1000
,
0010
0000
0110
0000
0001
0100
1000
0100
,
0001
0000
0110
0000
1000
0100
0001
0100
,
1000
0000
0110
0000
0001
0001
0010
1000
,
1000
0010
0001
0001
1000
0100
0100
0010
,
0001
0000
1001
0000
1100
0000
0001
0010
,
0100
0000
1001
0000
0101
0000
1000
0010
,
0100
0000
0001
1000
0100
1000
0010
1000
,
0100
1000
0001
0001
0010
0100
0000
2002
,
0000
3003
1000
0010
0100
0010
0001
0010
,
2000
0000
0000
0000
3001
0000
0100
0000
1000
0000
0000
0000
0100
0000
0000
0110
,
0000
1000
0001
0010
0100
0010
1000
0010
,
0002
0000
1003
0100
0001
0100
0000
2002
,
0000
3003
1000
0001
0100
1000
0100
0001
,
2000
0000
0000
0000
3010
0000
0100
0000
0001
0000
0010
0000
0100
0000
0000
0110
,
0000
1000
0001
0100
1000
0100
0001
1000
,
0020
0000
0000
0000
1030
0000
0100
0000
0001
0000
0100
0000
1000
0000
0000
0010
,
0000
0000
0110
0000
0001
0000
1000
0000
0100
0000
0001
0000
0100
0000
0000
0110
,
0000
1000
0010
0100
0001
0001
0000
0022
,
0000
0000
0033
0000
1000
0000
0100
0000
0001
0000
0100
0000
1000
0000
0000
0011
,
0000
0000
0010
0000
0001
0000
0100
0000
1000
0000
0100
0000
0001
0000
0000
1001
,
0000
0110
0000
0000
0000
0000
0000
0000
;

//--------------- dance-single - forcednature ----------------
#NOTEDATA:;
#STEPSTYPE:dance-single;
#DESCRIPTION:forcednature;
#DIFFICULTY:Hard;
#METER:14;
#RADARVALUES:0,0,0,0,0;
#CREDIT:forcednature;
#NOTES:
0000
0000
0000
0000
,
0000
0000
0000
0000
,
0000
0000
0000
0000
,
1001
0000
1000
0100
0010
0000
0010
0001
,
1000
0000
1000
0010
0100
0001
0010
0000
,
0001
0100
0001
0000
0001
1000
0010
0000
,
0100
0000
0001
0100
0001
0000
1000
0001
1000
0000
0010
0000
0200
0000
0000
0000
,
0301
0010
0100
0010
0001
1000
0100
0100
,
0001
0100
1000
0001
0010
0100
0110
0000
,
1000
0010
0001
0010
1000
0001
0100
0100
,
0001
1000
0001
1000
0001
0000
0010
0000
0001
0000
0100
0000
0110
0000
0000
0000
,
1000
0000
0100
0000
1000
0001
1000
0000
0001
0000
0010
0000
0100
0000
0000
0000
,
0010
0001
0000
0010
0001
0000
1000
0000
0100
0000
0100
0000
1000
0000
0000
0000
,
0010
0000
0100
0000
0001
0100
0001
0000
1000
0000
0010
0000
1000
0000
0010
0000
,
0100
0000
0010
0000
0100
0001
0100
0000
0010
0000
1000
0000
1001
0000
0000
0000
,
0001
0010
0000
0100
0020
0000
0000
0000
0031
0000
1000
0000
0100
0000
0000
0000
,
1000
0010
0000
0100
0020
0000
0000
0000
1030
0000
0001
0000
0100
0000
0000
0000
,
0110
0000
0000
0110
0000
0000
1000
0000
1100
0000
0000
1100
0000
0000
0001
0000
,
0011
0000
0000
0011
0000
0000
1000
0000
1001
0000
0000
0110
0000
0000
1001
0000
,
0000
0000
0001
0000
0010
0100
0000
1000
0000
0000
0001
0000
0001
0000
0100
0000
,
0010
0000
1000
0000
0001
0010
0000
0001
0000
0000
0100
0000
0100
0000
0010
0000
,
1000
0000
0100
0000
1000
0001
0000
0010
0000
0000
0100
0000
0100
0000
1000
0000
,
0001
0000
0100
0000
0010
1000
0000
0001
0100
0000
0100
0000
0010
0000
0100
0000
,
0000
0000
0001
1000
0001
0000
1000
0000
0100
0000
1000
0000
0001
0000
0000
0000
,
0010
0100
0000
0100
0010
0000
0001
0000
0100
0000
0001
0000
1000
0000
0000
0000
,
0100
0000
1000
0000
0010
0100
0000
0001
0000
0000
0010
0001
0010
0000
0000
0000
,
0110
0000
0000
0110
0000
0000
1000
0000
1010
0000
0000
1010
0000
0000
0001
0000
,
0101
0000
0000
0001
1000
0000
0010
0000
0000
0000
2002
0000
0000
0000
3003
0000
,
1000
0000
0100
0000
0001
0000
0100
0000
0000
0000
0100
0000
1000
0000
0100
0010
,
0100
0000
0010
0001
0000
0001
1000
0000
0010
0000
0100
0000
0001
0100
0001
0000
,
1000
0000
1000
0010
0001
0010
1000
0001
,
0100
0000
0010
0100
0010
0000
1000
0000
0001
0000
0010
0001
1000
0000
0100
0000
,
1000
0000
0010
1000
0010
0000
0100
0010
0100
0000
0001
0010
0000
0010
0001
0000
,
1000
0000
0100
0000
0001
0000
0100
1000
0000
0100
0010
0000
0010
0000
0001
0000
,
0100
0000
0010
0100
0010
0000
1000
0000
0100
0000
0010
0100
0010
0000
0001
0000
,
1000
0010
1001
0220
0000
0000
0330
0000
,
0001
0000
1000
0000
0100
0010
0001
0000
1000
0000
0001
0010
0100
0000
0010
0000
,
0001
1000
0100
0000
1000
0001
0010
0000
0100
0000
0010
0000
1001
0000
0000
0000
,
0001
0000
0100
0000
0010
1000
0001
0000
0100
0000
0001
1000
0010
0000
0100
0010
,
1000
0000
0010
0000
0100
0001
1000
0000
0010
0000
0100
0000
1002
0000
0000
0000
,
0103
0010
2010
0000
3100
0010
0012
0000
,
1003
0000
0010
0000
0100
0010
0100
0000
0001
1000
0010
0000
2002
0000
0000
0000
,
3003
0000
0110
0000
1000
0100
0001
0100
,
1000
0000
0000
0000
0001
0010
0002
0000
0000
0000
0103
0000
0010
0000
1000
0000
,
0001
0000
0110
0000
0001
0100
1000
0100
,
0001
0000
0000
0000
1000
0010
2000
0000
0000
0000
3001
0000
0010
0000
0100
0000
,
1000
0000
0000
0000
0001
0100
0000
0010
0200
0000
0000
0000
0301
0000
1000
0000
,
0010
0000
0000
0000
1000
0100
0000
0010
0200
0000
0000
0000
1300
0000
0001
0000
,
0010
0000
0000
0000
0001
1000
0001
1000
0002
0000
0000
0000
0103
0000
0010
0000
,
1000
0000
0000
0000
0001
0000
0010
0000
0100
0010
0100
0000
1000
0000
0001
0000
,
0200
0000
0000
0000
0310
0000
1000
0010
1000
0000
0100
0000
1000
0000
0100
1000
,
0100
0000
0000
0000
0010
0000
0001
0010
0001
0000
0100
0000
0001
0000
0100
0001
,
0100
0000
0000
0000
0010
0000
1000
0000
0001
1000
0001
0000
0010
0000
0001
0000
,
1000
0000
0000
0000
0100
0000
0010
0100
0010
0000
0001
0000
0100
0000
0010
0000
,
1000
0000
0001
0000
0000
0000
0010
0000
0001
0010
0001
0000
0100
0000
0010
0100
,
0010
0000
0000
0000
1000
0100
1000
0000
0100
0000
1000
0000
0001
0000
0010
0000
,
0100
0000
0000
0000
0010
0001
0010
0000
0001
0000
1000
0000
0010
0000
0100
0001
,
0100
0000
0000
0000
0010
0000
1000
0100
0000
1000
0100
0000
1000
0000
0001
0000
,
0010
0000
0100
0000
0000
0000
0010
0001
0010
0000
0001
0100
0001
0000
1000
0000
,
0010
0000
0000
0000
0110
0000
0000
0001
1000
0000
0100
1000
0100
0000
0010
0000
,
0001
0000
0000
0000
0100
0000
0001
0100
0001
0000
0100
0000
0010
0000
0100
0010
,
1000
0000
0000
0000
0100
0000
1000
0100
1000
0000
0001
0000
0010
0000
0100
0000
,
1000
0000
0001
0000
1001
0000
0000
0000
1100
0000
0000
0001
0010
0000
0100
0010
,
0100
0000
1000
0000
1001
0000
0000
0000
0101
0000
0000
1000
0010
0000
0100
0010
,
0100
0000
0001
0000
0010
0000
0010
0001
0010
0000
0001
0000
0100
0000
0100
0010
,
0100
0000
0010
0000
1000
0100
1000
0000
0100
1000
0100
0000
0010
0000
2002
0000
,
0000
3003
1000
0100
0001
0100
0010
0100
,
0001
0000
0100
0000
1000
0001
0010
0001
0010
0000
0100
0000
1100
0000
0000
0011
,
0000
1000
0001
0100
1000
0100
0010
0100
,
1000
0000
0100
0000
0001
0000
1000
0010
0100
0010
0100
0010
0000
0000
2002
0000
,
0000
3003
0001
0010
1000
0010
0100
0010
,
1000
0000
0010
0000
0001
1000
0100
1000
0100
0000
1000
0000
1010
0000
0000
0101
,
0000
0001
1000
0010
0001
0010
0100
0010
,
0001
0000
0010
0000
1000
0000
0001
1000
0001
0000
0100
0000
0110
0000
0000
1010
,
0000
0000
0001
0000
0010
0000
0100
0010
0100
0000
1000
0000
1100
0000
0000
1100
,
0000
0000
0001
0000
0100
0000
0010
0100
0010
1000
0010
1000
0000
0000
2002
0000
,
0000
0000
3003
0000
0001
0000
0010
0100
0010
0000
0001
0000
0101
0000
0000
0110
,
0000
0000
0001
0000
1000
0000
0010
0100
0010
0000
1000
0000
1100
0000
0000
0011
,
0000
1001
0000
0000
0000
0000
0000
0000
;

//--------------- dance-single - forcednature ----------------
#NOTEDATA:;
#STEPSTYPE:dance-single;
#DESCRIPTION:forcednature;
#DIFFICULTY:Challenge;
#METER:17;
#RADARVALUES:0,0,0,0,0;
#CREDIT:forcednature;
#NOTES:
0000
0000
0000
0000
,
0000
0000
0000
0000
,
0000
0000
0000
0000
,
0001
0100
0001
0000
0001
1000
0010
0000
,
1000
0000
0100
0000
1000
0000
0000
0000
1000
0001
0010
0001
1000
0000
0000
0000
,
0001
0100
0010
0100
0001
1000
0010
1000
,
0001
0010
0001
0010
0100
1000
0100
1000
0001
0010
0100
1000
0020
0000
0000
0000
,
1030
0000
0100
0000
0001
0000
0100
0000
1000
0000
0001
0000
0010
0100
0000
0100
,
0010
0000
0001
0000
1000
0001
1000
0000
0010
0000
0100
0010
0100
0000
0001
0000
,
1000
0000
0100
0000
0001
0000
0100
0000
1000
0000
0001
0000
0010
0001
0010
0000
,
0001
1000
0010
0100
0001
0000
1000
0000
1000
0000
0010
0000
0001
0000
0010
0000
,
1000
0000
0001
0000
0100
0001
0100
0000
0010
0000
1000
0100
0010
0000
0100
0000
,
0010
0001
0000
0001
1000
0000
0100
0000
1000
0001
1000
0000
0010
0000
0100
0000
,
0001
0000
0010
0000
0100
0010
0100
0000
1000
0000
0001
0000
0010
0000
0001
0000
,
1000
0010
0100
0000
0001
0100
0010
0000
1000
0000
0001
0000
1001
0000
0000
0000
,
1000
0100
0010
0100
1000
0000
0001
0000
0010
0000
0001
1000
0000
0010
1000
0000
,
0001
0100
0010
0100
0001
0000
1000
0000
0010
0000
1000
0001
0000
0010
0001
0000
,
0100
0000
0100
0010
0000
1000
0010
1000
0100
0000
0100
0010
0000
0001
0010
0001
,
0100
0000
0100
0010
0000
1000
0010
1000
0100
0000
0000
0110
0000
0000
1001
0000
,
0001
0000
0010
0000
0001
0100
0000
1000
0000
0000
0100
0001
0100
0000
0001
0000
,
1000
0000
0010
0000
1000
0100
0000
0001
0000
0100
1000
0100
1000
0000
0001
0000
,
0010
0000
0100
0000
0001
0100
0000
1000
0000
0001
0010
0001
0010
0000
0001
0000
,
1000
0000
0010
0000
1000
0100
0000
0001
0100
0000
1000
0001
0010
0000
0100
0000
,
0000
0000
0010
0001
0100
0000
0010
1000
0100
0000
1000
0001
0020
0000
0000
0000
,
0031
0100
1000
0100
0001
0000
1000
0000
0010
0000
0100
0000
0002
0000
0000
0000
,
1003
0000
0010
0000
1000
0100
0000
0001
0000
0100
1000
0100
0020
0000
0000
0000
,
0130
0000
0100
1000
0000
0001
0010
0001
0100
0000
0100
0001
0000
1000
0010
1000
,
0100
0000
0100
1000
0001
0010
0001
1000
0000
0000
2002
0000
0000
0000
3003
0000
,
0001
0000
0100
0000
1000
0000
0100
0000
0000
0000
0100
0000
1000
0000
0100
0001
,
1000
0000
0010
1000
0001
0000
0100
0000
0010
0100
0001
0100
0010
0000
1000
0000
,
0100
0000
0000
0000
0100
0000
0001
0000
0100
1000
0001
0000
0010
0000
0100
0000
,
0010
0001
1000
0001
0000
0000
0100
0000
0010
1000
0001
0100
0010
0000
1000
0000
,
0001
0000
0010
0100
1000
0000
0010
0100
0001
0000
0010
0001
0100
0000
0010
1000
,
0100
0000
0010
0100
1000
0000
0001
0100
0000
0001
1000
0100
1000
0000
1000
0000
,
0100
0001
0100
1000
0001
0000
0001
0000
0100
0000
0010
1000
0001
0000
0010
0000
,
0001
0000
0001
0000
0100
0000
0001
0010
0100
1000
0001
0010
0100
1000
0001
0010
,
0002
0000
0000
0000
1003
0100
0001
0000
0100
1000
0001
0010
0100
0000
0001
0100
,
1000
0001
0010
0000
0001
1000
0100
0001
0100
0000
1000
0010
0002
0000
0000
0000
,
0013
0000
1000
0000
0001
0100
1000
0000
0100
0001
1000
0010
0001
0000
0010
1000
,
0001
0000
0100
1000
0100
0001
0100
0000
0010
1000
0100
0000
0002
0000
0000
0000
,
1003
0010
0001
0100
2000
0000
0000
0000
3001
0010
1000
0100
0002
0000
0000
0000
,
0103
1000
0100
1000
0010
0100
0001
0010
0100
1000
0010
0000
0220
0000
0000
0000
,
0330
0000
1001
0000
0001
1000
0001
0010
,
0100
0000
0010
0000
0001
1000
0200
0000
0000
0000
0301
0000
0100
0000
1000
0000
,
0001
0000
0000
0000
0100
0010
1000
0010
0200
0000
0000
0000
0301
0000
1000
0000
,
0010
0000
0100
0000
0010
1000
0002
0000
0000
0000
1003
0000
0100
0000
0001
0000
,
0100
0000
1000
0000
0001
0100
0010
0100
0002
0000
0000
0000
1003
0000
0010
0000
,
0100
0000
0001
0000
1000
0100
0010
0100
2000
0000
0000
0000
3001
0000
0010
0000
,
0001
0000
1000
0000
0010
0100
0010
1000
0002
0000
0000
0000
0103
0000
0001
0000
,
0010
0000
0100
0000
0110
0000
1000
0000
0100
1000
0100
0010
0001
0000
0100
0000
,
0020
0000
0000
0000
0000
0000
0000
0000
0000
0000
0000
0000
0000
0000
0000
0000
1030
0000
0000
0000
0000
0000
0000
0000
0200
0300
0000
0000
0200
0300
0000
0000
0001
0000
0000
0000
0000
0000
0000
0000
0010
0000
0000
0000
0000
0000
0000
0000
0011
0000
0000
0000
0000
0000
0000
0000
0000
0000
0000
0000
0001
0000
0000
0000
,
1000
0000
0000
0000
0000
0000
0000
0000
0010
0000
0000
0000
0000
0000
0000
0000
0110
0000
0000
0000
0000
0000
0000
0000
0001
0000
0000
0000
1000
0000
0000
0000
0001
0000
0000
0000
0000
0000
0000
0000
0200
0300
0000
0000
0200
0300
0000
0000
1000
0000
0000
0000
0000
0000
0000
0000
0010
0000
0000
0000
0000
0000
0000
0000
,
0200
0000
0000
0000
0000
0000
0000
0000
0000
0000
0000
0000
0000
0000
0000
0000
0301
0000
0000
0000
1000
0000
0000
0000
0100
0000
0000
0000
0000
0000
0000
0000
1000
0000
0000
0000
0000
0000
0000
0000
0020
0030
0000
0000
0020
0030
0000
0000
0001
0000
0000
0000
0000
0000
0000
0000
0010
0000
0000
0000
0100
0000
0000
0000
,
2000
0000
0000
0000
0000
0000
0000
0000
0000
0000
0000
0000
0000
0000
0000
0000
3001
0000
0000
0000
0100
0000
0000
0000
0010
0000
0000
0000
0000
0000
0000
0000
1000
0000
0000
0000
0000
0000
0000
0000
0200
0300
0000
0000
0200
0300
0000
0000
0001
0000
0000
0000
0000
0000
0000
0000
0200
0300
0000
0000
0200
0300
0000
0000
,
1000
0000
0000
0000
0000
0000
0000
0000
0010
0000
0000
0000
0000
0000
0000
0000
0110
0000
0000
0000
0000
0000
0000
0000
0000
0000
0000
0000
0001
0000
0000
0000
0010
0000
0000
0000
0001
0000
0000
0000
0200
0300
0000
0000
0200
0300
0000
0000
1000
0000
0000
0000
0000
0000
0000
0000
0010
0000
0000
0000
0100
0000
0000
0000
,
0002
0000
0000
0000
0000
0000
0000
0000
0000
0000
0000
0000
0000
0000
0000
0000
1003
0000
0000
0000
0100
0000
0000
0000
0010
0000
0000
0000
0100
0000
0000
0000
1000
0000
0000
0000
0000
0000
0000
0000
0020
0030
0000
0000
0020
0030
0000
0000
0001
0000
0000
0000
0000
0000
0000
0000
0100
0000
0000
0000
0000
0000
0000
0000
,
0110
0000
0000
0000
0000
0000
0000
0000
0000
0000
0000
0000
0000
0000
0000
0000
0001
0000
0000
0000
0010
0000
0000
0000
0001
0000
0000
0000
1000
0000
0000
0000
0200
0300
0000
0000
0200
0300
0000
0000
0001
0000
0000
0000
0000
0000
0000
0000
0010
0000
0000
0000
0000
0000
0000
0000
0100
0000
0000
0000
0000
0000
0000
0000
,
1001
0000
0000
0000
0000
0000
0000
0000
0000
0000
0000
0000
0000
0000
0000
0000
1000
0000
0000
0000
0020
0030
0000
0000
0020
0030
0000
0000
0001
0000
0000
0000
0020
0030
0000
0000
0020
0030
0000
0000
2000
0000
0000
0000
0000
0000
0000
0000
0100
0000
0000
0000
0000
0000
0000
0000
3200
0000
0000
0000
0000
0000
0000
0000
,
0010
0000
0000
0000
0000
0000
0000
0000
0310
0000
0000
0000
0000
0000
0000
0000
1001
0000
0000
0000
0000
0000
0000
0000
0001
0000
0000
0000
0200
0300
0000
0000
0200
0300
0000
0000
1000
0000
0000
0000
0001
0000
0000
0000
0010
0000
0000
0000
0100
0000
0000
0000
0000
0000
0000
0000
1000
0000
0000
0000
0000
0000
0000
0000
,
0010
0000
0000
0000
0000
0000
0000
0000
0000
0000
0000
0000
0000
0000
0000
0000
0110
0000
0000
0000
0000
0000
0000
0000
0001
0000
0000
0000
1000
0000
0000
0000
0020
0030
0000
0000
0020
0030
0000
0000
0001
0000
0000
0000
1000
0000
0000
0000
0100
0000
0000
0000
0000
0000
0000
0000
0010
0000
0000
0000
0000
0000
0000
0000
,
1001
0000
0000
0000
0000
0000
0000
0000
0000
0000
0000
0000
0000
0000
0000
0000
0001
0000
0000
0000
0100
0000
0000
0000
0001
0000
0000
0000
1000
0000
0000
0000
0200
0300
0000
0000
0200
0300
0000
0000
0001
0000
0000
0000
0010
0000
0000
0000
0100
0000
0000
0000
0000
0000
0000
0000
1000
0000
0000
0000
0000
0000
0000
0000
,
0110
0000
0000
0000
0000
0000
0000
0000
0000
0000
0000
0000
0000
0000
0000
0000
1000
0000
0000
0000
0200
0300
0000
0000
0200
0300
0000
0000
0001
0000
0000
0000
0200
0300
0000
0000
0200
0300
0000
0000
1000
0000
0000
0000
0010
0000
0000
0000
0200
0000
0000
0000
0000
0000
0000
0000
0001
0000
0000
0000
0000
0000
0000
0000
,
0001
0000
0310
0000
1001
0000
1000
0100
0010
0100
1000
0001
0010
0000
0001
0100
,
1000
0000
0100
0000
1001
0000
0001
0100
0010
0100
0001
1000
0010
0000
1000
0100
,
0001
0000
0100
0000
1000
0010
0100
0010
1000
0001
0100
0001
1000
0010
0100
0001
,
0010
0000
0100
0000
0010
0001
0010
0001
0100
0010
1000
0100
0010
0001
0200
0000
,
0000
0000
0000
0000
0301
1000
0010
0001
0010
0000
1000
0001
0100
0000
0010
0000
,
1010
0000
0001
0000
1000
0100
0001
0100
1000
0000
0001
0000
0011
0000
0000
0101
,
0000
0000
1010
0000
1000
0001
0010
1000
0010
0000
0001
1000
0100
0000
0010
0000
,
0011
0000
0000
0000
0000
0000
0000
0000
1000
0000
0000
0000
0000
0000
0000
0000
0010
0000
0000
0000
0100
0000
0000
0000
0001
0000
0000
0000
1000
0000
0000
0000
0200
0300
0000
0000
0200
0300
0000
0000
0001
0000
0000
0000
0010
0000
0000
0000
0000
0000
0000
0000
0100
0000
0000
0000
1000
0000
0000
0000
0010
0000
0000
0000
,
0100
0001
0010
0100
1000
0001
0100
1000
0100
0000
0001
1000
0010
0000
0100
0000
,
0101
0000
1000
0000
0001
0010
1000
0010
0001
0000
1000
0000
1010
0000
0000
1100
,
0000
0000
0011
0000
0001
1000
0100
0001
0100
0000
1000
0001
0010
0000
0100
0000
,
1100
0000
0001
0000
1000
0010
0001
0010
1000
0000
0001
0000
0101
0000
0000
0011
,
0000
0000
1100
0000
0001
0010
0100
0001
0100
0000
1000
0001
0010
0000
0000
0110
,
0000
0000
0000
0000
0000
0000
0000
0000
1001
0000
0000
0000
0000
0000
0000
0000
1000
0000
0000
0000
0100
0000
0000
0000
0010
0000
0000
0000
0001
0000
0000
0000
0200
0300
0000
0000
0200
0300
0000
0000
1000
0000
0000
0000
0001
0000
0000
0000
0000
0000
0000
0000
0100
0000
0000
0000
0010
0000
0000
0000
1000
0000
0000
0000
,
0010
0001
0010
1000
0001
0100
0010
1000
0001
0000
0010
0000
0110
0000
0000
1001
,
0000
0000
0110
0000
1000
0100
0001
0100
0010
0000
0011
0000
0101
0000
0000
0110
,
0000
1001
0000
0000
0000
0000
0000
0000
;

//--------------- dance-double - forcednature ----------------
#NOTEDATA:;
#STEPSTYPE:dance-double;
#DESCRIPTION:forcednature;
#DIFFICULTY:Easy;
#METER:8;
#RADARVALUES:0,0,0,0,0;
#CREDIT:forcednature;
#NOTES:
00000000
00000000
00000000
00000000
,
00000000
00000000
00000000
00000000
,
00000000
00000000
00000000
00000000
,
00010000
00001000
00010000
00001000
,
00100000
00010000
01000000
00000000
,
00001000
00010000
00001000
00010000
,
00000010
00001000
00000100
00000000
,
00000110
00000000
00000010
00000001
,
00000100
00000000
00000010
00001000
,
00000100
00000000
00010000
00001000
,
00100000
00100000
00010000
00000000
,
01000000
00000000
00100000
10000000
,
01000000
00000000
00100000
00001000
,
00010000
00000000
00010000
00000100
,
00001000
00000000
00000010
00000100
,
00000002
00000000
00000013
00000000
,
00000200
00000000
00001300
00000000
,
00010000
00000000
00000000
00010000
00000000
00000000
00010000
00000000
00001000
00000000
00000000
00001000
00000000
00000000
00001000
00000000
,
00100000
00000000
00000000
00100000
00000000
00000000
00100000
00000000
00010000
00000000
00000000
01000000
00000000
00000000
00010000
00000000
,
00000000
00000000
10000000
00000000
00100000
01000000
00100000
00000000
,
01000000
00010000
00100000
00000000
,
00001000
00000000
00010000
00000000
00000100
00001000
00000100
00000000
,
00000010
00000001
00001000
00000000
,
00000010
00000000
00001000
00000000
00000100
00001000
00000100
00000000
,
00010000
00001000
00100000
00000000
,
00010000
00000000
01000000
00000000
00100000
01000000
00100000
00000000
,
10000000
00000000
00000000
10000000
00000000
00000000
10000000
00000000
01000000
00000000
00000000
01000000
00000000
00000000
01000000
00000000
,
00100000
00000000
00000000
00001000
00000000
00000000
00010000
00000000
00000000
00000000
00022000
00000000
00000000
00000000
00033000
00000000
,
00000100
00000100
00001000
00000001
,
00000100
00001000
00010000
00000000
,
00001000
00000000
00010000
00001000
00010000
00000000
00001000
00000000
,
00100000
00010000
01000000
00000000
,
00100000
00000000
10000000
00100000
10000000
00000000
01000000
00000000
,
10000000
01000000
10000000
00000000
00010000
00000000
00000000
00000000
,
00100000
00010000
00100000
00000000
00001000
00000000
00010000
00000000
,
00000100
00000000
00000100
00002000
00000000
00000000
00003000
00000000
,
00001001
00000001
00000010
00001000
,
00010000
00001000
00010000
00000000
01000000
00000000
00000000
00000000
,
10000000
00100000
00010000
00001000
,
00010000
00001000
00010000
00000000
00001000
00000000
00000000
00000000
,
00000100
00001001
00000000
00000110
,
00000000
00000000
00000001
00000000
00001000
00000001
00002000
00000000
,
00003010
00001001
00000000
00000001
,
00000100
00001000
00010000
00001000
,
00000000
00011000
00000000
00010000
,
00100000
00000000
10000000
00100000
10000000
00000000
00010000
00000000
,
00000000
01100000
10000000
01000000
,
00000000
00000000
00100000
00010000
00100000
00000000
00001000
00000000
,
00000000
00000000
00010000
00001000
00010000
00000000
00001000
00000000
,
00000000
00011000
00000100
00001000
,
00000020
00000000
00000130
00000000
00000100
00000100
00000100
00000000
,
00000001
00000000
00000010
00000000
00000010
00000010
00000010
00000000
,
00000100
00000000
00010000
00000000
00010000
00010000
00010000
00000000
,
00001000
00000000
00100000
00000000
00100000
00100000
00100000
00000000
,
00010000
00000000
01000000
00000000
01000000
01000000
01000000
00000000
,
00100000
00000000
10000000
00000000
10000000
10000000
10000000
00000000
,
00010000
00000000
00100000
00000000
00100000
00100000
00100000
00000000
,
00001000
00000000
00010000
00000000
00010000
00010000
00010000
00000000
,
00000100
00000000
00001000
00000000
00001000
00001000
00001000
00000000
,
00000010
00000000
00000100
00000000
00000100
00000100
00000100
00000000
,
00000001
00000000
00000010
00000000
00000010
00000010
00000010
00000000
,
00000100
00000000
00010000
00000000
00010000
00010000
00010000
00000000
,
00001000
00011000
00100000
00010000
,
01000000
01100000
00100000
10000000
,
01000000
00000000
00100000
00010000
00100000
00000000
00001000
00000000
,
00010000
00000000
00000100
00000000
00000100
00001000
00000000
00002002
,
00000000
00003003
00000001
00000000
00000010
00000000
00001000
00000000
,
00010000
00000000
00000000
00000000
00001000
00000000
00010000
00000000
00001000
00000000
00000000
00000000
00100000
00000000
00000000
00100000
,
00000000
00010000
00000000
00000000
01000000
00000000
00100000
00000000
,
10000000
00000000
01000000
00000000
01000000
00100000
00000000
20020000
,
00000000
30030000
00000000
00000000
00010000
00000000
01000000
00000000
,
00001000
00000000
00000000
00000000
00010000
00000000
00001000
00000000
00010000
00000000
00000000
00000000
00000100
00000000
00000000
00000100
,
00000000
00001000
00000000
00000000
00000010
00000000
00000100
00000000
,
00000001
00000000
00000000
00000000
00000010
00000000
00000001
00000000
00000010
00000000
00000000
00000000
00000100
00000000
00000000
00000100
,
00000000
00000000
00010000
00000000
00000000
00000000
00010000
00000000
00001000
00000000
00000000
00000000
00100000
00000000
00000000
00100000
,
00000000
00010000
01000000
00000000
01000000
00100000
00000000
20020000
,
00000000
00000000
30030000
00000000
10000000
00000000
00000000
00000000
01000000
00000000
00000000
00000000
00100000
00000000
00000000
00100000
,
00000000
00000000
00001000
00000000
00010000
00000000
00000000
00000000
00000100
00000000
00000000
00000000
00001000
00000000
00000000
00000001
,
00000000
00001001
00000000
00000000
00000000
00000000
00000000
00000000
;

//--------------- dance-double - forcednature ----------------
#NOTEDATA:;
#STEPSTYPE:dance-double;
#DESCRIPTION:forcednature;
#DIFFICULTY:Medium;
#METER:11;
#RADARVALUES:0,0,0,0,0;
#CREDIT:forcednature;
#NOTES:
00000000
00000000
00000000
00000000
,
00000000
00000000
00000000
00000000
,
00000000
00000000
00000000
00000000
,
00001000
00010000
00001000
00000010
,
00000001
00000000
00000000
00000000
00000100
00000000
00000000
00000000
00000001
00000000
00000000
00000001
00001000
00000000
00000000
00000000
,
00000010
00010000
00001000
00000000
00010000
00001000
01000000
00000000
,
00010000
00100000
00010000
00100000
01000000
00000000
10010000
00000000
,
10000000
01000000
00000000
10000000
00010000
00100000
00010000
00000000
,
00100000
00001000
00010000
00001000
00010000
00000100
00001000
00000000
,
00000010
00000100
00000000
00000001
00000010
00000001
00001000
00000000
,
00000100
00000100
00000100
00000000
00010000
00001000
00100000
00000000
,
00010000
01000000
00100000
01000000
00000000
00010000
10000000
00000000
,
01000000
01000000
10000000
00000000
00010000
00100000
00001000
00000000
,
00010000
00001000
00000000
00010000
00000100
00001000
00000100
00000000
,
00000010
00000001
00000100
00000000
00000010
00001000
00000100
00000000
,
00010000
00000000
00000000
00010000
00001000
00000000
00000000
00000000
00100000
00000000
00010000
00000000
01000000
00000000
00000000
00000000
,
00001000
00000000
00000000
00001000
00010000
00000000
00000000
00000000
00000010
00000000
00001000
00000000
00000100
00000000
00000000
00000000
,
00010000
00000000
00000000
00010000
00000000
00000000
00001000
00000000
00100000
00000000
00000000
00100000
00000000
00000000
00010000
00000000
,
01000000
00000000
00000000
01000000
00000000
00000000
00100000
00000000
10000000
00000000
00000000
00010000
00000000
00000000
10010000
00000000
,
00000000
10000000
01000000
00010000
00000000
00001000
00000000
00000010
,
00000000
00000001
00000100
00001000
00000000
00010000
00000000
00100000
,
00000000
10000000
01000000
00010000
00000000
00001000
00000000
00000100
,
00000000
00000001
00000010
00001000
00000000
00010000
00000000
00100000
,
00000000
10000000
01000000
10000000
00000000
00100000
00000000
00010000
,
00000000
00001000
00000010
00001000
00000000
00010000
00000000
00001000
,
00000000
00000100
00000001
00000010
00000000
00001000
00000000
00010000
,
00001000
00000000
00000000
00001000
00000000
00000000
00010000
00000000
00100000
00000000
00000000
00100000
00000000
00000000
10000000
00000000
,
01000000
00000000
00000000
01000000
00100000
00000000
00000000
00000000
00000000
00000000
20020000
00000000
00000000
00000000
30030000
00000000
,
10000000
00000000
10000000
00100000
00000000
00100000
00010000
00000000
,
00001000
00001000
00000100
00000000
00000001
00001000
00000010
00000000
,
00000100
00000000
00000100
00000100
00000001
00000010
00000001
00000000
,
00000100
00000000
00000000
00000100
00010000
00000000
00000000
00000000
00001000
00000000
00100000
00000000
00010000
00000000
00000000
00000000
,
01000000
00100000
10000000
00000000
01000000
00100000
00001000
00000000
,
00010000
00000100
00001000
00001000
00000000
00000001
00000010
00000000
,
00000001
00000100
00001000
00000000
00010000
00001000
00010000
00000000
,
00100000
10000000
02000000
00000000
00000000
00000000
03000000
00000000
,
20010000
00000000
31000000
00010000
00001000
00010000
00001000
00000000
,
00000010
00000001
00000100
00000000
00000010
00001000
00000100
00000000
,
00001001
00000000
00000001
00000100
00001000
00010000
00001000
00000000
,
00010000
00100000
10000000
00000000
01000000
00000000
01100000
00000000
,
00010000
01000000
00002000
00000000
00013000
00000010
00002000
00000000
,
00003001
00000010
00000100
00000010
00000100
00010000
00002000
00000000
,
00103000
10010000
10000000
01000000
,
00010000
00000000
00001000
00001000
00000000
00010000
00001000
00000000
,
00000010
00001001
00000001
00000100
,
00001000
00000000
00010000
00010000
00000000
00001000
00010000
00000000
,
00100000
00000000
01100000
00000000
01000000
00010000
00100000
00000000
,
00001000
00000000
00011000
00000000
00000100
00001000
00000010
00000000
,
00000100
00000000
00000110
00000000
00000001
00001000
00000100
00000000
,
00010000
00000000
00001000
00001000
00100000
00000000
00010000
10000000
,
02000000
00000000
03100000
00010000
00100000
00100000
00001000
00000000
,
00010000
00000000
00000100
00001000
00000010
00001000
00000010
00000000
,
00000100
00000000
00000001
00001000
00001000
00000100
00010000
00000000
,
00001000
00000000
00100000
00100000
00010000
00010000
10000000
00000000
,
00100000
00000000
01000000
00010000
00010000
00100000
00001000
00000000
,
00010000
00000000
00000100
00000100
00001000
00000010
00000100
00000000
,
00000001
00000000
00000010
00000100
00000100
00010000
00001000
00000000
,
00100000
00000000
00010000
00010000
01000000
01000000
00100000
00000000
,
10000000
00000000
10010000
00000000
00010000
00100000
00001000
00010000
,
00001000
00000000
00011000
00000000
00000100
00001000
00000001
00000010
,
00000001
00000000
00001001
00000000
00001000
00000010
00010000
00001000
,
00010000
00000000
00011000
00000000
00100000
00010000
00100000
01000000
,
10000000
00000000
10010000
00000000
00010000
00100000
00001000
00000000
,
00001000
00010000
00000100
00000000
00000100
00001000
00000010
00000000
,
00000010
00000100
00000001
00000010
00000001
00000000
00000010
00001000
,
00000010
00000000
00001000
00001000
00010000
00001000
00000000
00022000
,
00000000
00033000
00100000
00010000
01000000
00100000
01000000
00100000
,
20000000
00000000
00000000
00000000
31000000
00000000
00000000
00000000
00010000
00000000
00000000
00000000
00001000
00000000
00000000
00011000
,
00000000
00010000
00000100
00001000
00000100
00001000
00000010
00000100
,
00000002
00000000
00000013
00000100
00000100
00000010
00000000
00002002
,
00000000
00003003
00001000
00000100
00010000
00001000
01000000
00010000
,
00200000
00000000
00000000
00000000
01300000
00000000
10000000
00000000
00010000
00000000
00000000
00000000
00100000
00000000
00000000
00100000
,
00000000
00001000
00010000
00001000
00010000
00000100
00001000
00000010
,
00002000
00000000
00000000
00000000
00003001
00000000
00000100
00000000
00000001
00000000
00000010
00000000
00000100
00000000
00000000
00000100
,
00000000
00000000
00010000
00000000
00001000
00000000
00000000
00000000
00001000
00000000
00100000
00000000
00010000
00000000
00000000
00010000
,
00000000
01000000
00100000
10000000
00010000
00010000
00000000
20020000
,
00000000
00000000
30030000
00000000
10000000
00000000
01000000
00000000
10000000
00000000
00010000
00000000
00100000
00000000
00000000
00100000
,
00000000
00000000
00001000
00000000
00010000
00000000
00000100
00000000
00001000
00000000
00000010
00000000
00000100
00000000
00000000
00000001
,
00000000
00001001
00000000
00000000
00000000
00000000
00000000
00000000
;

//--------------- dance-double - forcednature ----------------
#NOTEDATA:;
#STEPSTYPE:dance-double;
#DESCRIPTION:forcednature;
#DIFFICULTY:Hard;
#METER:14;
#RADARVALUES:0,0,0,0,0;
#CREDIT:forcednature;
#NOTES:
00000000
00000000
00000000
00000000
,
00000000
00000000
00000000
00000000
,
00000000
00000000
00000000
00000000
,
00011000
00001000
00000010
00000001
,
00000100
00000000
00001000
00000000
00010000
00001000
00010000
00000000
,
00100000
10000000
00100000
00000000
10000000
01000000
10000000
00000000
,
01000000
00010000
00001000
00000010
00000100
00001000
00000002
00000000
,
00000103
00001000
00010000
00001000
00010000
00100000
10000000
00000000
,
01000000
00010000
00001000
00010000
00001000
00000010
00000001
00000000
,
00000100
00001000
00010000
00001000
00010000
01000000
10000000
00000000
,
00010000
10000000
00010000
10000000
00010000
00000000
00000000
00000000
00100000
00000000
01000000
00000000
01000000
00000000
00000000
00000000
,
10000000
00100000
00010000
00001000
00010000
00001000
00000100
00000000
,
00000001
00000010
00001000
00010000
00001000
00010000
01000000
00000000
,
10000000
00100000
00010000
00001000
00010000
00001000
00000010
00000000
,
00000001
00000100
00001000
00010000
00001000
00010000
01000000
00000000
,
10000000
00010000
00000000
00010000
00200000
00000000
00000000
00000000
00301000
00000000
00010000
00000000
00000100
00000000
00000000
00000000
,
00001000
00000001
00000000
00000001
00000020
00000000
00000000
00000000
00000130
00000000
00001000
00000000
00000001
00000000
00000000
00000000
,
00000100
00000000
00000000
00000100
00000000
00000000
00001000
00000000
00010000
00000000
00000000
00010000
00000000
00000000
00100000
00000000
,
10000000
00000000
00000000
10000000
00000000
00000000
01000000
00000000
00010000
00000000
00000000
00001000
00000000
00000000
00011000
00000000
,
00000000
00000000
00000100
00000000
00001000
00000010
00000000
00000100
00000000
00000000
00000001
00000000
00000001
00000000
00000010
00000000
,
00001000
00000000
00000010
00000000
00000001
00001000
00000000
00000100
00000000
00000000
00010000
00000000
00010000
00000000
00001000
00000000
,
00100000
00000000
00010000
00000000
01000000
00100000
00000000
10000000
00000000
00000000
01000000
00000000
01000000
00000000
00010000
00000000
,
00001000
00000000
00100000
00000000
00010000
00100000
00000000
01000000
10000000
00000000
10000000
00000000
00010000
00000000
01000000
00000000
,
00000000
00000000
00001000
00010000
00001000
00000000
00010000
00000000
00000010
00000000
00001000
00000000
00000100
00000000
00000000
00000000
,
00000010
00000001
00000000
00000001
00000010
00000000
00000100
00000000
00010000
00000000
00001000
00000000
00100000
00000000
00000000
00000000
,
00010000
00000000
01000000
00000000
00100000
10000000
00000000
01000000
00000000
00000000
00100000
00000000
00010000
00000000
00000000
00000000
,
10000000
00000000
00000000
10000000
00000000
00000000
00100000
00000000
00010000
00000000
00000000
00010000
00000000
00000000
00001000
00000000
,
00000100
00000000
00000000
00000001
00000000
00000000
00000101
00000000
00000000
00000000
00002020
00000000
00000000
00000000
00003030
00000000
,
00000001
00000000
00000100
00000000
00001000
00000000
00000100
00000000
00000000
00000000
00000100
00000000
00001000
00000000
00010000
00001000
,
00010000
00000000
00100000
00010000
00000000
00100000
10000000
00000000
00100000
00000000
01000000
00000000
00010000
01000000
00010000
00000000
,
10000000
00000000
10000000
01000000
00010000
01000000
10000000
00010000
,
00100000
00000000
00010000
00100000
00001000
00000000
00010000
00000000
00000100
00000000
00001000
00000100
00001000
00000000
00000001
00000000
,
00000010
00000000
00000001
00000100
00000001
00000000
00000100
00000010
00000100
00000000
00001000
00000100
00000000
00001000
00010000
00000000
,
00001000
00000000
00001000
00000000
00100000
00000000
00010000
10000000
00000000
01000000
10000000
00000000
10000000
00000000
00010000
00000000
,
00100000
00000000
00010000
00100000
00001000
00000000
00001000
00000000
00010000
00000000
00000100
00001000
00000100
00000000
00000010
00000000
,
00000001
00000100
00001000
00022000
00000000
00000000
00033000
00000000
,
00010000
00000000
00100000
00000000
10000000
00100000
10000000
00000000
01000000
00000000
10000000
01000000
10000000
00000000
01000000
00000000
,
00010000
00000000
00001000
00000000
00010000
00001000
00010000
00000000
00001000
00000000
00000010
00000000
00000002
00000000
00000000
00000000
,
00000103
00000000
00001000
00000000
00010000
00001000
00010000
00000000
00100000
00000000
10000000
00100000
10000000
00000000
01000000
10000000
,
01000000
00000000
00010000
00000000
00001000
00010000
00001000
00000000
00100000
00000000
00100000
00000000
02000000
00000000
00000000
00000000
,
03010000
00001000
00000020
00000000
00001030
00010000
00200000
00000000
,
10300000
00000000
00010000
00000000
01000000
00010000
01000000
00000000
00001000
00010000
00001000
00000000
00020000
00000000
00000000
00000000
,
00030010
00000000
00001001
00000000
00000001
00000010
00001000
00000000
,
00011000
00000000
00000000
00000000
00010000
00001000
00200000
00000000
00000000
00000000
00310000
00000000
01000000
00000000
00010000
00000000
,
10000000
00000000
01100000
00000000
10000000
00100000
00010000
00000000
,
00011000
00000000
00000000
00000000
00001000
00010000
00000020
00000000
00000000
00000000
00001030
00000000
00000100
00000000
00001000
00000000
,
00000001
00000000
00000000
00000000
00000010
00000100
00000000
00001000
00000200
00000000
00000000
00000000
00010300
00000000
00001000
00000000
,
00100000
00000000
00000000
00000000
00010000
01000000
00000000
00100000
02000000
00000000
00000000
00000000
03010000
00000000
10000000
00000000
,
00100000
00000000
00000000
00000000
10000000
00010000
10000000
00010000
20000000
00000000
00000000
00000000
31000000
00000000
00010000
00000000
,
00001000
00000000
00000000
00000000
00010000
00000000
00000100
00000000
00001000
00000100
00001000
00000000
00000010
00000000
00000100
00000000
,
00000002
00000000
00000000
00000000
00000103
00000000
00000010
00000100
00000010
00000000
00001000
00000000
00000100
00000000
00001000
00000100
,
00010000
00000000
00000000
00000000
00001000
00000000
00010000
00001000
00100000
00000000
00010000
00000000
01000000
00000000
00100000
01000000
,
00100000
00000000
00000000
00000000
10000000
00000000
01000000
00000000
10000000
00010000
10000000
00000000
00100000
00000000
01000000
00000000
,
00010000
00000000
00000000
00000000
00100000
00000000
00010000
00100000
00001000
00000000
00010000
00000000
00010000
00000000
00000100
00000000
,
00001000
00000000
00000010
00000000
00000000
00000000
00000100
00000000
00000010
00000100
00000010
00000000
00001000
00000000
00000100
00001000
,
00000002
00000000
00000000
00000000
00000013
00000100
00000010
00000000
00000100
00000000
00010000
00000000
00001000
00000000
00100000
00000000
,
00010000
00000000
00000000
00000000
01000000
00010000
01000000
00000000
00010000
00000000
10000000
00000000
00100000
00000000
01000000
00100000
,
01000000
00000000
00000000
00000000
00010000
00000000
10000000
01000000
00000000
10000000
01000000
00000000
10000000
00000000
00010000
00000000
,
00100000
00000000
00001000
00000000
00000000
00000000
00010000
00001000
00010000
00000000
00000100
00001000
00000100
00000000
00001000
00000000
,
00000010
00000000
00000000
00000000
00000110
00000000
00000000
00000001
00001000
00000000
00000100
00001000
00000100
00000000
00010000
00000000
,
00001000
00000000
00000000
00000000
00100000
00000000
00010000
00100000
00010000
00000000
01000000
00000000
00100000
00000000
01000000
00100000
,
10000000
00000000
00000000
00000000
01000000
00000000
10000000
01000000
10000000
00000000
00010000
00000000
00100000
00000000
00001000
00000000
,
00010000
00000000
00000100
00000000
00001100
00000000
00000000
00000000
00000011
00000000
00000000
00000001
00000100
00000000
00000010
00000100
,
00000010
00000000
00001000
00000000
00001100
00000000
00000000
00000000
00011000
00000000
00000000
00100000
00010000
00000000
01000000
00100000
,
01000000
00000000
00100000
00000000
10000000
00000000
01000000
10000000
01000000
00000000
00010000
00000000
00001000
00000000
00010000
00001000
,
00010000
00000000
00001000
00000000
00000010
00000001
00000010
00000000
00000001
00000100
00000001
00000000
00000100
00000000
00000020
00000000
,
00000000
00000030
00001001
00000000
00000001
00000100
00001000
00010000
,
01000000
00000000
10000000
00000000
00100000
10000000
00100000
10000000
00100000
00000000
01000000
00000000
00010000
00000000
00000000
00110000
,
00000000
10000000
00010000
10000000
01000000
00010000
00001000
00000100
,
00000001
00000000
00000010
00000000
00000100
00000000
00001000
00000100
00010000
00001000
00010000
00001000
00000000
00000000
00022000
00000000
,
00000000
00033000
00010000
00100000
10000000
00100000
00010000
00001000
,
00010000
00000000
00000000
00000000
00000100
00001000
00000100
00001000
00000001
00000000
00000010
00000000
00000110
00000000
00000000
00000110
,
00000000
00001000
00000001
00000100
00001000
00010000
01000000
10000000
,
00100000
00000000
00000000
00000000
10000000
00000000
00010000
10000000
00010000
00000000
00100000
00000000
00110000
00000000
00000000
00110000
,
00000000
00000000
00001000
00000000
00010000
00000000
00001000
00010000
00000100
00000000
00001000
00000000
00001100
00000000
00000000
00001100
,
00000000
00000000
00000001
00000000
00000010
00000000
00000100
00000010
00000100
00001000
00000100
00001000
00000000
00000000
00000020
00000000
,
00000000
00000000
00000030
00000000
00000100
00000000
00000001
00000100
00000001
00000000
00001000
00000000
00000010
00000000
00000000
00001010
,
00000000
00000000
00010000
00000000
00001000
00000000
00100000
00010000
00100000
00000000
01000000
00000000
10000000
00000000
00000000
10100000
,
00000000
01010000
00000000
00000000
00000000
00000000
00000000
00000000
;

//--------------- dance-double - forcednature ----------------
#NOTEDATA:;
#STEPSTYPE:dance-double;
#DESCRIPTION:forcednature;
#DIFFICULTY:Challenge;
#METER:18;
#RADARVALUES:0,0,0,0,0;
#CREDIT:forcednature;
#NOTES:
00000000
00000000
00000000
00000000
,
00000000
00000000
00000000
00000000
,
00000000
00000000
00000000
00000000
,
00001000
00010000
00100000
10000000
,
01000000
00000000
00000000
00000000
00010000
00000000
00001000
00000000
00100000
00010000
00100000
00001000
00010000
00000000
00000000
00000000
,
00010000
00000010
00001000
00000010
00010000
00001000
00000010
00001000
,
00010000
00000100
00001000
00000100
00010000
00000010
00001000
00000010
00010000
00001000
00100000
00010000
02000000
00000000
00000000
00000000
,
03100000
00000000
10000000
00000000
01000000
00000000
00010000
00000000
00001000
00000000
00000010
00000000
00000100
00001000
00000000
00000100
,
00000010
00000000
00000001
00000000
00000100
00000000
00001000
00000000
00010000
00000000
00100000
01000000
00010000
00000000
01000000
00000000
,
00100000
00000000
10000000
00000000
01000000
00000000
00010000
00000000
00001000
00000000
00000010
00000000
00000001
00001000
00000000
00001000
,
00000100
00000010
00000100
00000010
00000001
00000000
00001000
00000000
00001000
00000000
00000010
00000000
00001000
00000000
00000001
00000000
,
00000100
00000000
00001000
00000000
00010000
00001000
00010000
00000000
00100000
00000000
10000000
00010000
00100000
00000000
01000000
00000000
,
00100000
00010000
00000000
00010000
10000000
00000000
01000000
00000000
00010000
00001000
00010000
00000000
00001000
00000000
00000010
00000000
,
00000001
00000000
00000100
00000000
00001000
00000100
00001000
00000000
00010000
00000000
00001000
00000000
00010000
00000000
00100000
00000000
,
10000000
00010000
01000000
00000000
00010000
10000000
01000000
00000000
00100000
00000000
00001000
00000000
00011000
00000000
00000000
00000000
,
00010000
01000000
00000000
10000000
01000000
00000000
00010000
00000000
00001000
00000000
00100000
00000000
00010000
00000000
01000000
00000000
,
00001000
00000100
00000000
00000001
00000100
00000000
00001000
00000000
00010000
00000000
00000010
00000000
00001000
00000000
00000100
00000000
,
00000010
00000000
00000010
00000001
00000000
00000001
00000100
00000000
00001000
00000000
00001000
00010000
00000000
00010000
00100000
00000000
,
10000000
00000000
10000000
01000000
00000000
01000000
00010000
00000000
00011000
00000000
00000000
00011000
00000000
00000000
00011000
00000000
,
00000100
00000000
00001000
00000000
00000001
00000100
00000000
00010000
00000000
00000000
01000000
00010000
01000000
00000000
00010000
00000000
,
10000000
00000000
00100000
00000000
10000000
01000000
00000000
00001000
00000000
00000000
00000100
00001000
00000001
00000000
00000010
00000000
,
00000001
00000000
00000100
00000000
00000001
00000010
00000000
00010000
00000000
00000000
00100000
00010000
00100000
00000000
00010000
00000000
,
10000000
00000000
00100000
00000000
10000000
01000000
00000000
00010000
00001000
00000000
00100000
00001000
00010000
00000000
00000100
00000000
,
00000000
00000010
00001000
00000010
00001000
00000000
00100000
00000000
00010000
00000000
10000000
01000000
00200000
00000000
00000000
00000000
,
00310000
01000000
00010000
01000000
00000000
00000000
00001000
00000000
00000100
00000000
00000001
00000000
00002000
00000000
00000000
00000000
,
00003001
00000000
00000100
00000000
00000001
00000010
00000000
00010000
00000000
00100000
00010000
00100000
00020000
00000000
00000000
00000000
,
01030000
00000000
00100000
10000000
00000000
01000000
00010000
00000000
00001000
00000000
00000010
00000001
00000000
00000100
00001000
00000000
,
00010000
00000000
00100000
10000000
01000000
10000000
00010000
00100000
00000000
00000000
00022000
00000000
00000000
00000000
00033000
00000000
,
00010000
00000000
01000000
00000000
10000000
00000000
00100000
00000000
00000000
00000000
10000000
00000000
01000000
00000000
00010000
00001000
,
00000010
00000000
00001000
00010000
00000010
00000000
00001000
00000000
00000001
00000100
00000010
00000100
00000001
00000000
00000010
00000000
,
00001000
00000000
00000000
00000000
00001000
00000000
00000010
00000000
00000001
00001000
00000100
00000000
00010000
00000000
00001000
00000000
,
00100000
00010000
01000000
00010000
00000000
00000000
01000000
00000000
00100000
10000000
00010000
01000000
00100000
00000000
10000000
00000000
,
01000000
00000000
00010000
00001000
00000010
00000000
00001000
00010000
00100000
00000000
00010000
00001000
00000100
00000000
00000001
00000000
,
00000010
00000000
00001000
00010000
00001000
00000000
00100000
01000000
00000000
00100000
00010000
01000000
00010000
00000000
00010000
00000000
,
10000000
00100000
10000000
00100000
00010000
00000000
00010000
00000000
00001000
00000000
00000100
00000001
00000010
00000000
00001000
00000000
,
00000010
00000000
00000010
00000000
00000001
00000000
00000100
00000010
00001000
00000100
00010000
00001000
00100000
00010000
01000000
00100000
,
20000000
00000000
00000000
00000000
31000000
00010000
00001000
00000000
00010000
01000000
10000000
01000000
00010000
00000000
00001000
00000010
,
00000001
00000010
00000001
00000000
00000010
00001000
00010000
00001000
00010000
00000000
00001000
00000010
00000002
00000000
00000000
00000000
,
00000103
00000000
00001000
00000000
00010000
00100000
00010000
00000000
00001000
00000100
00001000
00010000
00100000
00000000
10000000
00100000
,
00010000
00000000
00001000
00000100
00001000
00010000
00001000
00000000
00010000
00000000
00100000
00000000
20000000
00000000
00000000
00000000
,
31000000
00010000
00001000
00000010
00000002
00000000
00000000
00000000
00000103
00001000
00010000
00100000
20000000
00000000
00000000
00000000
,
31000000
10000000
00100000
01000000
00010000
00100000
00001000
00010000
00000100
00001000
00000010
00000100
00000002
00000000
00000000
00000000
,
00000013
00000000
00001001
00000000
00001000
00000010
00000001
00000010
,
00001000
00000000
00000000
00000000
00010000
01000000
00200000
00000000
00000000
00000000
10300000
00000000
01000000
00000000
00010000
00000000
,
01000000
00000000
00000000
00000000
10000000
00100000
01000000
00010000
20000000
00000000
00000000
00000000
31000000
00000000
00010000
00000000
,
00001000
00000000
00000000
00000000
00000010
00000001
00000200
00000000
00000000
00000000
00001300
00000000
00000100
00000000
00000001
00000000
,
00000010
00000000
00000000
00000000
00001000
00010000
00000100
00010000
00002000
00000000
00000000
00000000
00103000
00000000
00010000
00000000
,
01000000
00000000
00100000
00000000
00010000
00001000
01000000
00001000
00020000
00000000
00000000
00000000
00030010
00000000
00001000
00000000
,
00000100
00000000
00000010
00000000
00001000
00010000
00000100
00001000
00000020
00000000
00000000
00000000
00000130
00000000
00001000
00000000
,
00010000
00000000
00100000
00000000
01100000
00000000
10000000
00000000
01000000
10000000
01000000
00100000
00010000
00000000
01000000
00000000
,
20000000
00000000
00000000
00000000
31000000
00000000
00010000
00100000
01000000
00000000
00010000
00000000
00011000
00000000
00000000
00000010
,
00001000
00000000
00000001
00000000
00000101
00000000
00001000
00000010
00000001
00000000
00000010
00001000
00010000
00000000
01000000
00000000
,
00200000
00000000
00000000
00000000
10300000
01000000
00010000
00000000
00001000
00000000
00100000
00010000
00001000
00000000
00000100
00001000
,
00000020
00000000
00000000
00000000
00000130
00001000
00010000
00000000
00100000
00000000
01000000
00001000
00010000
00000000
01000000
00010000
,
00001000
00000000
00000010
00000000
00000110
00000000
00000000
00001000
00000010
00000100
00000001
00000010
00001000
00000000
00010000
00000000
,
02000000
00000000
00000000
00000000
13000000
00100000
00010000
00100000
10000000
00000000
01000000
00010000
00001000
00000000
00000010
00000000
,
00000110
00000000
00000000
00000000
00000100
00010000
00001000
00000010
00000001
00001000
00000100
00000000
00000010
00000000
00001000
00000000
,
00011000
00000000
00000000
00000000
00100000
01000000
00010000
00001000
00010000
01000000
00100000
00000000
00010000
00000000
01000000
00000000
,
00001000
00000000
00010000
00000000
00011000
00000000
00000010
00001000
00000100
00000001
00000100
00001000
00000001
00000000
00000010
00000000
,
00001000
00000000
00000000
00000000
00011000
00000000
00100000
00010000
01000000
10000000
01000000
00010000
10000000
00000000
01000000
00000000
,
00010000
00000000
00000000
00000000
00001000
00000010
00001000
00000010
00000001
00001000
00000100
00000010
00001000
00000000
00010000
00000000
,
00011000
00000000
00000000
00000000
00010000
00100000
00010000
00100000
10000000
00010000
01000000
00100000
00010000
00000000
00001000
00000000
,
00001000
00000000
00000010
00000000
00000110
00000000
00000100
00001000
00000010
00000000
00000100
00000001
00000010
00000000
00001000
00000000
,
00010000
00000000
01000000
00000000
10000000
00000000
00100000
01000000
00010000
00000000
00100000
01000000
10000000
00000000
00100000
00000000
,
00010000
00000000
00001000
00000000
00000010
00000100
00000010
00000100
00001000
00000100
00001000
00000100
00010000
00001000
00010000
00001000
,
00100000
00000000
00100000
00000000
01000000
10000000
00100000
01000000
00010000
00100000
00001000
00010000
00000100
00001000
00000020
00000000
,
00000000
00000000
00000000
00000000
00000130
00001000
00000100
00000001
00000100
00000000
00001000
00000000
00010000
00000000
00100000
00000000
,
01100000
00000000
00010000
00000000
10000000
01000000
00010000
00001000
00100000
00000000
00010000
00000000
01010000
00000000
00000000
00011000
,
00000000
00000000
00001010
00000000
00010000
00001000
00000010
00000100
00010000
00000000
00001000
00000000
00100000
00000000
00010000
00000000
,
01010000
00000000
10000000
00000000
00100000
01000000
00010000
10000000
01000000
00010000
00001000
00100000
00000000
00000000
01000000
00100000
,
00010000
00001000
00000100
00000000
00000010
00000001
00000100
00001000
00000100
00000000
00010000
00000000
01000000
00000000
00100000
00000000
,
01100000
00000000
10000000
00000000
00100000
00010000
00001000
01000000
00010000
00000000
00100000
00000000
00110000
00000000
00000000
00011000
,
00000000
00000000
00001100
00000000
00000100
00010000
00001000
00000100
00000001
00000000
00000010
00000000
00001000
00000000
00010000
00000000
,
00101000
00000000
00100000
00000000
00010000
01000000
10000000
01000000
00010000
00000000
00100000
00000000
01100000
00000000
00000000
00101000
,
00000000
00000000
00010100
00000000
00000100
00001000
00000001
00000100
00001000
00000000
00010000
00100000
10000000
00000000
00000000
11000000
,
00000000
00000000
00110000
00000000
00010000
10000000
01000000
00010000
00001000
00000100
00000001
00000010
00000000
00000100
00010000
00001000
,
00000010
00000100
00010000
00000000
00001000
00100000
00010000
01000000
00100000
00000000
10000000
00000000
11000000
00000000
00000000
01100000
,
00000000
00000000
00101000
00000000
00001000
00010000
00000010
00000100
00001000
00000000
00011000
00000000
00010010
00000000
00000000
00101000
,
00000000
01000100
00000000
00000000
00000000
00000000
00000000
00000000
;
