#VERSION:0.83;
#TITLE:Rebellio;
#SUBTITLE:;
#ARTIST:MAX MAXIMIZER VS DJ TOTTO;
#TITLETRANSLIT:;
#SUBTITLETRANSLIT:;
#ARTISTTRANSLIT:;
#GENRE:;
#CREDIT:;
#MUSIC:Rebellio.ogg;
#BANNER:Rebellio.png;
#BACKGROUND:Rebellio-bg.png;
#CDTITLE:./CDTitles/REFLEC BEAT VOLZZA.png;
#SAMPLESTART:76.055;
#SAMPLELENGTH:15.000;
#SELECTABLE:YES;
#OFFSET:0.852;
#BPMS:0.000=234.000
,20.000=117.000
,36.000=234.000
,106.000=117.000
,106.250=234.000
,106.500=468.000
,107.000=234.000
,168.000=468.000
,168.500=234.000
,168.750=117.000
,169.000=468.000
,169.500=234.000
,169.750=117.000
,170.000=234.000
,202.000=117.000
,240.000=234.000
;
#STOPS:74.000=0.256
,136.000=0.256
,322.000=0.257
;
#TIMESIGNATURES:0.000=4=4,
72.000=3=4,
75.000=4=4,
135.000=3=4,
138.000=4=4,
238.000=2=4,
240.000=4=4,
320.000=3=4,
323.000=4=4
;
#DISPLAYBPM:117.000:234.000;
#BGCHANGES:0.000=../BGAs/21he.mp4=1.000=0=0=0=StretchNoLoop====,
99999.000=-nosongbg-=1.000=0=0=0=StretchNoLoop====
;
#FGCHANGES:;

//--------------- dance-single - forcednature ----------------
#NOTEDATA:;
#STEPSTYPE:dance-single;
#DESCRIPTION:forcednature;
#CREDIT:forcednature;
#DIFFICULTY:Beginner;
#METER:7;
#RADARVALUES:0,0,0,0,0;
#NOTES:
0000
0000
0000
0000
,
0000
0000
0000
0000
,
0000
0000
0000
0000
,
0020
0000
0000
0000
,
0000
0000
0030
0000
,
2002
0000
0000
0000
,
0000
0000
0000
3003
,
1000
0100
0000
0100
,
1000
0010
0000
0010
,
2002
0000
0000
0000
,
0000
0000
3003
0000
,
0001
0001
0000
0001
,
0000
0000
0000
0000
,
1000
1000
0000
1000
,
0000
0000
0010
0010
,
0100
0001
0000
0001
,
0000
0000
0000
0000
,
1001
0000
0110
0000
,
1000
0001
0000
1000
,
0000
0100
0000
0010
,
0000
0100
0000
0010
,
0000
0001
0000
1000
,
0000
0000
0000
0010
,
0000
1000
0000
0001
,
0000
0010
0000
0001
,
0000
1000
0000
0010
,
0000
0010
0000
0100
,
0000
0001
0000
0100
,
0000
0000
0000
0010
,
0000
1000
0000
0001
,
0000
1000
0000
0100
,
0000
0010
0000
0100
,
0000
0000
0000
0010
,
0000
0001
0000
1000
,
1000
0000
0001
0000
,
0100
0001
0100
0000
,
0000
0000
0001
0000
,
1000
0001
1000
0000
,
0001
0000
1000
0000
,
0100
1000
0100
0000
,
0000
0000
1000
0000
,
0001
1000
0001
0000
,
1000
1000
0010
0000
,
0100
0010
0100
0000
,
0001
0000
0100
0000
,
0010
0100
0010
0000
,
1000
1000
0001
0000
,
1000
0001
1000
0000
,
0100
0000
0010
0000
,
0010
0000
0001
0000
,
1000
0000
2002
0000
,
3003
0000
2002
0000
,
3003
0000
0220
0000
,
0330
0000
0220
0000
,
0330
0000
0001
1000
,
0000
1000
0100
1000
,
0000
1000
0010
0100
,
0000
0100
0001
0100
,
0000
0100
0020
0000
,
2030
0000
3002
0000
,
0203
0000
0000
0000
,
0301
0000
0001
0000
,
1000
0000
0100
0000
,
1000
0001
1000
0000
,
0001
0000
0010
0000
,
0110
0000
0000
0000
,
1001
0000
0000
0000
,
1000
0000
0010
1000
,
0010
0000
0100
0000
,
0001
0000
0001
0000
,
1000
0000
0100
0000
,
1000
0001
1000
0000
,
0010
0000
0100
0000
,
0110
0000
0000
0000
,
1001
0000
0000
0000
,
0001
0000
0100
0001
,
0100
0000
0010
0000
,
2002
0000
0000
0000
,
0000
0000
3003
0000
,
1000
0000
0001
0000
,
1000
0001
0010
0100
,
0000
0100
0010
0100
,
0000
1000
0000
0001
,
0000
0001
1000
0001
,
0000
0100
0000
0010
,
0000
0010
0100
0010
,
0000
1000
0000
0001
,
0000
0001
1000
0001
,
0000
1001
0000
0110
,
0000
1000
0001
1000
,
0001
1000
0000
1001
,
0000
0001
0100
0001
,
0100
0001
0000
0110
,
0000
1000
0010
1000
,
0010
1000
0000
0001
,
0010
0001
0010
0100
,
1000
0100
0000
1000
,
0000
1000
0000
0010
,
1000
0010
0000
0100
,
0000
0100
0000
0001
,
0100
0001
0000
0010
,
0000
0010
0000
0001
,
1000
0001
0000
1000
,
0000
1000
0000
0100
,
0010
0100
0000
2002
,
0000
0000
0000
0000
,
0000
0000
0000
3003
;

//--------------- dance-single - forcednature ----------------
#NOTEDATA:;
#STEPSTYPE:dance-single;
#DESCRIPTION:forcednature;
#CREDIT:forcednature;
#DIFFICULTY:Easy;
#METER:11;
#RADARVALUES:0,0,0,0,0;
#NOTES:
0000
0000
0000
0000
,
0000
0000
0000
0000
,
0000
0000
0000
0000
,
0001
1000
0001
1000
,
0001
1000
0001
0000
,
2002
0000
0000
0000
,
0000
0000
0000
3003
,
1001
0000
1000
0000
0000
0100
0010
0000
,
0001
1000
0001
0000
0000
0100
0010
0000
,
2002
0000
0000
0000
,
0000
0000
3003
0000
,
0001
0000
0000
1000
0000
0000
0001
0000
0000
0000
0000
0000
1000
0000
0100
0000
,
0000
0000
0000
0000
,
1000
0000
0000
0001
0000
0000
1000
0000
0000
0000
0000
0000
0001
0000
0100
0000
,
0000
0000
0010
0010
,
1000
0000
0000
0001
0000
0000
1000
0000
0000
0000
0000
0000
0001
0000
0010
0000
,
0000
0000
0000
0000
,
2002
3003
2002
3003
,
1001
1001
0000
1000
,
0010
0100
0010
0001
,
0010
1000
1000
0001
,
0010
0100
0010
1000
,
0010
0001
0001
1000
,
0100
0010
0100
0001
,
0100
1000
1000
0001
,
0100
0010
0100
1000
,
0100
0001
0000
1001
,
1000
0000
0010
0100
0010
0000
0100
0000
,
0001
0010
0000
1001
,
0001
0000
0010
0100
0010
0000
0100
0000
,
1000
0000
0000
0000
0010
0000
0000
0010
0000
0000
0100
0000
0010
0000
0000
0000
,
0000
0000
1000
0000
0001
0000
0100
0001
,
0100
0010
1000
2002
,
3003
0220
0330
1001
,
1001
0000
1000
0100
,
0010
0000
0100
0000
1000
0001
1000
0000
,
0001
1000
0001
0000
0100
0000
0010
0000
,
1000
0000
0100
0000
0010
0100
0010
0000
,
0100
0010
0100
0000
1000
0000
0001
0000
,
0100
0000
0010
0000
1000
0001
1000
0000
,
0001
1000
0001
0000
0010
0000
0100
0000
,
1000
0000
0010
0100
0010
0000
0100
0000
,
1001
1001
0001
0010
,
0100
1000
0100
0000
0010
0001
0010
0000
,
0100
1000
0010
0100
,
0001
0100
0001
0000
1000
0010
1000
0000
,
0001
0000
0000
0001
0000
0000
0010
0000
0100
0000
0000
0000
1000
0000
0000
0000
,
0001
0100
0001
0000
1000
0100
1000
0000
,
0010
0100
0101
0001
,
1100
0000
1000
0000
0001
0000
0010
0100
,
0010
0100
2002
3003
,
1000
0100
0010
0000
2002
0000
3003
0000
,
0001
0100
0010
0000
2002
0000
3003
0000
,
1000
0010
0100
0000
2002
0000
3003
0000
,
0001
0010
0100
0000
1000
0000
1100
0000
,
0000
0001
0010
0000
0001
0000
0101
0000
,
0000
1000
0010
0000
0100
0000
0110
0000
,
0000
0010
1000
0000
0100
0000
0110
0000
,
0000
0010
0001
0000
1000
0000
1000
0000
,
0001
0010
0100
1000
0001
0000
0100
0010
,
0200
0000
0000
0000
,
0310
1000
0010
0000
1000
0100
1000
0000
,
0001
0010
0100
1000
,
0010
0000
0100
0010
0000
0100
0001
0000
,
0010
0000
0001
0000
1000
0001
1000
0000
,
0010
0000
0000
0000
0100
0000
0000
0000
0001
0000
0000
0001
0000
0000
0010
0000
,
0001
0000
0000
0000
1000
0000
0000
0000
0010
0000
0000
0010
0000
0000
0100
0000
,
0001
0000
1000
0000
0100
1000
0100
0000
,
0010
0000
0001
1000
0002
0000
0100
0000
,
1003
0010
1000
0000
0100
1000
0100
0000
,
0010
0001
1000
0010
,
0100
0000
0001
0100
0000
0010
0100
0000
,
0010
0000
1000
0000
0001
1000
0001
0000
,
0010
0000
0000
0000
0100
0000
0000
0000
1000
0000
0000
1000
0000
0000
0010
0000
,
0100
0000
0000
0000
0001
0000
0000
0000
0010
0000
0000
0100
0000
0000
1000
0000
,
0100
0000
0010
0000
0001
1000
0001
1000
,
0000
0010
0100
0000
0010
0000
0100
0000
,
2002
0000
0000
0000
,
0000
0000
0000
3003
,
1000
0001
1000
0000
0001
1000
0001
0000
,
0100
0000
0000
0000
0110
0000
0000
0000
2002
3003
0000
0000
1000
0000
0000
0000
,
0100
0000
0220
0000
0330
0000
0010
0001
,
0010
0001
1000
0001
,
0100
0000
0220
0000
0330
0000
0010
1000
,
0010
1000
0001
1000
,
0100
0000
0220
0000
0330
0000
0010
0001
,
0010
0100
1000
0010
,
0100
0010
0100
0000
0010
0100
0001
0000
,
0001
0000
1000
0100
0000
0000
0220
0000
,
0330
0000
1000
0100
1000
0000
1000
0001
,
1000
0000
1000
0010
0000
0000
0220
0000
,
0330
0000
0001
0100
0001
0000
0001
1000
,
0001
0000
0001
0010
0000
0000
0220
0000
,
0330
0000
1000
0100
1000
0000
1000
0001
,
1000
0000
0020
0000
0130
0000
0100
0001
,
0100
0000
0001
1000
0001
0000
0010
0000
,
0010
0000
0100
1000
0000
0000
0010
0100
,
0000
0000
0010
0100
0000
0000
0001
0000
,
1000
0000
0000
0000
0100
0000
0000
0100
0000
0000
1000
0000
0000
0000
1001
0000
,
0000
0000
0001
0010
0000
0100
0010
0000
,
0010
0000
0000
0100
1000
0000
0001
1000
,
0000
0000
0001
1000
0000
0000
0001
0000
,
0100
0000
0000
0000
0010
0000
0000
0010
0000
0000
0010
0000
0000
0000
0000
0000
,
1001
0000
1000
0000
0100
0000
1000
0001
,
1000
0001
0100
0000
0010
0000
2002
0000
,
0000
0000
0000
0000
,
0000
0000
0000
3003
;

//--------------- dance-single - forcednature ----------------
#NOTEDATA:;
#STEPSTYPE:dance-single;
#DESCRIPTION:forcednature;
#CREDIT:forcednature;
#DIFFICULTY:Medium;
#METER:15;
#RADARVALUES:0,0,0,0,0;
#NOTES:
0000
0000
0000
0000
,
0000
0000
0000
0000
,
0000
0000
0000
0000
,
2001
0001
0001
0001
,
0001
0001
3010
0000
,
0220
0000
0000
0000
,
0000
0000
0000
0330
,
1001
0000
0110
0000
0001
1000
0100
0000
,
1000
1000
0001
0000
0100
0010
1000
0000
,
2002
0000
0000
0000
,
0000
0000
3003
0000
,
1000
0000
0000
0100
0000
0000
1100
0000
0000
0000
0000
0000
0010
0000
0010
0000
,
0000
0000
0000
0000
,
0001
0000
0000
0100
0000
0000
0101
0000
0000
0000
1000
0000
0010
0000
0010
0000
,
0000
0000
0110
1001
,
1000
0000
0000
0010
0000
0000
1010
0000
0000
0000
0000
0000
0100
0000
0100
0000
,
0000
0000
0000
0000
,
1001
0010
1001
0100
,
1001
0110
0000
1001
,
1000
0100
0010
0100
1000
0000
0001
0100
,
0001
0000
1000
0100
1000
0000
1001
0000
,
0001
0100
0010
0100
0001
0000
1000
0100
,
1000
0000
0001
0100
0001
0000
0110
0000
,
0010
1000
0001
0100
0010
0000
1000
0001
,
0010
0000
0001
1000
0010
0000
0110
0000
,
0100
0001
1000
0100
1000
0001
1000
0000
,
0010
0100
0001
0000
0010
0000
2001
0000
,
0100
0000
3010
0100
0010
0000
0100
0001
,
0010
0000
0100
1000
0001
0000
1002
0000
,
0100
0000
0013
0100
0010
0000
0100
1000
,
0010
0000
0000
0000
0100
0000
0000
0100
0000
0000
0001
0000
2000
0000
0000
0000
,
0010
0000
3001
0010
0100
0000
0010
0001
,
1000
0000
0010
0100
0001
0000
1001
0000
,
1000
0100
0010
0001
0100
0000
0110
0000
,
0110
0000
0000
0000
0001
1000
0100
1000
,
0001
1000
0100
0000
0010
0001
0010
0001
,
0100
0010
1000
0000
1000
0001
0100
0001
,
1000
0001
0100
0000
0010
1000
0010
1000
,
0100
0010
0001
0000
0100
0010
0100
0010
,
1000
0001
0010
0000
0100
1000
0100
1000
,
0001
0100
0010
0000
2010
0000
3100
0000
,
0012
0000
0103
0001
1000
0000
0001
0000
,
1010
0000
1010
0000
0010
0100
0010
0100
,
0001
0100
0001
0100
0010
1000
0100
1000
,
0001
1000
0100
0000
0010
0001
0010
0001
,
1000
0001
1000
0001
0100
0010
1000
0001
,
0100
0000
0000
0100
0000
0000
0010
0000
1000
0000
0000
0000
0001
0000
0010
0000
,
0001
1000
0010
1000
0001
0010
0100
1000
,
0001
0000
0100
0010
0100
0000
0110
0000
,
1010
0000
1000
0001
0010
0000
0110
0000
,
0100
0000
1000
0000
0001
0000
1000
0000
0200
0000
0000
0000
0000
0000
0310
0001
,
0010
0000
0100
0000
1000
0000
0001
0000
0200
0000
0000
0000
0000
0000
0310
1000
,
0010
0000
0100
0000
0001
0000
1000
0000
0020
0000
0000
0000
0000
0000
0130
0001
,
0100
0000
0010
0000
1000
0000
0001
0000
0020
0000
0000
0000
0000
0000
0130
1000
,
0001
0000
0100
0000
0010
0000
1000
0000
1001
0000
0000
0001
0010
0000
0000
0100
,
1000
0000
0010
0000
0100
0000
0000
0000
1001
0000
0000
1000
0010
0000
0000
0100
,
0001
0000
0010
0000
0100
0000
0000
0000
1001
0000
0000
1000
0100
0000
0000
0001
,
0100
0000
1000
0000
0010
0000
0000
0000
1001
0000
0000
0001
0100
0000
0000
1000
,
0100
0000
0001
0000
0020
0000
0000
0000
0130
1000
0100
0000
0010
0001
0010
0000
,
0002
0000
0203
0000
0320
0000
2030
0000
3001
0010
0100
0000
1000
0001
0100
0000
,
0020
0000
0000
0000
,
1030
0100
0001
0100
1000
0001
0010
0000
,
0100
1000
0010
0100
0001
0010
0001
0000
,
2000
0000
3010
0002
0000
0013
0100
0010
,
0000
1000
0001
1000
0100
0010
0001
1000
,
0020
0000
0000
0000
0130
0000
0001
0000
0010
0000
0000
0010
0000
0000
0100
0000
,
2000
0000
0000
0000
3001
0000
0100
0000
1000
0000
0000
0100
0000
0000
0001
0000
,
0200
0000
0310
1000
0001
0010
0100
1000
,
0010
0000
0000
0010
0000
0000
0100
0000
0001
0000
1000
0000
0002
0000
0000
0000
,
0013
0100
1000
0010
0100
0001
0010
0000
,
0001
0100
1000
0100
0001
1000
0001
0000
,
2000
0000
3100
0002
0000
0103
0010
0100
,
0000
1000
0001
1000
0100
0010
0001
1000
,
0020
0000
0000
0000
0130
0000
0001
0000
0010
0000
0000
0100
0000
0000
1000
0000
,
0020
0000
0000
0000
0130
0000
1000
0000
0100
0000
0000
0001
0000
0000
0010
0000
,
0200
0000
0310
0001
0100
0010
1000
0100
,
0000
0000
0110
0000
0000
0000
0010
0000
0001
0000
1000
0001
1000
0000
0001
0000
,
0200
0000
0000
0000
,
0000
0000
0000
0300
,
0001
0001
1000
0001
1000
1000
0001
1000
,
0010
0000
0000
0000
0110
0000
0000
0000
2002
3003
0000
0000
1000
0000
0000
0000
,
0001
0010
2000
0000
3010
0000
0001
0010
,
0100
1000
0001
0100
0010
1000
0001
0000
,
1000
0010
0002
0000
0013
0000
1000
0010
,
0100
0001
1000
0100
1000
0001
0010
0000
,
1000
0010
0002
0000
0103
0000
0001
1000
,
0010
0100
0001
1000
0100
0010
0001
1000
,
0100
1000
0001
1000
0010
1000
0100
0010
,
0100
0010
0001
1000
0000
0000
1001
0000
,
1000
0010
0001
0010
1000
0010
0001
0010
,
1000
0010
0001
0010
1000
0000
1001
0000
,
0001
0010
1000
0010
0001
0010
1000
0010
,
0001
0010
1000
0010
0001
1000
0001
0000
,
0100
1000
0100
0001
0100
1000
0100
0001
,
0100
1000
0100
0001
1000
0000
0001
0010
,
1000
0010
0001
0100
1000
0100
0001
0001
,
1000
1000
0010
0100
0002
0000
1003
0100
,
0000
0100
0010
0100
0000
0011
0000
0010
,
0001
0000
1000
0000
0010
0000
0000
0010
0000
0000
0100
0000
0000
0000
0101
0000
,
0000
0001
1000
0001
0000
1000
0100
0001
,
0100
1000
0000
1000
0020
0000
0130
0001
,
0000
0001
0010
0001
0000
0110
0000
0100
,
1000
0000
0001
0000
1000
0000
0000
1000
0000
0000
0010
0000
0000
0000
0100
0000
,
0002
0000
0013
0100
2000
0000
3001
0100
,
0010
0000
0100
0000
0001
1000
0001
0000
1000
0001
1000
0000
0020
0000
0000
0000
,
0000
0000
0000
0000
,
0000
0000
0000
0030
;

//--------------- dance-single - forcednature ----------------
#NOTEDATA:;
#STEPSTYPE:dance-single;
#DESCRIPTION:forcednature;
#CREDIT:forcednature;
#DIFFICULTY:Hard;
#METER:18;
#RADARVALUES:0,0,0,0,0;
#NOTES:
0000
0000
0000
0000
,
0000
0000
0000
0000
,
0000
0000
0000
0000
,
0001
1000
0001
1000
0001
1000
0001
1000
0001
1000
0001
1000
,
0001
1000
0001
1000
0001
1000
0001
0000
0000
0000
0000
0000
,
2002
0000
0000
0000
,
0000
0000
0000
3003
,
1001
0000
1100
0000
0001
0010
0110
0000
,
1000
0001
0101
0000
1000
0010
0110
0000
,
2002
0000
0000
0000
,
0000
0000
3003
0000
,
1001
0000
0000
1100
0000
0000
1001
0000
0000
0000
0000
0000
0001
0000
0011
0000
,
0000
0000
0000
0000
,
1001
0000
0000
0101
0000
0000
1001
0000
0000
0000
1000
0000
0010
0000
1010
0000
,
0000
0000
0110
0110
,
0101
0000
0000
1100
0000
0000
0101
0000
0000
0000
0000
0000
0010
0000
1001
0000
,
0000
0000
0000
0000
0000
0000
0000
0000
1000
0000
0001
0000
1000
0000
0001
1000
,
0002
0000
0000
0000
0103
0000
0010
0100
0020
0000
0000
0000
1030
0000
0001
1000
,
0001
0010
0100
0010
0000
0000
1001
0000
,
0001
0010
0001
1000
0010
1000
0001
0100
,
1000
0000
0100
0000
0001
0000
0100
0000
0010
0100
0010
0000
2000
0000
0000
0000
,
3001
1000
0100
1000
0001
1000
0100
0001
,
0100
0000
1000
0000
0001
0000
1000
0001
1000
0000
0001
0000
0200
0000
0000
0000
,
0310
1000
0001
1000
0010
0100
0001
0100
,
1000
0000
0100
0000
0010
0000
1000
0000
0001
1000
0001
1000
0002
0000
0000
0000
,
0103
0010
1000
0001
1000
0100
0010
0001
,
0010
1000
0010
0000
0110
0000
1001
0000
,
0001
0000
0010
0000
0100
0000
0010
0000
0001
0000
1000
0000
0010
0000
0100
0010
,
0100
0000
0001
0000
1000
0000
0001
0000
0100
0010
0100
0010
2000
0000
0000
0000
,
3001
0000
0100
0000
0001
0000
1000
0000
0100
0000
0010
0000
0001
0000
1000
0001
,
1000
0000
0010
0000
0100
0000
0000
0101
0000
0000
1010
0000
0020
0000
0000
0000
,
0130
0000
0001
0000
1000
0000
0001
0000
0100
0000
0010
0000
1000
0000
0001
1000
,
0001
0000
0010
0000
0100
0000
1000
0000
0001
1000
0001
1000
0020
0000
0000
0000
,
0130
0000
0001
0000
0100
0000
0010
0100
0010
0000
1000
0000
1001
0000
0000
0000
,
1001
0000
0000
0000
0001
0010
0100
0010
,
0001
1000
0100
1000
0001
0100
1000
0100
,
0001
0000
0100
0000
0010
0100
0010
0100
0001
0000
1000
0000
0010
0000
1000
0000
,
0001
0000
0100
0000
0010
0000
0100
0000
0001
0000
1000
0001
1000
0000
0100
0000
,
0010
0000
0100
0010
0100
0000
0010
0000
0001
0000
1000
0000
0010
0000
1000
0000
,
0001
0010
0001
1000
0100
0001
0100
1000
,
0100
0000
0001
0000
0100
0010
0100
0010
0001
0000
1000
0000
0010
0000
1000
0000
,
0001
0010
0001
0001
1000
0001
1000
0000
,
1100
0000
1100
0000
0001
0100
0010
0100
,
1000
0100
0001
0100
0010
1000
0001
0100
,
0010
0000
1000
0000
0001
1000
0001
1000
0001
0000
0010
0000
0100
0000
0010
0000
,
1000
0000
0010
0000
0001
0000
1000
0000
0100
0000
0010
0000
0100
0000
0010
0001
,
0010
0000
0000
0011
0000
0000
1100
0000
1000
0000
0010
0000
0100
0000
0001
0000
,
0010
0000
0100
0000
1000
0000
0001
1000
0001
0000
0100
0000
0010
0000
1000
0000
,
0100
0000
0010
0000
0001
1000
0001
1000
0001
0000
0100
0000
0010
0000
1000
0000
,
0001
0010
0001
0001
1000
0010
1000
0001
,
0100
0010
0100
0000
0010
0000
1000
0000
2002
0000
0000
3003
0000
0000
0001
0010
,
0100
0000
1000
0000
0010
0000
0100
0000
2002
0000
0000
3003
0000
0000
1000
0010
,
0100
0000
0001
0000
0010
0000
0100
0000
2002
0000
0000
3003
0000
0000
0001
0100
,
1000
0000
0100
0000
0001
0000
0010
0000
0220
0000
0000
0330
0000
0000
1000
0100
,
0001
0000
0100
0000
1000
0000
0010
0000
0110
0000
0100
0001
1000
0000
0010
1000
,
1000
0000
0001
0010
0100
0000
0110
0000
1001
0000
1000
0001
0100
0000
0001
1000
,
1000
0000
0100
0010
0001
0000
0100
0000
0110
0000
0010
1000
0001
0000
0010
0100
,
0100
0000
0010
0001
1000
0000
0010
0000
0110
0000
0100
0001
1000
0000
0100
0010
,
0002
0000
0100
0000
2000
0000
0000
3003
0001
0010
0001
0100
0010
1000
0100
0010
,
0001
0000
0000
0000
0001
0000
0010
0000
0000
0000
0010
0000
0100
0000
0000
0000
0100
0000
1000
0000
0000
0000
1000
0000
0010
0000
0000
0100
0000
0000
0001
0000
0000
0010
0000
0000
0100
0000
0000
1000
0000
0000
0001
0000
0000
0100
0000
0000
,
0020
0000
0000
0030
,
1000
0000
0010
1000
0001
0000
0100
0000
0001
0100
0001
0000
1000
0000
0001
0000
,
0010
0100
0010
0000
0100
0000
1000
0000
0001
0000
0100
0000
0010
0000
1000
0000
,
0001
1000
0100
1000
0001
0000
1000
0001
0100
0001
1000
0000
0010
0000
0100
0000
,
0001
0000
1000
0000
0100
0000
1000
0000
0001
0000
0010
0100
1000
0100
0010
0000
,
0001
0000
0100
0000
0010
0000
1000
0001
0010
0000
0000
0011
0000
0000
1100
0000
,
1000
0000
0001
0000
0100
0000
0001
1000
0010
0000
0000
0110
0000
0000
1001
0000
,
1000
0000
0100
0000
0010
0100
0010
0000
0001
0000
0100
0001
1000
0001
0100
0000
,
0010
0000
0100
0010
1000
0000
0001
0000
0010
0100
0010
0100
2000
0000
0000
0000
,
3001
0000
1000
0001
0100
0000
0010
0000
1000
0010
0100
0000
0001
0000
1000
0000
,
0100
0010
0100
0000
0010
0000
0001
0000
1000
0000
0010
0000
0100
0000
0001
0000
,
1000
0001
0010
0001
1000
0000
0001
1000
0010
1000
0001
0000
0100
0000
0010
0000
,
1000
0000
0010
0000
0100
0000
0001
0000
1000
0000
0001
0010
0100
0010
0001
0000
,
1000
0000
0010
0000
0100
0000
0001
1000
0100
0000
0000
1100
0000
0000
0011
0000
,
0001
0000
1000
0000
0010
0000
1000
0001
0100
0000
0000
0110
0000
0000
1001
0000
,
0001
0000
0010
0000
0100
0010
0100
0000
1000
0000
0010
1000
0001
0000
0200
0000
,
0000
0000
0301
1000
0001
0000
0010
0000
0100
1000
0100
0010
0001
0000
1000
0000
,
0020
1000
1000
1000
,
0100
0001
0100
1030
,
1000
0001
1000
0001
0100
0000
0010
0000
1000
0001
1000
0001
0100
0000
0010
0000
,
1000
0001
1000
0000
0001
1000
0001
0000
0020
0030
0000
0000
0100
0000
1000
0000
,
0010
1000
0002
0010
1003
0001
1000
0010
,
0100
0000
0010
0000
0001
0000
0010
0000
1000
0001
1000
0001
1000
0000
0100
0000
,
0010
0100
2000
0001
3100
1000
0010
0100
,
1000
0000
0100
0000
0010
0000
0100
0001
1000
0000
1000
0000
0001
0000
0010
0000
,
0100
0010
0002
0100
1003
0001
0010
0100
,
0010
0000
1000
0000
0010
0000
0001
0000
1000
0001
1000
0001
0010
0000
0100
0000
,
1000
0100
1000
0000
0001
0100
0001
0000
1000
0100
1000
0000
0001
0000
0001
0000
,
0001
1000
0010
0110
0000
0000
2000
0000
,
3001
0000
1000
0000
0001
0100
0010
0000
1000
0010
0100
0000
0001
0100
0010
0000
,
1000
0010
0100
0000
0001
0100
0010
0000
1000
0000
0000
0000
0002
0000
0000
0000
,
1003
0000
0001
0000
1000
0100
0010
0000
0001
0010
0100
0000
1000
0100
0010
0000
,
0001
0010
0100
0000
1000
0100
0010
0000
0001
0000
1000
0000
0002
0000
0000
0000
,
0103
0000
0010
0000
1000
0001
0100
0000
0001
1000
0010
0000
1000
0001
0100
0000
,
0001
1000
0010
0000
1000
0001
0100
0000
0020
0000
0000
0000
1030
0001
1000
0001
,
1000
0000
0100
0000
1000
0001
1000
0001
1000
0000
0010
0000
0100
0010
0100
0010
,
0100
0000
0010
0100
0001
0000
1000
0000
0200
0000
0000
0000
0310
0000
0100
0000
,
0000
0000
0010
0001
0010
0000
0100
0000
0000
0000
0110
0000
0000
0000
0100
1000
,
0100
0000
1000
0000
0001
0000
0000
0101
0000
0000
1010
0000
0000
0000
1001
0000
,
0000
0000
1000
0001
1000
0000
0010
0000
0000
0000
0100
0000
0100
0000
0001
0000
,
0100
0000
0001
0000
0000
0000
0100
0010
2000
0000
0000
0000
3100
0000
0010
0000
,
0000
0000
0100
1000
0100
0000
0010
0000
0000
0000
0110
0000
0000
0000
0010
0001
,
0010
0000
0001
0000
1000
0000
0000
1010
0000
0000
0101
0000
0000
0000
0001
1000
,
0200
0000
0000
0000
0310
0100
1000
0100
0010
0000
0001
0000
1000
0001
1000
0001
,
1000
0001
1000
0001
1000
0001
1000
0001
1000
0001
1000
0001
0200
0000
0000
0000
,
0000
0000
0000
0000
,
0000
0000
0000
0300
;

//--------------- dance-double - forcednature ----------------
#NOTEDATA:;
#STEPSTYPE:dance-double;
#DESCRIPTION:forcednature;
#CREDIT:forcednature;
#DIFFICULTY:Easy;
#METER:11;
#RADARVALUES:0,0,0,0,0;
#NOTES:
00000000
00000000
00000000
00000000
,
00000000
00000000
00000000
00000000
,
00000000
00000000
00000000
00000000
,
00010000
00001000
00010000
00001000
,
00010000
00001000
00010000
00000000
,
00022000
00000000
00000000
00000000
,
00000000
00000000
00000000
00033000
,
00011000
00000000
00100000
00000000
00000000
00010000
00100000
00000000
,
00001000
00010000
00001000
00000000
00000000
00010000
00000010
00000000
,
00002020
00000000
00000000
00000000
,
00000000
00000000
00003030
00000000
,
00001000
00000000
00000000
00001000
00000000
00000000
00001000
00000000
00000000
00000000
00000000
00000000
00000001
00000000
00000010
00000000
,
00000000
00000000
00000000
00000000
,
00000100
00000000
00000000
00000100
00000000
00000000
00000100
00000000
00000000
00000000
00000000
00000000
00010000
00000000
00001000
00000000
,
00000000
00000000
00100000
00010000
,
10000000
00000000
00000000
10000000
00000000
00000000
10000000
00000000
00000000
00000000
00000000
00000000
00010000
00000000
01000000
00000000
,
00000000
00000000
00000000
00000000
,
00022000
00033000
00022000
00033000
,
00011000
00011000
00000000
00000100
,
00001000
00000100
00000010
00000001
,
00000100
00000010
00000010
00001000
,
00000100
00010000
00001000
01000000
,
00010000
00100000
00100000
01000000
,
10000000
00010000
01000000
00010000
,
00100000
00001000
00001000
00010000
,
00000100
00001000
00000100
00000010
,
00000001
00000100
00000000
00000110
,
00000010
00000000
00001000
00000010
00001000
00000000
00000100
00000000
,
00010000
00001000
00000000
00011000
,
00010000
00000000
00001000
00100000
00001000
00000000
00100000
00000000
,
00010000
00000000
00000000
00000000
01000000
00000000
00000000
01000000
00000000
00000000
01000000
00000000
00010000
00000000
00000000
00000000
,
00000000
00000000
10000000
00000000
01000000
00000000
00100000
01000000
,
00100000
00001000
00010000
00022000
,
00033000
00022000
00033000
00011000
,
00011000
00000000
00001000
00000010
,
00000001
00000000
00000010
00000000
00000001
00001000
00000001
00000000
,
00001000
00000001
00001000
00000000
00000010
00000000
00000100
00000000
,
00001000
00000000
00010000
00000000
00001000
00010000
00001000
00000000
,
00010000
00001000
00010000
00000000
00100000
00000000
01000000
00000000
,
00100000
00000000
10000000
00000000
00010000
10000000
00010000
00000000
,
10000000
00010000
10000000
00000000
01000000
00000000
00100000
00000000
,
01000000
00000000
00100000
00010000
00100000
00000000
00001000
00000000
,
00011000
00011000
00010000
00000100
,
00001000
00000010
00001000
00000000
00000001
00000010
00000001
00000000
,
00001000
00000010
00010000
00001000
,
01000000
00010000
01000000
00000000
00100000
10000000
00100000
00000000
,
01000000
00000000
00000000
01000000
00000000
00000000
01000000
00000000
00010000
00000000
00000000
00000000
00100000
00000000
00000000
00000000
,
00001000
00010000
00001000
00000000
00010000
00000100
00010000
00000000
,
00000100
00001000
00001010
00000001
,
00000011
00000000
00001000
00000000
00000100
00000000
00010000
00001000
,
00010000
00001000
00022000
00033000
,
00010000
00100000
10000000
00000000
20020000
00000000
30030000
00000000
,
10000000
01000000
00010000
00000000
00022000
00000000
00033000
00000000
,
00001000
00000010
00000001
00000000
00002002
00000000
00003003
00000000
,
00000001
00000100
00001000
00000000
00010000
00000000
00011000
00000000
,
00000000
00100000
00010000
00000000
01000000
00000000
01010000
00000000
,
00000000
00001000
00010000
00000000
00001000
00000000
00011000
00000000
,
00000000
00000100
00001000
00000000
00000010
00000000
00001010
00000000
,
00000000
00000001
00000010
00000000
00000100
00000000
00000100
00000000
,
00000010
00000001
00000100
00001000
00010000
00000000
00100000
01000000
,
00200000
00000000
00000000
00000000
,
10300000
00010000
10000000
00000000
01000000
00000000
00010000
00000000
,
00001000
00000100
00000010
00000100
,
00000001
00000000
00000001
00001000
00000000
00001000
00000001
00000000
,
00000010
00000000
00000100
00000000
00001000
00000100
00001000
00000000
,
00000010
00000000
00000000
00000000
00010000
00000000
00000000
00000000
00001000
00000000
00000000
00001000
00000000
00000000
00010000
00000000
,
00001000
00000000
00000000
00000000
00100000
00000000
00000000
00000000
00010000
00000000
00000000
00010000
00000000
00000000
01000000
00000000
,
00010000
00000000
10000000
00000000
01000000
00100000
01000000
00000000
,
00100000
00000000
00001000
00010000
00002000
00000000
00000000
00003000
,
00010000
00001000
00010000
00000000
00000010
00000000
00001000
00000000
,
00000100
00000010
00001000
00010000
,
01000000
00000000
01000000
00100000
00000000
00100000
01000000
00000000
,
10000000
00000000
00010000
00000000
00100000
00010000
00100000
00000000
,
00001000
00000000
00000000
00000000
00010000
00000000
00000000
00000000
00000010
00000000
00000000
00000010
00000000
00000000
00001000
00000000
,
00000010
00000000
00000000
00000000
00000100
00000000
00000000
00000000
00000001
00000000
00000000
00000010
00000000
00000000
00000100
00000000
,
00001000
00000000
00000100
00000000
00010000
00001000
00010000
00001000
,
00000000
00001000
00010000
00000000
00100000
00000000
01000000
00000000
,
02200000
00000000
00000000
00000000
,
00000000
00000000
00000000
03300000
,
00010000
10000000
00010000
00000000
10000000
00010000
10000000
00000000
,
01000000
00000000
00000000
00000000
00100000
00000000
00000000
00000000
00002000
00003000
00000000
00000000
00010000
00000000
00000000
00000000
,
00000100
00000000
00002200
00000000
00003300
00000000
00001000
00000010
,
00001000
00000001
00000010
00000100
,
00010000
00000000
00022000
00000000
00033000
00000000
00001000
00100000
,
00001000
00100000
00010000
01000000
,
00100000
00000000
02200000
00000000
03300000
00000000
10000000
00100000
,
10000000
00010000
00100000
00001000
,
00010000
00001000
00010000
00000000
00000100
00000000
00001000
00000000
,
00000010
00000000
00000010
00000100
00000000
00000000
00000220
00000000
,
00000330
00000001
00000100
00001000
,
00010000
01000000
10000000
20020000
,
30030000
10000000
01000000
00010000
,
00001000
00000100
00000001
00002002
,
00003003
00000001
00000010
00001000
,
00010000
00000000
00001000
00100000
00010000
00000000
01000000
00010000
,
01000000
00000000
00010000
10000000
00010000
00000000
00100000
00000000
,
00100000
00000000
01000000
00000000
00010000
00000000
00001000
00010000
,
00000000
00000000
00001000
00010000
00000000
00000000
00000100
00000000
,
00001000
00000000
00000000
00000000
00000010
00000000
00000000
00000010
00000000
00000000
00000010
00000000
00000000
00000000
00000100
00000000
,
00000000
00000000
00000001
00000100
00000000
00000010
00000100
00000000
,
00000100
00000000
00000000
00000010
00010000
00000000
00001000
00010000
,
00000000
00000000
00001000
00010000
00000000
00000000
00001000
00000000
,
00100000
00000000
00000000
00000000
00010000
00000000
00000000
00010000
00000000
00000000
00010000
00000000
00000000
00000000
00000000
00000000
,
10010000
00000000
10000000
00000000
01000000
00000000
00100000
00010000
,
00100000
00001000
00010000
00022000
,
00000000
00000000
00000000
00000000
,
00000000
00000000
00000000
00033000
;

//--------------- dance-double - forcednature ----------------
#NOTEDATA:;
#STEPSTYPE:dance-double;
#DESCRIPTION:forcednature;
#CREDIT:forcednature;
#DIFFICULTY:Medium;
#METER:15;
#RADARVALUES:0,0,0,0,0;
#NOTES:
00000000
00000000
00000000
00000000
,
00000000
00000000
00000000
00000000
,
00000000
00000000
00000000
00000000
,
00012000
00010000
00010000
00010000
,
00010000
00010000
00103000
00000000
,
02200000
00000000
00000000
00000000
,
00000000
00000000
00000000
03300000
,
11000000
00000000
10100000
00000000
00100000
01000000
00001000
00000000
,
00010000
00010000
00000010
00000000
00000100
00000001
00000010
00000000
,
00000220
00000000
00000000
00000000
,
00000000
00000000
00000330
00000000
,
00000100
00000000
00000000
00010000
00000000
00000000
00011000
00000000
00000000
00000000
00000000
00000000
00100000
00000000
00100000
00000000
,
00000000
00000000
00000000
00000000
,
00010000
00000000
00000000
01000000
00000000
00000000
01010000
00000000
00000000
00000000
10000000
00000000
00100000
00000000
00100000
00000000
,
00000000
00000000
01100000
01010000
,
00010000
00000000
00000000
00100000
00000000
00000000
00101000
00000000
00000000
00000000
00000000
00000000
00000100
00000000
00000100
00000000
,
00000000
00000000
00000000
00000000
,
00011000
00100000
00011000
00000010
,
00011000
00011000
00000000
00010100
,
00000100
00001000
00000001
00001000
00000100
00000000
00000010
00000001
,
00000010
00000000
00000001
00000100
00000001
00000000
00000110
00000000
,
00000010
00001000
00000010
00010000
00001000
00000000
01000000
00010000
,
01000000
00000000
00010000
00100000
00010000
00000000
01100000
00000000
,
01000000
10000000
00010000
10000000
01000000
00000000
00100000
00010000
,
00100000
00000000
00001000
00010000
00001000
00000000
00011000
00000000
,
00010000
00000010
00001000
00000010
00010000
00001000
00010000
00000000
,
00000100
00001000
00000100
00000000
00000010
00000000
00001002
00000000
,
00000100
00000000
00001003
00000010
00001000
00000000
00000100
00010000
,
00001000
00000000
00100000
00010000
01000000
00000000
10020000
00000000
,
01000000
00000000
10030000
00100000
10000000
00000000
01000000
00100000
,
00010000
00000000
00000000
00000000
01000000
00000000
00000000
01000000
00000000
00000000
00001000
00000000
00020000
00000000
00000000
00000000
,
00000100
00000000
00031000
00100000
00001000
00000000
00010000
00000010
,
00001000
00000000
00000001
00000010
00000100
00000000
00000110
00000000
,
00000010
00000100
00001000
00000010
00010000
00000000
00011000
00000000
,
00011000
00000000
00000000
00000000
00001000
00100000
00010000
00100000
,
00001000
00100000
00010000
00000000
01000000
00100000
01000000
00100000
,
10000000
00010000
01000000
00000000
00001000
00010000
00000100
00010000
,
00001000
00010000
00000100
00000000
00001000
00000010
00001000
00000010
,
00000100
00000001
00000010
00000000
00000100
00001000
00000100
00010000
,
00000100
00001000
00000100
00000000
00010000
00001000
00010000
00001000
,
01000000
00010000
00100000
00000000
02100000
00000000
13000000
00000000
,
01200000
00000000
00310000
00100000
00001000
00000000
00010000
00000000
,
00011000
00000000
00011000
00000000
00001000
00000010
00001000
00000010
,
00000001
00000010
00000001
00000010
00000100
00001000
00000100
00010000
,
00001000
00100000
00010000
00000000
10000000
00100000
10000000
00100000
,
00010000
00100000
00010000
00100000
10000000
00100000
01000000
00010000
,
00100000
00000000
00000000
00100000
00000000
00000000
00001000
00000000
00010000
00000000
00000000
00000000
00000100
00000000
00001000
00000000
,
00000001
00000100
00000001
00001000
00000100
00010000
00001000
00100000
,
00001000
00000000
00010000
01000000
10000000
00000000
11000000
00000000
,
10100000
00000000
00100000
01000000
00001000
00000000
00011000
00000000
,
00010000
00000000
00000010
00000000
00001000
00000000
00000010
00000000
00000200
00000000
00000000
00000000
00000000
00000000
00000301
00001000
,
00000001
00000000
00000010
00000000
00000100
00000000
00010000
00000000
00002000
00000000
00000000
00000000
00000000
00000000
00103000
00010000
,
00100000
00000000
01000000
00000000
10000000
00000000
00010000
00000000
02000000
00000000
00000000
00000000
00000000
00000000
03010000
10000000
,
00010000
00000000
00100000
00000000
00001000
00000000
00010000
00000000
00000200
00000000
00000000
00000000
00000000
00000000
00001300
00000001
,
00000010
00000000
00000100
00000000
00010000
00000000
00001000
00000000
00011000
00000000
00000000
00010000
00100000
00000000
00000000
10000000
,
00100000
00000000
01000000
00000000
00001000
00000000
00000000
00000000
00011000
00000000
00000000
00010000
00000100
00000000
00000000
00000100
,
00001000
00000000
00000010
00000000
00000100
00000000
00000000
00000000
00000101
00000000
00000000
00000001
00000010
00000000
00000000
00000100
,
00001000
00000000
00000010
00000000
00010000
00000000
00000000
00000000
00011000
00000000
00000000
00001000
01000000
00000000
00000000
00010000
,
00100000
01000000
20000000
00000000
30100000
01000000
00100000
00010000
,
00002000
00000000
00003020
00000000
00000230
00000000
00000302
00000000
00000103
00001000
00000100
00000000
00010000
00001000
01000000
00000000
,
00200000
00000000
00000000
00000000
,
10300000
01000000
00010000
00001000
01000000
00010000
00100000
00000000
,
01000000
00100000
00001000
00010000
00000100
00000010
00000001
00000000
,
00000200
00000000
00001300
00020000
00000000
00130000
01000000
00100000
,
00000000
10000000
00010000
10000000
01000000
00100000
00010000
01000000
,
00002000
00000000
00000000
00000000
00013000
00000000
00000010
00000000
00001000
00000000
00000000
00001000
00000000
00000000
00000001
00000000
,
00000200
00000000
00000000
00000000
00001300
00000000
00000100
00000000
00000001
00000000
00000000
00000010
00000000
00000000
00001000
00000000
,
00020000
00000000
00030100
00001000
00000100
00010000
00001000
00100000
,
00010000
00000000
00000000
01000000
00000000
00000000
00100000
00000000
10000000
00000000
00010000
00000000
20000000
00000000
00000000
00000000
,
31000000
00100000
00001000
00010000
00000100
00010000
00001000
00000010
,
00000000
00000001
00000100
00000001
00001000
00000100
00000010
00000000
,
00002000
00000000
00013000
00000200
00000000
00010300
00001000
00100000
,
00000000
00010000
01000000
00010000
10000000
00100000
01000000
00010000
,
00200000
00000000
00000000
00000000
01300000
00000000
00100000
00000000
00001000
00000000
00000000
00001000
00000000
00000000
00010000
00000000
,
00000200
00000000
00000000
00000000
00001300
00000000
00000001
00000000
00000010
00000000
00000000
00001000
00000000
00000000
00010000
00000000
,
00002000
00000000
00103000
00010000
01000000
00100000
10000000
01000000
,
00000000
00000000
01100000
00000000
00000000
00000000
00100000
00000000
00001000
00000000
00010000
00001000
00010000
00000000
00000100
00000000
,
00002000
00000000
00000000
00000000
,
00000000
00000000
00000000
00003000
,
00000001
00000001
00000100
00000001
00001000
00001000
00000100
00010000
,
00001000
00000000
00100000
00000000
00001000
00000000
00000000
00000000
00022000
00033000
00000000
00000000
01000000
00000000
00000000
00000000
,
00010000
00100000
20000000
00000000
30100000
00000000
00010000
00100000
,
00001000
00010000
00000100
00001000
00000010
00000100
00000001
00000000
,
00001000
00000010
00000002
00000000
00000013
00000000
00001000
00000010
,
00010000
00001000
01000000
00010000
00100000
01000000
10000000
00000000
,
00010000
00100000
20000000
00000000
30100000
00000000
00010000
00100000
,
00001000
00010000
00000100
00001000
00000010
00000100
00000001
00001000
,
00000100
00010000
00001000
00100000
00010000
10000000
00100000
01000000
,
00100000
00010000
00001000
00010000
00000000
00000000
00011000
00000000
,
00001000
00000010
00000001
00000010
00001000
00000010
00000001
00000010
,
00001000
00000010
00000001
00000010
00001000
00000000
00011000
00000000
,
00010000
00100000
10000000
00100000
00010000
00100000
10000000
00100000
,
00010000
00100000
10000000
00100000
00010000
00001000
00010000
00000000
,
00001000
00000100
00000001
00000100
00001000
00000100
00000001
00000100
,
00001000
00000100
00000001
00000100
00001000
00000000
00010000
00100000
,
10000000
00100000
00010000
00001000
00010000
01000000
00100000
00100000
,
01000000
01000000
10000000
01000000
00020000
00000000
00031000
00000010
,
00000000
00000010
00000100
00000010
00000000
00000110
00000000
00000100
,
00001000
00000000
00000001
00000000
00000100
00000000
00000000
00001000
00000000
00000000
00010000
00000000
00000000
00000000
00011000
00000000
,
00000000
00001000
00010000
00001000
00000000
01000000
00010000
00100000
,
00010000
01000000
00000000
01000000
00200000
00000000
10300000
01000000
,
00000000
01000000
00100000
00001000
00000000
00011000
00000000
00010000
,
00000100
00000000
00001000
00000000
00000010
00000000
00000000
00000010
00000000
00000000
00000100
00000000
00000000
00000000
00000001
00000000
,
00000020
00000000
00000130
00010000
00002000
00000000
01003000
00010000
,
00100000
00000000
00010000
00000000
10000000
00000000
00100000
00000000
01000000
00100000
01000000
00000000
00020000
00000000
00000000
00000000
,
00000000
00000000
00000000
00000000
,
00000000
00000000
00000000
00030000
;

//--------------- dance-double - forcednature ----------------
#NOTEDATA:;
#STEPSTYPE:dance-double;
#DESCRIPTION:forcednature;
#CREDIT:forcednature;
#DIFFICULTY:Hard;
#METER:18;
#RADARVALUES:0,0,0,0,0;
#NOTES:
00000000
00000000
00000000
00000000
,
00000000
00000000
00000000
00000000
,
00000000
00000000
00000000
00000000
,
00001000
00010000
00001000
00010000
00001000
00010000
00001000
00010000
00001000
00010000
00001000
00010000
,
00001000
00010000
00001000
00010000
00001000
00010000
00001000
00000000
00000000
00000000
00000000
00000000
,
00202000
00000000
00000000
00000000
,
00000000
00000000
00000000
00303000
,
10010000
00000000
11000000
00000000
01000000
00010000
00011000
00000000
,
00010100
00000000
00000100
00000010
00000001
00000000
00000000
00000000
00000001
00000100
00001000
00000000
00011000
00000000
00000000
00000000
,
00020200
00000000
00000000
00000000
,
00000000
00000000
00030300
00000000
,
00011000
00000000
00000000
00101000
00000000
00000000
00010100
00000000
00000000
00000000
00000000
00000000
00001000
00000000
00001010
00000000
,
00000000
00000000
00000000
00000000
,
00011000
00000000
00000000
00010010
00000000
00000000
01001000
00000000
00000000
00000000
00100000
00000000
00010000
00000000
00110000
00000000
,
00000000
00000000
00011000
00011000
,
01001000
00000000
00000000
01010000
00000000
00000000
00110000
00000000
00000000
00000000
00000000
00000000
01000000
00000000
10010000
00000000
,
00000000
00000000
00000000
00000000
00000000
00000000
00000000
00000000
10000000
00000000
01000000
00000000
10000000
00000000
00010000
10000000
,
00020000
00000000
00000000
00000000
00130000
00000000
00001000
00010000
00002000
00000000
00000000
00000000
00013000
00000000
00000100
00001000
,
00000100
00000000
00000010
00000100
00000010
00000000
00000001
00000000
00000000
00000000
00000000
00000000
00001001
00000000
00000000
00000000
,
00001000
00000010
00000100
00000001
00000010
00000100
00010000
00001000
,
00100000
00000000
00001000
00000000
00010000
00000000
01000000
00000000
00100000
01000000
00100000
00000000
02000000
00000000
00000000
00000000
,
03100000
00010000
10000000
00010000
01000000
00001000
00010000
00000010
,
00001000
00000000
00000001
00000000
00000010
00000000
00000100
00000010
00000100
00000000
00010000
00000000
00002000
00000000
00000000
00000000
,
00103000
00010000
01000000
00010000
00100000
01000000
10000000
01000000
,
00010000
00000000
00001000
00000000
00100000
00000000
00001000
00000000
00010000
00001000
00010000
00001000
00020000
00000000
00000000
00000000
,
00030100
00001000
00000010
00001000
00000100
00000010
00000001
00001000
,
00000010
00010000
00001000
00000000
00010100
00000000
00101000
00000000
,
00100000
00000000
00001000
00000000
00010000
00000000
00001000
00000000
01000000
00000000
00010000
00000000
00100000
00000000
01000000
00100000
,
01000000
00000000
10000000
00000000
00010000
00000000
01000000
00000000
00001000
00010000
00001000
00010000
00002000
00000000
00000000
00000000
,
00003010
00000000
00000100
00000000
00000010
00000000
00000001
00000000
00001000
00000000
00000010
00000000
00010000
00000000
00001000
00010000
,
00001000
00000000
00100000
00000000
00010000
00000000
00000000
01010000
00000000
00000000
10100000
00000000
20000000
00000000
00000000
00000000
,
31000000
00000000
00010000
00000000
00001000
00000000
00100000
00000000
00001000
00000000
00010000
00000000
00000100
00000000
00001000
00000100
,
00001000
00000000
00000010
00000000
00000100
00000000
00000001
00000000
00001000
00000001
00001000
00000001
00000020
00000000
00000000
00000000
,
00000130
00000000
00010000
00000000
00001000
00000000
00010000
00001000
00010000
00000000
00100000
00000000
01000000
00000000
00000000
00000000
,
01100000
00000000
00000000
00000000
00100000
10000000
00100000
10000000
,
01000000
00010000
00001000
00010000
00000100
00010000
00001000
00010000
,
00100000
00000000
01000000
00000000
00010000
01000000
00010000
01000000
00010000
00000000
10000000
00000000
00100000
00000000
10000000
00000000
,
01000000
00000000
00100000
00000000
01000000
00000000
00010000
00000000
00001000
00000000
00010000
00001000
00010000
00000000
00000100
00000000
,
00001000
00000000
00000010
00001000
00000010
00000000
00000100
00000000
00000001
00000000
00000010
00000000
00000001
00000000
00001000
00000000
,
00000010
00000100
00000010
00001000
00010000
01000000
00100000
01000000
,
00010000
00000000
10000000
00000000
01000000
00100000
01000000
00100000
00010000
00000000
00100000
00000000
00001000
00000000
00010000
00000000
,
00000100
00010000
00001000
00001000
00000010
00000100
00000010
00000000
,
00000110
00000000
00000110
00000000
00000100
00001000
00000001
00001000
,
00000010
00000100
00001000
00010000
00100000
00100000
01000000
00100000
,
10000000
00000000
00010000
00000000
10000000
00010000
10000000
00010000
10000000
00000000
01000000
00000000
00100000
00000000
01000000
00000000
,
00010000
00000000
01000000
00000000
00100000
00000000
00001000
00000000
00010000
00000000
00000100
00000000
00010000
00000000
00000010
00001000
,
00000010
00000000
00000000
00001010
00000000
00000000
00000101
00000000
00000001
00000000
00000010
00000000
00000100
00000000
00000010
00000000
,
00000001
00000000
00000100
00000000
00001000
00000000
00010000
00001000
00010000
00000000
00001000
00000000
00100000
00000000
00010000
00000000
,
00100000
00000000
01000000
00000000
10000000
00010000
10000000
00010000
10000000
00000000
00100000
00000000
01000000
00000000
00100000
00000000
,
00010000
00001000
00010000
00010000
00000100
00001000
00000010
00001000
,
00000100
00000010
00000100
00000000
00000010
00000000
00000001
00000000
00002002
00000000
00000000
00003003
00000000
00000000
00000001
00000100
,
00001000
00000000
00010000
00000000
00100000
00000000
10000000
00000000
20020000
00000000
00000000
30030000
00000000
00000000
10000000
01000000
,
00010000
00000000
00001000
00000000
00000010
00000000
00000001
00000000
00002002
00000000
00000000
00003003
00000000
00000000
00001000
00000010
,
00000100
00000000
00001000
00000000
00010000
00000000
00100000
00000000
02200000
00000000
00000000
03300000
00000000
00000000
01000000
00100000
,
00010000
00000000
00001000
00000000
00000100
00000000
00000010
00000000
00000110
00000000
00000100
00000001
00001000
00000000
00000100
00010000
,
00010000
00000000
00001000
00100000
00010000
00000000
01010000
00000000
10100000
00000000
10000000
00010000
01000000
00000000
00001000
00010000
,
00010000
00000000
00000010
00001000
00000001
00000000
00000010
00000000
00000110
00000000
00000100
00010000
00001000
00000000
00100000
00010000
,
00010000
00000000
01000000
00100000
10000000
00000000
01000000
00000000
01100000
00000000
00100000
00001000
00010000
00000000
00000100
00001000
,
00000002
00000000
00000100
00000000
00002000
00000000
00000000
00003003
00000001
00000010
00000100
00001000
00000010
00000100
00001000
00010000
,
00001000
00000000
00000000
00000000
00001000
00000000
00100000
00000000
00000000
00000000
00100000
00000000
01000000
00000000
00000000
00000000
01000000
00000000
00010000
00000000
00000000
00000000
00000000
00000000
00001000
00000000
00000000
00010000
00000000
00000000
01000000
00000000
00000000
10000000
00000000
00000000
00100000
00000000
00000000
01000000
00000000
00000000
00001000
00000000
00000000
00010000
00000000
00000000
,
00000020
00000000
00000000
00000030
,
00000100
00000000
00000010
00000100
00000001
00000000
00000010
00000000
00000100
00001000
00000100
00000000
00010000
00000000
00001000
00000000
,
00100000
00010000
00100000
00000000
01000000
00000000
10000000
00000000
00010000
00000000
01000000
00000000
00001000
00000000
00010000
00000000
,
00000100
00001000
00000100
00001000
00000100
00000000
00000010
00000001
00000010
00000001
00000010
00000000
00000100
00000000
00010000
00000000
,
00001000
00000000
01000000
00000000
00010000
00000000
00100000
00000000
01000000
00000000
10000000
00010000
10000000
00010000
10000000
00000000
,
00100000
00000000
01000000
00000000
00100000
00000000
00010000
00000000
00001000
00000000
00000000
00011000
00000000
00000000
00010100
00000000
,
00000100
00000000
00001000
00000000
00000010
00000000
00000100
00000010
00000100
00000000
00000000
00000101
00000000
00000000
00000011
00000000
,
00000010
00000000
00000100
00000000
00001000
00000100
00010000
00000000
00001000
00000000
00100000
00010000
10000000
00010000
00100000
00000000
,
01000000
00000000
10000000
01000000
00100000
00000000
00010000
00000000
00100000
00001000
00100000
00001000
00020000
00000000
00000000
00000000
,
00030100
00000000
00010000
00000100
00001000
00000000
00000010
00000000
00000100
00000010
00000100
00000000
00000001
00000000
00000010
00000000
,
00000100
00001000
00000100
00000000
00010000
00000000
00001000
00000000
01000000
00000000
00010000
00000000
00100000
00000000
01000000
00000000
,
00100000
00010000
00100000
00010000
00100000
00000000
01000000
10000000
01000000
10000000
01000000
00000000
00010000
00000000
00001000
00000000
,
00010000
00000000
00000010
00000000
00000100
00000000
00000010
00000000
00010000
00000000
00001000
00010000
00000100
00000000
00000010
00000000
,
00000001
00000000
00000100
00000000
00000010
00000000
00000100
00000000
00001000
00000000
00000000
00011000
00000000
00000000
00101000
00000000
,
00100000
00000000
00010000
00000000
01000000
00000000
00100000
10000000
00010000
00000000
00000000
00101000
00000000
00000000
00011000
00000000
,
00010000
00000000
00000100
00000000
00000010
00000100
00001000
00000000
00000010
00000000
00000100
00000001
00000010
00000000
00000200
00000000
,
00000000
00000000
00010300
00000000
00001000
00000000
00100000
00000000
00010000
01000000
00001000
00010000
00001000
00000000
00010000
00000000
,
00200000
20300000
32000000
03020000
,
00030200
00000320
00000032
00000203
,
00001300
00010000
00001000
00010000
00000010
00000000
00000100
00000000
00001000
00010000
00001000
00010000
00000010
00000000
00000100
00000000
,
00001000
00010000
00001000
00000000
00010000
00001000
00010000
00000000
00200000
00300000
00000000
00000000
01000000
00000000
00100000
00000000
,
00010000
00001000
00200000
01000000
00310000
10000000
01000000
00010000
,
00001000
00000000
00100000
00000000
00010000
00000000
00001000
00000000
00010000
00000100
00001000
00000000
00000010
00000000
00000100
00000000
,
00001000
00010000
00000200
00000010
00001300
00000100
00010000
01000000
,
00100000
00000000
01000000
00000000
10000000
00000000
01000000
00100000
00010000
00000000
00010000
00000000
01000000
00000000
00100000
00000000
,
00010000
00001000
00200000
01000000
00310000
00100000
00001000
00000010
,
00000100
00000000
00001000
00000000
00000001
00000000
00000100
00000000
00000010
00000100
00000010
00000100
00001000
00000000
00010000
00000000
,
00100000
00010000
00001000
00000000
00000010
00001000
00010000
00000000
00100000
00010000
00001000
00000000
00000010
00000000
00001000
00000000
,
00010000
01000000
00100000
00100000
00000000
00000000
02000000
00000000
,
13000000
00000000
01000000
00000000
00100000
00001000
00010000
00000000
00010000
00000010
00001000
00000000
00001000
00000100
00010000
00000000
,
00010000
00001000
01000000
00000000
01000000
00010000
00100000
00000000
00001000
00000000
00000000
00000000
00000020
00000000
00000000
00000000
,
00000031
00000000
00000100
00000000
00000010
00010000
00001000
00000000
00001000
00100000
00010000
00000000
00010000
01000000
00001000
00000000
,
00001000
00010000
00000100
00000000
00000100
00001000
00000010
00000000
00010000
00000000
00010000
00000000
00002000
00000000
00000000
00000000
,
00103000
00000000
00010000
00000000
01000000
00001000
00010000
00000000
00010000
00000100
00001000
00000000
00001000
00000010
00010000
00000000
,
00010000
00001000
00100000
00000000
00100000
00010000
01000000
00000000
00200000
00000000
00000000
00000000
10300000
00010000
10000000
00010000
,
10000000
00000000
01000000
00000000
00010000
00001000
00010000
00001000
00010000
00000000
00000100
00000000
00000010
00000100
00000010
00000100
,
00000010
00000000
00000001
00000100
00001000
00000000
00010000
00000000
00200000
00000000
00000000
00000000
01300000
00000000
00010000
00000000
,
00000000
00000000
01000000
00100000
01000000
00000000
00010000
00000000
00000000
00000000
01100000
00000000
00000000
00000000
00100000
10000000
,
00100000
00000000
10000000
00000000
01000000
00000000
00000000
00010000
00000000
00000000
00011000
00000000
00000000
00000000
00010100
00000000
,
00000000
00000000
00000100
00001000
00000100
00000000
00000010
00000000
00000000
00000000
00000001
00000000
00000001
00000000
00000100
00000000
,
00001000
00000000
00000100
00000000
00000000
00000000
00001000
00010000
00002000
00000000
00000000
00000000
00013000
00000000
00100000
00000000
,
00000000
00000000
10000000
00100000
10000000
00000000
00100000
00000000
00000000
00000000
01100000
00000000
00000000
00000000
01000000
00010000
,
01000000
00000000
00010000
00000000
00100000
00000000
00000000
00001000
00000000
00000000
00010100
00000000
00000000
00000000
00000100
00001000
,
00000020
00000000
00000000
00000000
00000130
00000001
00001000
00000001
00000200
00000000
00000000
00000000
00001300
00010000
00001000
00010000
,
00001000
00010000
00001000
00010000
00001000
00010000
00001000
00010000
00001000
00010000
00001000
00010000
00200000
00000000
00000000
00000000
,
00000000
00000000
00000000
00000000
,
00000000
00000000
00000000
00300000
;
