#VERSION:0.83;
#TITLE:Rave Cannon;
#SUBTITLE:;
#ARTIST:kors k;
#TITLETRANSLIT:;
#SUBTITLETRANSLIT:;
#ARTISTTRANSLIT:;
#GENRE:SPEED RAVE;
#CREDIT:;
#MUSIC:Rave Cannon.ogg;
#BANNER:Rave Cannon.png;
#BACKGROUND:Rave Cannon-bg.png;
#CDTITLE:./CDTitles/bm IIDX 24 SINOBUZ.png;
#SAMPLESTART:84.974;
#SAMPLELENGTH:15.000;
#SELECTABLE:YES;
#OFFSET:0.518;
#BPMS:0.000=160.000;
#STOPS:;
#TIMESIGNATURES:0.000=4=4;
#BGCHANGES:0.000=Rave Cannon.mp4=1.000=0=0=0=StretchNoLoop====,
99999.000=-nosongbg-=1.000=0=0=0=StretchNoLoop====
;
#FGCHANGES:;

//--------------- dance-single - forcednature ----------------
#NOTEDATA:;
#STEPSTYPE:dance-single;
#DESCRIPTION:forcednature;
#CREDIT:forcednature;
#DIFFICULTY:Beginner;
#METER:5;
#RADARVALUES:0,0,0,0,0;
#NOTES:
0000
0000
0000
0000
,
0000
0000
0000
0000
,
0000
0000
0000
0000
,
0000
0000
0000
0000
,
0000
0000
0000
0000
,
1001
0000
0000
0000
,
1001
0000
0000
0000
,
1001
0000
0110
0000
,
1001
0000
0000
0000
,
0002
0000
0000
0000
,
0000
0000
0003
0000
,
0020
0000
0000
0000
,
0000
0000
0030
0000
,
0200
0000
0000
0000
,
0000
0000
0300
0000
,
2000
0000
0000
0000
,
0000
0000
3000
0000
,
1001
0000
0000
0000
,
0001
0000
0001
0000
,
0100
0000
0000
0000
,
0010
0000
1000
0000
,
0010
0000
1000
0000
,
0001
0000
1000
0000
,
0100
0100
0100
0000
,
1001
0000
0000
0000
,
0110
0000
0001
0000
,
0100
0000
0000
0000
,
0001
0001
1000
0000
,
0001
1000
0001
0000
,
1000
0000
1000
0000
,
0100
0000
0000
0000
,
1000
1000
0001
0000
,
1001
0000
0000
0000
,
0001
0000
0001
0000
,
0010
0000
0001
0000
,
1000
1000
0001
0000
,
0001
0001
1000
0000
,
0010
0000
0010
0000
,
1000
0000
0010
0000
,
2002
0000
3003
0000
,
0110
0000
0000
0000
,
2000
0000
0000
0000
,
0000
0000
3000
0000
,
0200
0000
0000
0000
,
0000
0000
0300
0000
,
0020
0000
0000
0000
,
0000
0000
0030
0000
,
0002
0000
0000
0000
,
0000
0000
0003
0000
,
1001
0000
0000
0000
,
1000
0000
1000
0000
,
0010
0000
0000
0000
,
0100
0000
0001
0000
,
1001
0000
0000
0000
,
0001
0000
1000
0000
,
0100
1000
0100
0000
,
1001
0000
0000
0000
,
0001
0001
0000
0000
,
1000
1000
0000
0000
,
0001
0001
0000
0000
,
1000
1000
0000
0000
,
2002
0000
0000
0000
,
0000
0000
3003
0000
,
0001
1000
0001
1000
,
0010
0000
0100
0000
,
1001
0000
1000
0000
,
0100
1000
0001
0000
,
0100
0000
0001
0000
,
0010
0100
1000
0000
,
1001
0000
0001
0000
,
0010
0001
1000
0000
,
0010
0010
0100
0000
,
0110
0000
1001
0000
,
1000
0100
1000
0000
,
0001
0000
0010
0100
,
0010
0100
0010
0000
,
0001
0000
1000
0001
,
0100
0001
0100
0000
,
0010
0000
1000
0001
,
1000
0000
0100
1000
,
0010
0000
0100
0000
,
2002
0000
0000
0000
,
0000
0000
0000
0000
,
3003
0000
0000
0000
;

//--------------- dance-single - forcednature ----------------
#NOTEDATA:;
#STEPSTYPE:dance-single;
#DESCRIPTION:forcednature;
#CREDIT:forcednature;
#DIFFICULTY:Easy;
#METER:9;
#RADARVALUES:0,0,0,0,0;
#NOTES:
0000
0000
0000
0000
,
0000
0000
0000
0000
,
0000
0000
0000
0000
,
0000
0000
0000
0000
,
0000
0000
0000
0000
,
1001
1000
0010
0100
,
1001
0001
0010
0100
,
1001
0010
1001
0100
,
0110
0000
0000
0000
0001
1000
0001
0000
,
2002
0000
0000
0000
,
0003
0000
0000
0000
,
0200
0000
0000
0000
,
3000
0000
0000
0000
,
0020
0000
0300
0000
,
0002
0000
0030
0000
,
2000
0000
0000
0000
,
0000
0000
0000
3003
,
1001
0001
0100
0001
,
1000
1000
0001
0010
,
0001
1000
1000
0100
,
1000
0001
1000
0010
,
0110
0001
1000
0100
,
0110
1000
0001
0100
,
0010
0100
0010
0000
1000
0010
1000
0000
,
2002
0000
0000
3003
,
0001
0010
0001
0000
0100
0000
0010
0000
,
1000
0010
1000
0000
0100
0000
0010
0000
,
0001
0100
1000
0100
,
0001
0010
1000
0010
,
0001
0010
0001
0000
0100
0000
0010
0000
,
1000
0010
1000
0000
0100
0000
0010
0000
,
0001
0100
0010
0110
,
1000
0000
0000
1000
0000
0000
0001
0000
0000
0100
0000
0000
0010
0000
0000
0000
,
0110
0000
0001
0000
1000
0010
1000
0000
,
0100
0000
0010
0000
0001
0010
0001
0000
,
0100
1000
0100
0001
,
0010
1000
0010
0001
,
1000
0001
1000
0000
0010
0000
0100
0000
,
0001
0100
0001
0000
0010
0000
0110
0000
,
2002
0000
3003
0000
0100
0010
0100
0000
,
0110
0000
0001
1000
,
0002
0000
0000
0000
,
0023
0000
0000
0000
,
0230
0000
0000
0000
,
2300
0000
0000
0000
,
3002
0000
0000
0000
,
0203
0000
0000
0000
,
0320
0000
0000
0000
,
2030
0000
0000
0000
,
3002
0000
0100
0100
,
0100
0000
1003
0001
,
2000
0000
0100
0100
,
0100
0000
3001
1000
,
0002
0000
0010
0010
,
0010
1000
1000
1003
,
0001
1000
0001
0000
1000
0010
1000
0000
,
0010
0000
0200
0000
,
0300
0001
1000
0000
0100
0000
0100
0000
,
0000
1000
0001
0000
0100
0000
0100
0000
,
0000
0001
1000
0000
0010
0000
0010
0000
,
0000
1000
0001
0000
0010
0000
0010
0000
,
0001
1000
0001
0000
1001
0000
0100
0000
,
1000
0001
1000
0000
1001
0000
0100
0000
,
0110
0000
1001
0000
0001
1000
0001
0000
,
0010
0000
0000
0000
0100
0100
0100
0000
,
0110
0000
0001
1000
0001
0000
0100
0000
,
0010
0000
1000
0100
0010
0000
0001
0010
,
0100
0000
1000
0001
1000
0000
0010
0000
,
0110
0000
0001
0100
0010
0000
1000
0100
,
0010
0000
0001
1000
0010
0000
0100
0000
,
1001
0000
1000
0100
0010
0000
0001
1000
,
0010
0000
0010
0100
0010
0000
0110
0000
,
1001
0000
0000
0000
1000
0001
1000
0000
,
1001
0000
0001
0010
0100
0000
0010
0001
,
1000
0000
0100
1000
0100
0000
0110
0000
,
1001
0000
1000
0010
0100
0000
0001
0100
,
0010
0000
1000
0001
0010
0000
0110
0000
,
1001
0000
0001
0100
0010
0000
0110
0000
,
1001
0000
1000
0100
0010
0000
0110
0000
,
1001
0000
1000
0010
0100
0000
0001
0010
,
0100
0000
0000
0100
0000
0000
0000
0000
1000
0000
0000
0001
0000
0000
1000
0000
,
0020
0000
0000
0000
,
0000
0000
0000
0000
,
0030
0000
0000
0000
;

//--------------- dance-single - forcednature ----------------
#NOTEDATA:;
#STEPSTYPE:dance-single;
#DESCRIPTION:forcednature;
#CREDIT:forcednature;
#DIFFICULTY:Medium;
#METER:13;
#RADARVALUES:0,0,0,0,0;
#NOTES:
0000
0000
0000
0000
,
0000
0000
0000
0000
,
0000
0000
0000
0000
,
0000
0000
0000
0000
,
0000
0000
0000
0000
,
1001
0000
0001
0100
0000
0010
0100
0000
,
1001
0000
1000
0100
0000
0010
0100
0000
,
1001
0010
0110
0001
,
1001
0000
1000
0100
1000
0001
0100
0001
,
0020
0000
0000
0030
,
0100
0000
1000
0001
1000
0001
1000
0000
,
0020
0000
0000
0030
,
0100
0000
0001
1000
0001
1000
0001
0000
,
0020
0000
0000
0230
0000
0000
2300
0000
,
0000
3020
0000
0000
0230
0000
0302
0000
,
0023
0000
0000
0000
,
0200
0000
0000
0330
,
1001
0000
1000
0100
0100
1000
0010
0000
,
1000
0001
0100
0001
0000
1000
0010
0000
,
1000
0001
0001
0100
0000
0001
0010
0000
,
0001
1000
1000
0100
0000
1000
0010
0000
,
0110
0000
0100
0001
1000
0001
0100
0000
,
0110
0000
0010
1000
0001
1000
0010
0000
,
1000
0000
0001
0000
1000
0000
0001
0000
0100
0000
0010
0100
0020
0000
0000
0000
,
1030
0000
0100
1000
0000
0100
1000
0000
0001
0010
0000
0010
0001
0000
0000
0000
,
0100
0000
0001
0100
0001
0000
1000
0000
0010
0000
0100
0000
0001
0000
0000
0000
,
0010
0000
0001
0010
0001
0000
1000
0000
0100
0000
0001
0000
0100
0000
0000
0000
,
1000
0000
0100
1000
0000
0100
1000
0000
0010
0100
0000
0001
0100
0000
0000
0000
,
0010
0000
1000
0010
0000
1000
0010
0000
0100
0001
0000
0010
0001
0000
0000
0000
,
1000
0000
0010
1000
0010
0000
0100
0000
0001
0000
0010
0000
1000
0000
0000
0000
,
0010
0000
0001
0010
0001
0000
1000
0000
0100
0000
0001
0000
0100
0000
0000
0000
,
1000
0000
0010
1000
0000
0010
1000
0000
0001
0100
0000
0010
0100
0000
0000
0000
,
0001
0000
1000
0001
0000
0001
1000
0000
0010
1000
0000
0010
0100
0000
0001
0000
,
0000
0000
1000
0100
1000
0000
0010
0000
0100
0000
0001
0000
0010
0000
0000
0000
,
0100
0000
0001
0100
0001
0000
0100
0000
1000
0000
0001
0000
0010
0000
0000
0000
,
0001
0000
0100
0001
0000
0100
0001
0000
1000
0010
0000
0100
0010
0000
0000
0000
,
1000
0000
0100
1000
0000
0100
1000
0000
0001
0010
0000
0100
0010
0000
0000
0000
,
0001
0000
1000
0001
1000
0000
0010
0000
0100
0000
0001
0000
0100
0000
0000
0000
,
0010
0000
1000
0010
1000
0000
0100
0000
0001
0000
0100
0000
1000
0000
0000
0000
,
1002
0000
0000
0000
0010
0000
0010
0000
0013
0000
0000
0000
0001
1000
0001
0000
,
1000
0000
0000
0010
0000
0000
0100
0000
0001
0000
0000
0010
0000
0000
0100
0000
,
2000
0000
0000
0000
,
3020
0000
0000
0000
,
0230
0000
0000
0000
,
0302
0000
0000
0000
,
0023
0000
0000
0000
,
0230
0000
0000
0000
,
2300
0000
0000
0000
,
3002
0000
0000
0003
,
1001
0000
1000
0100
0100
1000
0001
0000
,
1000
0010
1000
0000
0001
0010
0001
0000
,
0100
0000
0001
1000
1000
0100
1000
0000
,
0001
0010
0001
0000
1000
0010
1000
0000
,
1001
0000
0001
0100
0100
0001
0010
0010
,
0001
1000
0010
1000
0100
1000
0010
1000
,
0001
0000
1000
0001
1000
0000
0010
0000
0100
0000
0010
0100
0010
0000
0000
0000
,
1001
0000
0020
0230
,
0300
0001
0001
0001
0200
0000
0320
0000
,
0030
1000
1000
1000
0200
0000
0320
0000
,
0030
0001
0001
0001
0020
0000
0230
0000
,
0300
1000
1000
1000
0020
0000
0230
0000
,
0301
0000
0000
0010
0000
0001
0010
0000
0100
0000
0000
1000
0000
0100
1000
0000
,
0001
0000
0000
0100
0000
0001
0100
0000
0010
0000
0000
1000
0000
0010
1000
0000
,
0001
0000
0000
0010
0100
0000
0000
1000
0001
0000
0000
0100
0010
0000
0000
1000
,
0001
0000
0000
0000
0000
0000
0000
0000
1000
0001
1000
0001
1000
0000
0000
0000
,
0010
0000
0100
0010
0000
0100
0001
0000
0010
0000
0001
0000
1000
0000
0000
0000
,
0100
0000
1000
0100
0000
1000
0010
0000
0100
0000
0010
0100
0000
0001
0100
0000
,
0001
0000
0010
0001
0000
1000
0001
0000
1000
0000
0010
0000
0100
0000
0000
0000
,
0001
0000
0010
0100
0000
1000
0100
0000
0010
0000
0001
1000
0001
0000
0000
0000
,
0010
0000
0100
0010
0000
0100
1000
0000
0001
0000
1000
0000
0010
0000
0000
0000
,
0100
0000
0001
0100
0000
0010
0100
0000
0010
0000
1000
0100
0000
1000
0001
0000
,
0010
0000
0100
0010
0100
0000
0010
0100
0010
0000
0000
0000
0110
0000
0000
0000
,
1001
0000
0000
1000
0000
0100
0000
0000
1000
0001
1000
0001
1000
0000
0000
0000
,
0010
0000
0100
0010
0000
0100
0001
0000
0010
0000
0001
0010
0001
0000
1000
0000
,
0100
0000
0010
0100
0000
1000
0100
0000
1000
0000
0001
1000
0001
0000
0100
0000
,
0010
0000
1000
0100
0000
1000
0001
0000
0100
0000
0010
0100
0010
0000
1000
0000
,
0001
0000
0010
0001
0000
1000
0100
0000
0010
0000
0100
0010
0100
0000
1000
0000
,
0001
0000
0100
0001
0000
0100
0010
0000
1000
0000
0001
1000
0001
0000
0010
0000
,
0100
0000
0010
0100
0000
1000
0100
0000
1000
0000
0001
1000
0001
0000
0100
0000
,
0110
0000
0000
0010
1000
0000
0100
0000
0110
0000
0000
0010
0001
0000
0100
0000
,
0110
0000
0000
0110
0000
0000
0001
0000
1001
0000
0000
1100
0000
0000
0010
0000
,
0220
0000
0000
0000
,
0000
0000
0000
0000
,
0330
0000
0000
0000
;

//--------------- dance-single - forcednature ----------------
#NOTEDATA:;
#STEPSTYPE:dance-single;
#DESCRIPTION:forcednature;
#CREDIT:forcednature;
#DIFFICULTY:Hard;
#METER:16;
#RADARVALUES:0,0,0,0,0;
#NOTES:
0000
0000
0000
0000
,
0000
0000
0000
0000
,
0000
0000
0000
0000
,
0000
0000
0000
0000
,
0000
0000
0000
0000
,
1100
0000
0100
1000
0010
0100
0001
0000
,
0101
0000
0100
0001
0010
0100
0110
0000
,
1001
0000
0000
0001
0100
0000
0010
0000
1001
0000
0000
1000
0100
0000
0010
0000
,
0110
0000
0000
0000
0001
0000
1000
0000
0010
1000
0010
1000
0010
0000
0100
0000
,
0001
0000
0000
0000
0010
0001
0010
0001
0010
0000
0001
0010
0001
0000
1000
0000
,
0010
0000
0000
0000
0100
0010
0100
0010
0100
0000
0010
0100
0002
0000
0000
0000
,
1003
0000
0000
0000
0100
1000
0100
1000
0100
0000
1000
0100
1000
0000
0010
0000
,
0100
0000
0000
0000
0001
0100
0001
0100
0001
0000
0100
0010
2000
0000
0000
0000
,
3001
0000
0000
0000
0010
0001
0010
0001
0010
0000
0100
0010
0100
0000
1000
0000
,
0010
0000
0000
0000
1000
0010
1000
0010
1000
0000
0010
0100
0002
0000
0000
0000
,
1003
0000
0000
0000
0001
1000
0001
1000
0001
0000
0010
0001
0010
0000
0100
0000
,
1000
0000
0000
0000
0010
1000
0010
1000
0010
0000
0100
0001
2000
0000
0000
0000
,
3100
0000
0010
0100
1000
0000
0100
0010
0100
0000
0010
0000
0001
0000
1000
0000
,
0001
0000
0010
0100
1000
0000
0010
1000
0010
0000
0100
0000
0001
0000
0010
0000
,
0001
0000
0100
0001
0100
0000
0010
0100
0001
0000
1000
0000
0100
0000
1000
0000
,
0001
0000
0010
0001
0010
0000
0100
0010
0001
0000
1000
0000
0010
0000
0100
0000
,
0110
0000
0001
0100
0000
0100
0001
0000
1000
0000
0001
0010
0001
0000
0010
0000
,
0110
0000
1000
0100
0000
0100
1000
0000
0001
0000
1000
0010
1000
0000
0010
0000
,
0100
0001
0100
0001
1000
0001
1000
0001
0100
0010
0100
0010
0100
0010
0100
0010
,
1000
0000
1000
0100
0000
0100
0010
0000
0010
0001
0000
0001
0100
0000
0010
0000
,
0110
0000
0001
1000
0000
1000
0100
0000
0010
0000
0001
0010
0001
0000
0100
0000
,
0010
0000
1000
0001
0000
0001
0010
0000
0100
0000
1000
0001
0100
0000
0001
1000
,
0100
0000
0100
0010
0000
0010
0001
0000
0001
0100
0000
1000
0100
0000
0001
0000
,
0010
0000
0010
0100
0000
0100
1000
0000
1000
0010
0000
0001
0010
0000
1000
0000
,
0100
1000
0100
1000
0000
0010
0100
0000
0001
0000
0010
0000
1000
0000
0010
0000
,
0001
0010
0001
0010
0000
0100
1000
0000
0010
0000
1000
0001
0010
0000
0001
1000
,
0010
0000
0010
0100
0000
0100
1000
0000
1000
0100
0000
0001
0200
0000
0000
0000
,
0310
0000
1000
0100
0000
0010
0001
0000
0100
0010
0000
1000
0001
0000
1001
0000
,
1000
0100
1000
0100
0000
0010
0100
0000
1000
0000
0001
0000
0010
0000
1000
0000
,
0010
0001
0010
0001
0000
0100
0001
0000
0100
0000
0001
1000
0100
0000
1000
0001
,
0100
0000
0100
0010
0000
0010
1000
0000
1000
0100
0000
0001
0100
0000
1000
0000
,
0001
0000
0001
0100
0000
0100
0010
0000
0010
0001
0000
0010
1000
0000
0001
0000
,
0100
0001
0100
0001
0000
1000
0010
0000
1000
0000
0100
0000
0001
0000
0100
0000
,
0010
0001
0010
0001
0000
0100
0010
0000
1000
0000
0100
0010
0001
0000
0100
0010
,
2000
0000
0000
0000
3100
0010
0100
0000
0010
0001
0000
1000
0001
1000
0010
0000
,
0110
0000
0000
0100
0000
0000
0001
0000
1000
0000
0000
0100
0000
0000
1000
0000
,
0002
0000
0000
0000
0010
0000
0000
0010
0000
0010
0000
0000
1003
0000
0001
0000
,
2000
0000
0000
0000
0010
0000
0000
0010
0000
0010
0000
0000
3001
0000
1000
0000
,
0200
0000
0000
0000
0010
0000
0000
1000
0000
1000
0000
0000
0310
0000
0001
0000
,
2000
0000
0000
0000
0010
0000
0000
0001
0000
0001
0000
0000
3100
0000
1000
0000
,
0002
0000
0000
0000
0010
0000
0000
1000
0000
1000
0000
0000
0103
0000
0010
0000
,
2000
0000
0000
0000
0100
0000
0000
0010
0000
0010
0000
0000
3001
0000
0100
0000
,
0020
0000
0000
0000
1000
0000
0000
0100
0000
0100
0000
0000
1030
0000
0001
0000
,
0200
0000
0000
0000
0010
0000
0000
1000
0000
1000
0000
0000
0310
0000
0100
0000
,
0110
0000
0001
0000
0100
0001
0100
0000
0001
0000
0010
0001
0010
0000
0100
0000
,
1000
0000
0100
0000
1000
0000
0001
1000
0000
1000
0001
0000
0100
0000
0010
0000
,
1000
0000
0100
0000
1000
0001
1000
0000
0100
0000
0010
0100
0010
0000
0001
0000
,
0100
0000
0010
0000
1000
0000
0100
0010
0000
0010
0100
0000
1000
0000
0001
0000
,
0011
0000
0000
0000
0010
0100
0010
0100
0010
0000
0100
1000
0001
0000
0100
0000
,
0010
0000
0100
0010
0100
0000
0010
0000
1000
0001
1000
0001
0010
0001
0010
0000
,
0100
1000
0100
1000
0100
0000
1000
0000
0010
1000
0010
1000
0010
0000
0100
0000
,
0110
0000
0000
0000
0000
0000
0000
0000
0001
1000
0001
0000
0020
0000
0000
0000
,
0130
0000
1000
0000
1000
0000
0100
0000
1000
0001
1000
0000
0010
1000
0010
0000
,
0100
0000
0001
0000
0001
0000
0100
0000
0001
1000
0001
0000
0010
0001
0010
0000
,
0100
0000
1000
0000
1000
0000
0001
0000
1000
0010
1000
0000
0010
0100
0010
0000
,
0100
0000
0001
0000
0001
0000
1000
0000
0001
0010
0001
0000
0010
0100
0010
0000
,
0100
1000
0100
1000
0000
0010
1000
0000
0010
0100
0010
0100
0000
0001
0100
0000
,
0001
0010
0001
0010
0000
0100
0010
0000
0100
1000
0100
1000
0000
0001
0100
0000
,
0010
0000
1000
0100
0010
0000
0001
0100
0010
0000
1000
0100
0010
0000
0001
0100
,
0010
0000
0000
0000
0000
0000
0000
0000
0100
0010
1000
0001
0100
0000
0000
0000
,
0110
0000
0010
1000
0000
0100
1000
0000
0001
0000
0010
0100
1000
0000
0010
0100
,
0001
0000
0010
0001
0000
0001
0100
0000
0010
0000
1000
0100
0000
0001
0100
0000
,
1000
0000
0010
1000
0000
0010
0100
0000
0001
0000
0010
0100
1000
0000
0010
0100
,
0001
0000
0010
0001
0000
0001
0100
0000
0010
0000
1000
0001
0010
0001
0010
0000
,
0100
0000
1000
0100
0000
1000
0010
0000
0100
0000
0001
1000
0010
0000
1000
0001
,
0010
0000
0100
0010
0000
0010
0001
0000
1000
0000
0010
0100
0000
0001
0010
0000
,
0210
0000
1000
0000
1000
0000
1300
0000
0100
0010
0001
0000
0100
0010
1000
0000
,
1001
0000
0000
0011
0000
0011
0000
0000
1000
0100
1000
0001
0020
0000
0000
0000
,
0130
1000
0100
1000
0000
0010
0100
0001
0100
0000
0010
1000
0001
0000
0010
0001
,
1000
0010
1000
0010
0000
0100
0010
0100
0001
0000
0010
0001
1000
0000
0100
0010
,
0001
0100
0001
0100
0000
0010
1000
0001
0010
0000
0100
1000
0010
0000
0100
0001
,
1000
0100
1000
0100
0000
0010
0001
1000
0010
0000
0100
0001
0010
0000
0110
0000
,
0100
1000
0010
1000
0000
0001
0100
0010
0100
0000
0010
1000
0100
0000
0010
0100
,
1000
0001
0100
0001
0000
0010
0001
1000
0010
0000
0100
0010
0000
0100
0001
0000
,
1001
0000
1000
0100
0010
0100
1000
0000
1001
0000
0001
0100
0010
0100
0001
0000
,
1001
0000
0000
1100
0000
0000
0001
0000
0101
0000
0000
1010
0000
0000
0100
0000
,
2002
0000
0000
0000
,
0000
0000
0000
0000
,
3003
0000
0000
0000
;

//--------------- dance-double - forcednature ----------------
#NOTEDATA:;
#STEPSTYPE:dance-double;
#DESCRIPTION:forcednature;
#CREDIT:forcednature;
#DIFFICULTY:Easy;
#METER:9;
#RADARVALUES:0,0,0,0,0;
#NOTES:
00000000
00000000
00000000
00000000
,
00000000
00000000
00000000
00000000
,
00000000
00000000
00000000
00000000
,
00000000
00000000
00000000
00000000
,
00000000
00000000
00000000
00000000
,
00011000
00100000
00010000
01000000
,
00011000
00000010
00001000
00000100
,
00011000
00100000
00011000
01000000
,
01100000
00000000
00000000
00000000
00010000
10000000
00010000
00000000
,
20020000
00000000
00000000
00000000
,
00030000
00000000
00000000
00000000
,
02000000
00000000
00000000
00000000
,
30000000
00000000
00000000
00000000
,
00200000
00000000
03000000
00000000
,
00002000
00000000
00300000
00000000
,
00020000
00000000
00000000
00000000
,
00000000
00000000
00000000
00033000
,
00011000
00000100
00001000
00000100
,
00001000
00001000
00000010
00000100
,
00000001
00000100
00000100
00000001
,
00000010
00000100
00000010
00000100
,
00000110
00001000
00000100
00010000
,
00011000
00001000
01000000
00010000
,
10000000
00010000
10000000
00000000
00010000
10000000
00010000
00000000
,
20020000
00000000
00000000
30030000
,
00010000
00100000
00010000
00000000
01000000
00000000
00001000
00000000
,
00010000
00001000
00010000
00000000
00000100
00000000
00001000
00000000
,
00000010
00000100
00001000
00000100
,
00000001
00000100
00001000
00000100
,
00000010
00000100
00000010
00000000
00001000
00000000
00000010
00000000
,
00010000
00001000
00010000
00000000
00001000
00000000
00100000
00000000
,
00010000
01000000
00100000
01100000
,
10000000
00000000
00000000
10000000
00000000
00000000
00010000
00000000
00000000
01000000
00000000
00000000
00100000
00000000
00000000
00000000
,
01100000
00000000
00010000
00000000
10000000
00100000
10000000
00000000
,
01000000
00000000
00100000
00000000
00010000
00100000
00010000
00000000
,
00100000
00001000
00010000
01000000
,
00010000
00001000
00100000
00010000
,
00100000
00010000
00100000
00000000
00001000
00000000
00010000
00000000
,
00000010
00001000
00000010
00000000
00000100
00000000
00000110
00000000
,
00002002
00000000
00003003
00000000
00000001
00001000
00000001
00000000
,
00001001
00000000
00001000
00000100
,
00020000
00000000
00000000
00000000
,
00032000
00000000
00000000
00000000
,
02003000
00000000
00000000
00000000
,
03020000
00000000
00000000
00000000
,
20030000
00000000
00000000
00000000
,
32000000
00000000
00000000
00000000
,
03200000
00000000
00000000
00000000
,
00302000
00000000
00000000
00000000
,
00023000
00000000
00000100
00000100
,
00000100
00000000
00031000
00010000
,
00002000
00000000
01000000
01000000
,
01000000
00000000
00013000
00001000
,
00020000
00000000
00000010
00000010
,
00000010
00001000
00001000
00031000
,
00010000
00001000
00010000
00000000
00001000
00010000
00001000
00000000
,
00100000
00000000
00020000
00000000
,
00030000
10000000
00010000
00000000
01000000
00000000
01000000
00000000
,
00000000
00001000
00010000
00000000
00001000
00000000
00001000
00000000
,
00000000
00010000
00001000
00000000
00010000
00000000
00010000
00000000
,
00000000
00000100
00001000
00000000
00000100
00000000
00000100
00000000
,
00001000
00000001
00001000
00000000
00001001
00000000
00000010
00000000
,
00010000
00001000
00010000
00000000
00011000
00000000
00100000
00000000
,
00010000
00000000
10010000
00000000
10000000
00010000
10000000
00000000
,
00100000
00000000
00000000
00000000
01000000
01000000
01000000
00000000
,
01100000
00000000
00010000
10000000
00010000
00000000
00100000
00000000
,
00001000
00000000
00010000
00000100
00001000
00000000
00000100
00001000
,
00000010
00000000
00000100
00000010
00000100
00000000
00000001
00000000
,
00001001
00000000
00001000
00000100
00010000
00000000
00001000
00010000
,
00001000
00000000
00100000
00010000
00100000
00000000
01000000
00000000
,
10010000
00000000
10000000
01000000
00100000
00000000
00010000
01000000
,
00001000
00000000
00001000
00010000
00001000
00000000
00011000
00000000
,
00000100
00000000
00000000
00000000
00001000
00000001
00001000
00000000
,
00001001
00000000
00000001
00000010
00000100
00000000
00001000
00000100
,
00010000
00000000
00001000
00010000
00001000
00000000
00011000
00000000
,
00100000
00000000
00010000
01000000
00100000
00000000
10000000
00010000
,
00100000
00000000
00010000
01000000
00001000
00000000
00011000
00000000
,
00000100
00000000
00001000
00000010
00000100
00000000
00000110
00000000
,
00000001
00000000
00000010
00000100
00001000
00000000
00000110
00000000
,
00001000
00000000
00000100
00010000
00001000
00000000
01000000
00010000
,
00100000
00000000
00000000
00100000
00000000
00000000
00000000
00000000
00010000
00000000
00000000
10000000
00000000
00000000
00010000
00000000
,
02000000
00000000
00000000
00000000
,
00000000
00000000
00000000
00000000
,
03000000
00000000
00000000
00000000
;

//--------------- dance-double - forcednature ----------------
#NOTEDATA:;
#STEPSTYPE:dance-double;
#DESCRIPTION:forcednature;
#CREDIT:forcednature;
#DIFFICULTY:Medium;
#METER:13;
#RADARVALUES:0,0,0,0,0;
#NOTES:
00000000
00000000
00000000
00000000
,
00000000
00000000
00000000
00000000
,
00000000
00000000
00000000
00000000
,
00000000
00000000
00000000
00000000
,
00000000
00000000
00000000
00000000
,
00011000
00000000
00010000
00000100
00000000
00010000
00001000
00000000
,
00011000
00000000
00001000
01000000
00000000
00001000
00010000
00000000
,
00011000
00100000
00011000
01000000
,
10010000
00000000
10000000
01000000
10000000
00010000
00100000
00001000
,
00020000
00000000
00000000
00030000
,
00000100
00000000
00001000
00000001
00001000
00000001
00001000
00000000
,
00000020
00000000
00000000
00000030
,
00010000
00000000
00001000
00010000
00001000
00010000
00001000
00000000
,
00200000
00000000
00000000
00320000
00000000
00000000
02030000
00000000
,
00000000
03200000
00000000
00000000
20300000
00000000
32000000
00000000
,
03200000
00000000
00000000
00000000
,
00002000
00000000
00000000
00303000
,
00011000
00000000
00010000
00000100
00000100
00001000
00000010
00000000
,
00000100
00000001
00001000
00000001
00000000
00000100
00000010
00000000
,
00001000
00000100
00000100
00010000
00000000
00001000
00010000
00000000
,
00001000
00100000
00100000
00010000
00000000
01000000
00010000
00000000
,
01100000
00000000
00100000
10000000
00010000
10000000
00100000
00000000
,
01100000
00000000
01000000
00010000
01000000
00001000
00010000
00000000
,
00000100
00000000
00001000
00000000
00000100
00000000
00000010
00000000
00000001
00000000
00001000
00000001
00002000
00000000
00000000
00000000
,
00003010
00000000
00001000
00000010
00000000
00001000
00000010
00000000
00010000
00001000
00000000
00001000
00010000
00000000
00000000
00000000
,
00001000
00000000
00010000
00001000
00010000
00000000
00000010
00000000
00001000
00000000
00000010
00000000
00000100
00000000
00000000
00000000
,
00000001
00000000
00001000
00000001
00001000
00000000
00000100
00000000
00010000
00000000
00001000
00000000
00010000
00000000
00000000
00000000
,
00001000
00000000
00010000
00001000
00000000
00010000
00001000
00000000
00100000
00010000
00000000
00100000
00010000
00000000
00000000
00000000
,
01000000
00000000
00100000
01000000
00000000
00100000
01000000
00000000
00100000
10000000
00000000
00100000
10000000
00000000
00000000
00000000
,
10000000
00000000
01000000
10000000
01000000
00000000
00100000
00000000
00010000
00000000
00100000
00000000
00001000
00000000
00000000
00000000
,
00010000
00000000
00001000
00010000
00001000
00000000
00010000
00000000
00000100
00000000
00001000
00000000
00000100
00000000
00000000
00000000
,
00000010
00000000
00000001
00000010
00000000
00000001
00000010
00000000
00000001
00000100
00000000
00000001
00000100
00000000
00000000
00000000
,
00000010
00000000
00001000
00000010
00000000
00000010
00001000
00000000
00000100
00001000
00000000
00000100
00010000
00000000
00001000
00000000
,
00000000
00000000
00100000
00010000
00100000
00000000
00010000
00000000
10000000
00000000
00100000
00000000
01000000
00000000
00000000
00000000
,
00010000
00000000
01000000
00010000
01000000
00000000
00001000
00000000
00010000
00000000
00000100
00000000
00010000
00000000
00000000
00000000
,
00001000
00000000
00010000
00001000
00000000
00010000
00001000
00000000
00010000
00000010
00000000
00010000
00000010
00000000
00000000
00000000
,
00001000
00000000
00000010
00000100
00000000
00000010
00000100
00000000
00000001
00000100
00000000
00000001
00000100
00000000
00000000
00000000
,
00000001
00000000
00001000
00000001
00001000
00000000
00000100
00000000
00010000
00000000
00001000
00000000
00010000
00000000
00000000
00000000
,
00001000
00000000
00010000
00001000
00010000
00000000
00001000
00000000
00100000
00000000
00010000
00000000
00100000
00000000
00000000
00000000
,
02000000
00000000
00000000
00000000
10000000
00000000
10000000
00000000
13000000
00000000
00000000
00000000
00010000
10000000
00010000
00000000
,
00100000
00000000
00000000
01000000
00000000
00000000
00010000
00000000
00001000
00000000
00000000
00000010
00000000
00000000
00000100
00000000
,
00002000
00000000
00000000
00000000
,
00003002
00000000
00000000
00000000
,
00000203
00000000
00000000
00000000
,
00002300
00000000
00000000
00000000
,
00023000
00000000
00000000
00000000
,
00230000
00000000
00000000
00000000
,
20300000
00000000
00000000
00000000
,
30020000
00000000
00000000
00030000
,
10010000
00000000
10000000
01000000
01000000
10000000
00010000
00000000
,
00100000
00001000
00010000
00000000
00000010
00010000
00001000
00000000
,
00010000
00000000
00000100
00001000
00001000
00000001
00000010
00000000
,
00000100
00010000
00001000
00000000
01000000
00001000
00010000
00000000
,
00011000
00000000
00100000
00010000
00010000
01000000
00010000
00010000
,
10000000
00100000
01000000
00100000
00010000
00100000
10000000
00010000
,
00100000
00000000
00010000
00100000
00010000
00000000
00100000
00000000
00001000
00000000
00010000
00001000
00010000
00000000
00000000
00000000
,
00011000
00000000
00002000
00023000
,
00030000
00000100
00001000
00000100
00020000
00000000
00032000
00000000
,
00003000
01000000
00010000
01000000
00002000
00000000
00023000
00000000
,
00030000
00000010
00001000
00000010
00020000
00000000
00032000
00000000
,
00003000
00100000
00010000
00100000
00002000
00000000
00023000
00000000
,
00030100
00000000
00000000
00001000
00000000
00000100
00001000
00000000
00000010
00000000
00000000
00001000
00000000
00000010
00001000
00000000
,
00000001
00000000
00000000
00000100
00000000
00000001
00000100
00000000
00000001
00000000
00000000
00000010
00000000
00000001
00000010
00000000
,
00000100
00000000
00000000
00010000
00001000
00000000
00000000
00100000
00010000
00000000
00000000
01000000
00100000
00000000
00000000
10000000
,
00010000
00000000
00000000
00000000
00000000
00000000
00000000
00000000
10000000
00010000
10000000
00010000
10000000
00000000
00000000
00000000
,
00100000
00000000
01000000
00100000
00000000
01000000
00010000
00000000
00100000
00000000
00010000
00000000
10000000
00000000
00000000
00000000
,
01000000
00000000
00100000
01000000
00000000
00100000
00010000
00000000
00100000
00000000
00001000
00100000
00000000
00001000
00010000
00000000
,
00001000
00000000
00010000
00000100
00000000
00001000
00000100
00000000
00001000
00000000
00000010
00000000
00000100
00000000
00000000
00000000
,
00000001
00000000
00000100
00000001
00000000
00001000
00000001
00000000
00001000
00000000
00000010
00001000
00000010
00000000
00000000
00000000
,
00010000
00000000
00001000
00010000
00000000
00001000
00100000
00000000
00010000
00000000
00100000
00000000
01000000
00000000
00000000
00000000
,
10000000
00000000
01000000
10000000
00000000
00100000
10000000
00000000
00100000
00000000
01000000
00100000
00000000
01000000
00010000
00000000
,
00100000
00000000
00010000
00100000
00010000
00000000
00100000
00001000
00010000
00000000
00000000
00000000
00011000
00000000
00000000
00000000
,
00000100
00000000
00000000
00001000
00000000
00000010
00000000
00000000
00000100
00000010
00000100
00000010
00000100
00000000
00000000
00000000
,
00000001
00000000
00000100
00000001
00000000
00000100
00000010
00000000
00001000
00000000
00000100
00001000
00000100
00000000
00010000
00000000
,
00001000
00000000
00010000
00001000
00000000
00100000
00001000
00000000
00100000
00000000
00010000
00100000
00010000
00000000
01000000
00000000
,
00100000
00000000
10000000
01000000
00000000
10000000
00010000
00000000
00100000
00000000
00010000
00100000
00010000
00000000
00100000
00000000
,
00001000
00000000
00010000
00001000
00000000
00010000
00000010
00000000
00001000
00000000
00000010
00001000
00000010
00000000
00000100
00000000
,
00000001
00000000
00000010
00000001
00000000
00000010
00000100
00000000
00001000
00000000
00000100
00001000
00000100
00000000
00010000
00000000
,
00001000
00000000
00010000
00001000
00000000
01000000
00010000
00000000
01000000
00000000
00100000
01000000
00100000
00000000
10000000
00000000
,
10010000
00000000
00000000
00000000
00010000
00000000
00100000
00000000
00110000
00000000
00000000
00000000
00001000
00010000
00001000
00000000
,
00010000
00000000
00000000
00011000
00000000
00000000
00000100
00000000
00001000
00000000
00000000
00001001
00000000
00000000
00000001
00000000
,
00000020
00000000
00000000
00000000
,
00000000
00000000
00000000
00000000
,
00000030
00000000
00000000
00000000
;

//--------------- dance-double - forcednature ----------------
#NOTEDATA:;
#STEPSTYPE:dance-double;
#DESCRIPTION:forcednature;
#CREDIT:forcednature;
#DIFFICULTY:Hard;
#METER:16;
#RADARVALUES:0,0,0,0,0;
#NOTES:
00000000
00000000
00000000
00000000
,
00000000
00000000
00000000
00000000
,
00000000
00000000
00000000
00000000
,
00000000
00000000
00000000
00000000
,
00000000
00000000
00000000
00000000
,
00011000
00000000
00100000
00010000
10000000
01000000
00100000
00000000
,
10010000
00000000
00010000
01000000
00001000
00010000
00001000
00000000
,
00011000
00000000
00000000
00000100
00001000
00000000
00000100
00000000
00001001
00000000
00000000
00000001
00000100
00000000
00000001
00000000
,
00001001
00000000
00000000
00000000
00001000
00000000
00000100
00000000
00010000
00001000
00010000
00001000
00010000
00000000
00001000
00000000
,
00100000
00000000
00000000
00000000
00010000
00100000
00010000
00100000
00010000
00000000
00100000
00000000
00100000
00000000
00010000
00000000
,
01000000
00000000
00000000
00000000
00010000
01000000
00010000
01000000
00010000
00000000
10000000
00000000
20000000
00000000
00000000
00000000
,
30100000
00000000
00000000
00000000
01000000
00100000
01000000
00100000
01000000
00000000
00100000
00000000
00100000
00000000
01000000
00000000
,
00001000
00000000
00000000
00000000
00010000
00001000
00010000
00001000
00010000
00000000
00000100
00000000
00002000
00000000
00000000
00000000
,
00003010
00000000
00000000
00000000
00001000
00000010
00001000
00000010
00001000
00000000
00000010
00000000
00000010
00000000
00000100
00000000
,
00000001
00000000
00000000
00000000
00000010
00000001
00000010
00000001
00000010
00000000
00000100
00000000
00002000
00000000
00000000
00000000
,
00003010
00000000
00000000
00000000
00010000
00001000
00010000
00001000
00010000
00000000
00001000
00000000
00001000
00000000
00100000
00000000
,
00010000
00000000
00000000
00000000
01000000
00010000
01000000
00010000
01000000
00000000
00100000
00000000
20000000
00000000
00000000
00000000
,
31000000
00000000
00100000
01000000
10000000
00000000
01000000
00000000
00010000
00000000
00001000
00000000
00010000
00000000
00000000
00000000
,
00000100
00000000
00001000
00000100
00000010
00000000
00000001
00000000
00000100
00000000
00001000
00000000
00000100
00000000
00000000
00000000
,
00000001
00000000
00000100
00000001
00001000
00000000
00000010
00000000
00000100
00000000
00001000
00000000
00010000
00000000
00000000
00000000
,
00001000
00000000
00010000
00001000
00100000
00000000
00010000
00000000
01000000
00000000
00010000
00000000
10000000
00000000
00000000
00000000
,
01000000
00000000
00100000
01000000
00000000
01000000
00100000
00000000
00010000
00000000
00100000
00010000
00100000
00000000
00001000
00000000
,
00010000
00000000
00001000
00010000
00000000
00010000
00001000
00000000
00010000
00000000
00000100
00001000
00000100
00000000
00001000
00000000
,
00000010
00001000
00000010
00000000
00000100
00000010
00000100
00000000
00000001
00001000
00000001
00001000
00000001
00001000
00000001
00001000
,
00000010
00000000
00000010
00000100
00000000
00000100
00000001
00000000
00000001
00001000
00000000
00001000
00000100
00000000
00010000
00000000
,
00001000
00000000
00010000
00001000
00000000
00001000
00100000
00000000
00010000
00000000
01000000
00000000
10000000
00000000
01000000
00000000
,
00010000
00000000
10000000
00100000
00000000
00100000
01000000
00000000
10000000
00000000
01000000
00010000
01000000
00000000
00010000
01000000
,
00001000
00000000
00001000
00010000
00000000
00010000
00000100
00000000
00000100
00001000
00000000
00000010
00001000
00000000
00000001
00000000
,
00000010
00000000
00000010
00000100
00000000
00000100
00010000
00000000
00010000
00001000
00000000
00100000
00001000
00000000
00010000
00000000
,
00000010
00001000
00000010
00001000
00000000
00000001
00000100
00000000
00001000
00000000
00000100
00000000
00000001
00000000
00000010
00000000
,
00001000
00010000
00001000
00010000
00000000
00001000
00100000
00000000
00010000
00000000
01000000
00100000
10000000
00000000
01000000
00100000
,
00010000
00000000
00010000
01000000
00000000
01000000
00001000
00000000
00001000
00010000
00000000
00000010
00020000
00000000
00000000
00000000
,
00031000
00000000
00000010
00000100
00000000
00000010
00000001
00000000
00000100
00000001
00000000
00000100
00001000
00000000
00010000
00000000
,
00001000
00100000
00001000
00100000
00000000
00010000
00100000
00000000
01000000
00000000
00010000
00000000
01000000
00000000
10000000
00000000
,
00100000
10000000
00100000
10000000
00000000
00100000
01000000
00000000
00010000
00000000
00100000
00001000
00010000
00000000
00000010
00010000
,
00001000
00000000
00001000
00010000
00000000
00010000
00000100
00000000
00000100
00001000
00000000
00000010
00001000
00000000
00000001
00000000
,
00000010
00000000
00000010
00000100
00000000
00000100
00010000
00000000
00010000
00001000
00000000
00100000
00001000
00000000
00010000
00000000
,
00100000
01000000
00100000
01000000
00000000
00010000
01000000
00000000
00100000
00000000
10000000
00000000
01000000
00000000
00010000
00000000
,
00001000
00100000
00001000
00100000
00000000
00001000
00010000
00000000
00000100
00000000
00001000
00000010
00000100
00000000
00000001
00000010
,
00000200
00000000
00000000
00000000
00001300
00000001
00001000
00000000
00000010
00000000
00001000
00000010
00000000
00010000
00001000
00000000
,
00011000
00000000
00000000
00100000
00000000
00000000
00010000
00000000
01000000
00000000
00000000
00100000
00000000
00000000
10000000
00000000
,
02000000
00000000
00000000
00000000
00100000
00000000
00000000
00100000
00000000
00100000
00000000
00000000
13000000
00000000
00010000
00000000
,
00200000
00000000
00000000
00000000
00010000
00000000
00000000
00010000
00000000
00010000
00000000
00000000
00301000
00000000
00010000
00000000
,
00000200
00000000
00000000
00000000
00001000
00000000
00000000
00001000
00000000
00001000
00000000
00000000
00000310
00000000
00000001
00000000
,
00002000
00000000
00000000
00000000
00000010
00000000
00000000
00000010
00000000
00000010
00000000
00000000
00003001
00000000
00000100
00000000
,
00002000
00000000
00000000
00000000
00010000
00000000
00000000
00010000
00000000
00010000
00000000
00000000
00103000
00000000
00010000
00000000
,
02000000
00000000
00000000
00000000
00100000
00000000
00000000
00100000
00000000
00100000
00000000
00000000
03010000
00000000
10000000
00000000
,
00200000
00000000
00000000
00000000
01000000
00000000
00000000
01000000
00000000
01000000
00000000
00000000
10300000
00000000
00010000
00000000
,
02000000
00000000
00000000
00000000
00100000
00000000
00000000
00100000
00000000
00100000
00000000
00000000
03001000
00000000
00010000
00000000
,
00011000
00000000
00001000
00000000
00010000
00000100
00010000
00000000
00000100
00000000
00001000
00000100
00001000
00000000
00000010
00000000
,
00000100
00000000
00000001
00000000
00000010
00000000
00000001
00001000
00000000
00001000
00000001
00000000
00000100
00000000
00000010
00000000
,
00001000
00000000
00000100
00000000
00001000
00000100
00001000
00000000
00000100
00000000
00010000
00001000
00010000
00000000
00001000
00000000
,
01000000
00000000
00010000
00000000
01000000
00000000
00100000
10000000
00000000
10000000
00100000
00000000
01000000
00000000
00010000
00000000
,
10010000
00000000
00000000
00000000
10000000
01000000
10000000
01000000
10000000
00000000
01000000
10000000
00010000
00000000
00100000
00000000
,
00001000
00000000
00010000
00001000
00010000
00000000
00001000
00000000
00010000
00001000
00010000
00001000
00010000
00000000
00000100
00000000
,
00001000
00000010
00001000
00000010
00001000
00000000
00000010
00000000
00000100
00000010
00000100
00000010
00000100
00000000
00000001
00000000
,
00001001
00000000
00000002
00002003
,
00003010
00000100
00000100
00001000
00020000
00000000
00032000
00000000
,
00013000
00100000
00100000
10000000
00200000
00000000
02300000
00000000
,
03010000
10000000
10000000
01000000
00200000
00000000
02300000
00000000
,
03100000
00001000
00001000
00010000
00002000
00000000
00023000
00000000
,
00030100
00000000
00001000
00000100
00000000
00001000
00000010
00000000
00000100
00000000
00000010
00000100
00000000
00000001
00000100
00000000
,
00000001
00000000
00000010
00000001
00000000
00000010
00000100
00000000
00001000
00000000
00000100
00010000
00000000
00001000
00010000
00000000
,
00001000
00000000
00010000
00001000
00100000
00000000
00010000
00100000
00001000
00000000
00010000
00001000
01000000
00000000
00010000
01000000
,
00001000
00000000
00000000
00000000
00000000
00000000
00000000
00000000
00010000
00001000
00010000
00001000
00010000
00000000
00000000
00000000
,
00000100
00000000
00001000
00000100
00000000
00001000
00000010
00000000
00000100
00000000
00000010
00000100
00000001
00000000
00000010
00000001
,
00000010
00000000
00000100
00000010
00000000
00000010
00000100
00000000
00001000
00000000
00000100
00001000
00000000
00000100
00010000
00000000
,
00001000
00000000
00010000
00001000
00000000
00100000
00010000
00000000
00100000
00000000
01000000
00100000
01000000
00000000
00100000
01000000
,
10000000
00000000
00100000
10000000
00000000
10000000
00010000
00000000
01000000
00000000
00010000
00100000
00001000
00000000
00010000
00000000
,
00001000
00000000
00010000
00001000
00000000
00010000
00000100
00000000
00001000
00000000
00000010
00001000
00000010
00000000
00000100
00000010
,
00000100
00000000
00000001
00000100
00000000
00000100
00000010
00000000
00001000
00000000
00000100
00001000
00000000
00000100
00010000
00000000
,
00001000
00000000
00100000
00000000
00100000
00000000
00100000
00000000
00010000
00100000
01000000
00000000
00100000
00010000
00100000
00000000
,
01000000
00000000
00000000
11000000
00000000
11000000
00000000
00000000
10000000
00010000
10000000
00010000
00200000
00000000
00000000
00000000
,
00310000
00000000
00100000
00010000
00000000
00100000
00001000
00010000
00001000
00000000
00010000
00001000
00010000
00000000
00000100
00001000
,
00000100
00000000
00001000
00000010
00000000
00000100
00000010
00000100
00000001
00000000
00000010
00000001
00000010
00000000
00000100
00000010
,
00000001
00000000
00000100
00000001
00000000
00000100
00000010
00001000
00000010
00000000
00001000
00000100
00001000
00000000
00000100
00010000
,
00001000
00000000
00010000
00001000
00000000
00100000
00010000
00100000
00010000
00000000
01000000
00010000
10000000
00000000
00100000
00000000
,
01000000
00100000
01000000
00010000
00000000
00100000
00010000
00100000
00010000
00000000
00100000
00001000
00010000
00000000
00001000
00000000
,
00010000
00000100
00001000
00000100
00000000
00001000
00000010
00001000
00000010
00000000
00000100
00000001
00000000
00001000
00000001
00000000
,
00001001
00000000
00001000
00000100
00010000
00000000
00001000
00000000
00011000
00000000
00001000
01000000
00010000
00000000
10000000
00000000
,
10010000
00000000
00000000
11000000
00000000
00000000
00010000
00000000
00110000
00000000
00000000
00101000
00000000
00000000
00010000
00000000
,
00022000
00000000
00000000
00000000
,
00000000
00000000
00000000
00000000
,
00033000
00000000
00000000
00000000
;
