#VERSION:0.83;
#TITLE:Raison d'être~交差する宿命~;
#SUBTITLE:;
#ARTIST:Zektbach;
#TITLETRANSLIT:Raison d'etre~kousa suru shukumei~;
#SUBTITLETRANSLIT:;
#ARTISTTRANSLIT:;
#GENRE:ASTRAL CHOIR;
#CREDIT:;
#MUSIC:Raison d'etre~kousa suru shukumei~.ogg;
#BANNER:Raison d'etre~kousa suru shukumei~.png;
#BACKGROUND:Raison d'etre~kousa suru shukumei~.-bg.png;
#CDTITLE:./CDTitles/bm IIDX 17 SIRIUS.png;
#SAMPLESTART:56.142;
#SAMPLELENGTH:15.000;
#SELECTABLE:YES;
#OFFSET:1.046;
#BPMS:0.000=155.000
,84.000=175.000
;
#STOPS:;
#TIMESIGNATURES:0.000=4=4;
#BGCHANGES:2.000=Raison d'etre~kousa suru shukumei~.mp4=1.000=0=0=0=StretchNoLoop====,
99999.000=-nosongbg-=1.000=0=0=0=StretchNoLoop====
;
#FGCHANGES:;

//--------------- dance-single - forcednature ----------------
#NOTEDATA:;
#STEPSTYPE:dance-single;
#DESCRIPTION:forcednature;
#DIFFICULTY:Beginner;
#METER:3;
#RADARVALUES:0,0,0,0,0;
#CREDIT:forcednature;
#NOTES:
0000
0000
0000
0000
,
0000
0000
0000
0000
,
0000
0000
0000
0000
,
0000
0000
0000
0000
,
0000
0000
0000
0000
,
0001
0000
0000
0000
,
0010
0000
0000
0000
,
0100
0000
0000
0000
,
1000
0000
0000
0000
,
1001
0000
0000
0000
,
0000
0000
0000
0000
,
0110
0000
0000
0000
,
0000
0000
0000
0000
,
1000
0000
0000
0000
,
0010
0000
0000
0000
,
0100
0000
0000
0000
,
0001
0000
0000
0000
,
1001
0000
0000
0000
,
0000
0000
0000
0000
,
0110
0000
0000
0000
,
0000
0000
0000
0000
,
2002
0000
0000
0000
,
3003
0000
0000
0000
,
0001
0000
0000
0000
,
0001
0000
0000
0000
,
0010
0000
0000
0000
,
0000
0000
0000
0000
,
0001
0000
0000
0000
,
1000
0000
0000
0000
,
0100
0000
0000
0000
,
0000
0000
0000
0000
,
1001
0000
0000
0000
,
0000
0000
0000
0000
,
0100
0000
0000
0000
,
0000
0000
0000
0000
,
0110
0000
0000
0000
,
0000
0000
0000
0000
,
0001
0000
0000
0000
,
1000
0000
0000
0000
,
1001
0000
0000
0000
,
0001
0000
0000
0000
,
0010
0000
0000
0000
,
0001
0000
0000
0000
,
1000
0000
0000
0000
,
0100
0000
0000
0000
,
1000
0000
0000
0000
,
0010
0000
0000
0000
,
1001
0000
0000
0000
,
0000
1000
0000
0000
,
0010
0000
0000
0000
,
0000
1000
0000
0000
,
0100
0000
0000
0000
,
0000
1000
0000
0000
,
0001
0000
0000
0000
,
0000
0010
0000
0000
,
1001
0000
0000
0000
,
0001
0000
0000
0000
,
0100
0000
0000
0000
,
0010
0000
0000
0000
,
1001
0000
0000
0000
,
1000
0000
0000
0000
,
0100
0000
0000
0000
,
0010
0000
0000
0000
,
0110
0000
0000
0000
,
0000
0000
0000
0000
,
0001
0000
0000
0000
,
0000
0000
0000
0000
,
0100
0000
0000
0000
,
0010
0000
0000
0000
,
1000
0000
0000
0000
,
0001
0000
0000
0000
,
0100
0000
0000
0000
,
0000
0000
0000
0000
,
0010
0000
0000
0000
,
1000
0000
0000
0000
,
0100
0000
0000
0000
,
1000
0000
0000
0000
,
0001
0000
0000
0000
,
0010
0000
0000
0000
,
1001
0000
0000
0000
,
1000
0000
0000
0000
,
0010
0000
0000
0000
,
0100
0000
0000
0000
,
0001
0000
0000
0000
,
1000
0000
0000
0000
,
0100
0000
0000
0000
,
0010
0000
0000
0000
,
0001
0000
0000
0000
,
1001
0000
0000
0000
;

//--------------- dance-single - forcednature ----------------
#NOTEDATA:;
#STEPSTYPE:dance-single;
#DESCRIPTION:forcednature;
#DIFFICULTY:Easy;
#METER:7;
#RADARVALUES:0,0,0,0,0;
#CREDIT:forcednature;
#NOTES:
0000
0000
0000
0000
,
0000
0000
0000
0000
,
0000
0000
0000
0000
,
1001
0000
0000
0000
,
1001
0000
0000
0000
,
0002
0000
0000
0003
,
0200
0000
0000
0300
,
0020
0000
0000
0030
,
2000
0000
0000
3000
,
1001
0000
0001
0000
,
0100
0000
0001
0000
,
1001
0000
1000
0000
,
0100
0000
1000
0000
,
0010
1000
0010
0000
,
0100
0001
0100
0000
,
0001
0010
0001
0000
,
1000
0100
1000
0000
,
1001
0000
0001
0000
,
0010
0000
0001
0000
,
1001
0000
1000
0000
,
0010
0000
1000
0000
,
2002
0000
0000
0000
,
0000
0000
3003
0000
,
1000
0100
0000
0100
,
1000
0000
0001
0000
,
0010
0100
0010
0000
,
0001
0000
1000
0000
,
0001
0100
0000
0100
,
0001
0000
1000
0000
,
0010
0100
0010
0000
,
1000
0000
0001
0000
,
2002
0000
3003
0000
,
1000
1000
0000
0100
,
2000
0000
3000
0000
,
0001
0001
0000
0100
,
0002
0000
0003
0000
,
0010
0010
0000
0001
,
2000
0000
0000
3000
,
0020
0000
0000
0030
,
0100
0001
0100
0001
,
1000
0010
0100
0001
,
1000
0100
1000
0100
,
0010
0001
1000
0010
,
0200
0000
0301
1000
,
0200
0000
0310
0001
,
2000
0000
3010
0100
,
0002
0000
0013
0000
,
2002
0000
0000
0000
,
3003
0100
0000
0000
,
0220
0000
0000
0000
,
0330
0001
0000
0000
,
2002
0000
0000
0000
,
3003
0010
0000
0000
,
0220
0000
0000
0000
,
0330
1000
0000
0000
,
0001
0000
0100
0000
0000
0001
0000
0001
,
0000
1000
0000
0001
0000
1000
0000
0000
,
1000
0000
0100
0000
0000
1000
0000
1000
,
0000
0001
0000
1000
0000
0001
0000
0000
,
0001
0000
0010
0000
0000
0001
0000
0001
,
0000
1000
0000
0001
0000
1000
0000
0000
,
1000
0000
0010
0000
0000
1000
0000
1000
,
0000
0001
0000
1000
0000
0002
0000
0000
,
0003
1000
0000
0100
,
0000
1000
0000
0001
,
0000
0010
0000
0100
,
0000
0010
0000
0001
,
0000
1000
0020
0000
,
0030
0100
0002
0000
,
0003
1000
0200
0000
,
0320
0000
0032
0000
,
0103
0010
1000
0010
,
0100
0000
0001
1000
,
0001
0010
0100
0010
,
0001
0000
1000
0010
,
1000
0001
0100
0001
,
1000
0000
0100
0010
,
0001
0001
1000
0001
,
0100
0100
0010
0100
,
0220
0000
0330
0000
,
1001
0000
1000
0100
,
0010
0001
0100
0010
,
1001
0000
0001
0100
,
0001
1000
0100
0010
,
0110
0000
1000
0010
,
1000
0001
0010
0100
,
1001
0000
0001
0100
,
0001
1000
0100
0010
,
0220
0000
0000
0000
,
0000
0000
0000
0000
,
0330
0000
0000
0000
;

//--------------- dance-single - forcednature ----------------
#NOTEDATA:;
#STEPSTYPE:dance-single;
#DESCRIPTION:forcednature;
#DIFFICULTY:Medium;
#METER:11;
#RADARVALUES:0,0,0,0,0;
#CREDIT:forcednature;
#NOTES:
0000
0000
0000
0000
,
0000
0000
0000
0000
,
0000
0000
0000
0000
,
1001
1000
0100
0010
,
1001
0001
0100
0010
,
0120
1000
0200
0330
,
0210
0001
0020
0330
,
1002
0100
0020
0033
,
2001
0100
0020
3030
,
1001
0000
1000
0000
0100
1000
0000
1000
,
0010
0000
1000
0000
0100
1000
0000
0010
,
0100
0000
0001
0000
0010
0001
0000
0001
,
0100
0000
0001
0000
0010
0001
0000
0100
,
0020
1000
0200
0330
,
0210
0001
0020
0330
,
2001
0100
0020
3030
,
1002
0100
0020
0033
,
1001
0000
0001
0000
0010
0100
0000
0100
,
0010
0000
0001
0000
0010
0100
0000
1000
,
0010
0000
0100
0000
0001
1000
0000
1000
,
0010
0000
0100
0000
0001
1000
0000
0100
,
0020
0000
0000
0000
,
0000
0000
0000
0030
,
1001
0000
0101
0000
0001
1000
0001
0000
,
1000
0000
0010
0000
1000
0001
1000
0000
,
0100
0010
0001
0000
0100
0010
1000
0000
,
0001
0010
0100
0010
0001
0000
1001
0000
,
0100
0000
1010
0000
0001
1000
0001
0000
,
1000
0000
0010
0000
0100
0001
1000
0000
,
0100
1000
0100
0000
0010
0001
0010
0000
,
0100
1000
0001
1000
0100
0000
0010
0000
,
1002
0000
0000
0000
0100
0000
0000
1000
,
1000
1000
0003
0000
,
2010
0000
0000
0000
0001
0000
0000
0100
,
0100
0100
3000
0000
,
0012
0000
0000
0000
1000
0000
0000
0010
,
0010
0010
0003
0000
,
0210
0000
0000
0000
1000
0000
0000
0010
,
0010
0010
0300
0000
,
1001
0000
0101
0000
0001
1000
0010
0000
,
0100
0001
0100
0000
0010
1000
0001
0000
,
0010
0100
1000
0000
0010
1000
0001
0000
,
0100
0010
0100
0000
0001
1000
0100
0000
,
0010
0001
0010
0100
0010
0001
0010
0000
,
0100
1000
0100
0010
0100
1000
0100
0000
,
0010
0001
1000
0001
0010
0001
1000
0000
,
0010
0100
0001
0100
0010
0100
0001
0000
,
2001
0000
0000
0000
,
0000
0100
0000
0000
,
3002
0000
0000
0000
,
0000
0100
0000
0000
,
0023
0000
0000
0000
,
0000
0100
0000
0000
,
0032
0000
0000
0000
,
0000
2000
0000
3003
,
1100
0000
1010
0000
0000
1000
0000
0001
,
0000
0100
0000
0010
0000
1000
0000
0001
,
0100
0000
0000
0000
0001
1000
0000
0100
,
0000
1000
0000
0001
0010
0001
0010
0000
,
0110
0000
1100
0000
0000
0001
0000
1000
,
0010
1000
0000
0001
0000
0100
0000
0001
,
1000
0001
0000
0000
0010
0001
0000
0001
,
0100
0000
0110
0000
0010
1000
0010
1000
,
0000
0002
0003
0200
,
0300
0020
0030
2000
,
3000
0002
0003
0020
,
0030
0002
0003
2000
,
3000
0100
0220
0330
,
0000
0001
2002
3003
,
1000
0010
1000
0000
0001
0010
0001
0000
,
0100
0010
0100
0010
1000
0000
1100
0000
,
0001
0010
0000
0000
0010
0001
0000
0000
0001
0010
0000
0000
0100
0000
0000
0000
,
1000
0001
0000
0000
0001
1000
0000
0000
0010
0000
0100
0000
0001
0000
0000
0000
,
1000
0100
0000
0000
0100
1000
0000
0000
1000
0100
0000
0000
0010
0000
0000
0000
,
0001
1000
0000
0000
1000
0001
0000
0000
0100
0000
0010
0000
1000
0000
0000
0000
,
1100
0000
1010
0000
0010
0100
0001
0000
,
0010
0100
1000
0000
0001
0100
0010
0000
,
1010
1100
0101
0011
,
1000
0001
1000
0001
0100
0010
0100
0000
,
0220
0000
0000
0330
,
0001
1000
0001
1000
0100
1000
0100
1000
,
0001
0010
0100
0000
0010
0001
1000
0000
,
0001
0100
0001
0100
0001
1000
0001
1000
,
0010
0100
0001
0000
0010
0100
1000
0000
,
0100
0010
0100
0010
0001
0010
0001
0010
,
0100
1000
0001
0000
0100
0001
1000
0000
,
0010
0100
0010
0100
0001
1000
0001
1000
,
0010
0100
0001
0000
0010
0100
1000
0000
,
2002
0000
0000
0000
,
0000
0000
0000
0000
,
3003
0000
0000
0000
;

//--------------- dance-single - forcednature ----------------
#NOTEDATA:;
#STEPSTYPE:dance-single;
#DESCRIPTION:forcednature;
#DIFFICULTY:Hard;
#METER:15;
#RADARVALUES:0,0,0,0,0;
#CREDIT:forcednature;
#NOTES:
0000
0000
0000
0000
,
0000
0000
0000
0000
,
0000
0000
0000
0000
,
0000
0000
0000
0000
,
0000
0000
0000
0000
,
1001
0000
0000
1000
0100
0000
0100
0000
1000
0000
0100
0000
0000
0000
0000
0000
,
0010
0000
0000
0001
0010
0000
0010
0000
0001
0000
0010
0000
0000
0000
0000
0000
,
0001
0000
0000
0100
0001
0000
0001
0000
0100
0000
0001
0000
0000
0000
0000
0000
,
1000
0000
0000
0010
1000
0000
1000
0000
0010
0000
1000
0000
0000
0000
0000
0000
,
1001
0100
0010
0100
0001
1000
0000
1000
,
0010
0100
0010
0100
0001
1000
0000
0100
,
1001
0100
0010
0100
1000
0001
0000
0001
,
0010
0100
0010
0100
1000
0001
0000
0100
,
1001
0000
0000
1000
0010
0000
0000
0100
0001
0000
0010
0000
0010
0000
0000
0000
,
0001
0000
0000
0010
0001
0000
0000
1000
0100
0000
0010
0000
0010
0000
0000
0000
,
0100
0000
0000
1000
0010
0000
0000
0100
0001
0000
0010
0000
0010
0000
0000
0000
,
0001
0000
0000
0100
0010
0000
0000
1000
0001
0000
0100
0000
0100
0000
0000
0000
,
1010
0001
0100
0010
1000
0001
0000
0001
,
0100
0010
0100
0010
1000
0001
0000
0100
,
0011
1000
0100
0010
0001
1000
0000
1000
,
0100
0010
0100
0010
0001
1000
0000
0010
,
2002
0000
0000
0000
,
0000
0000
0000
3003
,
0001
0000
0100
0000
0010
0000
1000
0000
0100
0000
0010
0100
0010
0000
0001
0000
,
1000
0000
0010
0000
0100
0000
0001
0000
0010
0000
0100
0010
0100
0000
1000
0000
,
0001
0000
0100
0001
0100
0000
0010
0000
1000
0000
0100
1000
0100
0000
0010
0000
,
0001
0000
1000
0010
0100
0000
0001
0000
0010
0000
0000
0000
1001
0000
0000
0000
,
1000
0000
0100
0000
0010
0000
0001
0000
0100
0000
0010
0100
0010
0000
1000
0000
,
0001
0000
0010
0000
0100
0000
1000
0000
0010
0000
0100
0010
0100
0000
0001
0000
,
1000
0000
0100
1000
0100
0000
0010
0000
0001
0000
0100
0001
0100
0000
0010
0000
,
1000
0000
0001
0010
0100
0000
1000
0000
0010
0000
0000
0000
1001
0000
0000
0000
,
0201
0000
0000
0000
0320
0000
1030
0010
,
1010
1010
0001
1000
,
1200
0000
0000
0000
0320
0000
0031
0010
,
0011
0011
1000
0001
,
0201
0000
0000
0000
0320
0000
1030
0100
,
0110
0110
0001
1000
,
1200
0000
0000
0000
0320
0000
0031
0100
,
0110
2002
0000
3003
,
1000
0100
0010
0000
0001
0000
0100
0000
0010
0000
0100
0000
0001
0000
0010
0000
,
0100
1000
0001
0000
0100
0000
0010
0000
1000
0000
0100
0000
1000
0000
0001
0000
,
0100
0001
0100
0000
0010
0000
1000
0000
0100
1000
0100
0000
0010
0000
0001
0000
,
0100
0010
0100
0000
0010
0000
1000
0000
0001
0000
0010
0000
1001
0000
0000
0000
,
1000
0100
1000
0100
0001
0100
1000
0001
,
0010
0001
0010
0001
0010
0000
0100
0000
1000
0000
0010
0000
0110
0000
0000
0000
,
0001
0100
0001
0100
1000
0100
0001
1000
,
0010
1000
0010
1000
0010
0000
0100
0000
0001
0000
0000
0000
0011
0000
0000
0000
,
2002
0000
3003
0000
0100
1000
0010
0100
,
0001
0000
0011
0000
0000
1000
0000
0001
,
0200
0000
0300
0000
0001
0100
0010
1000
,
0100
0000
0110
0000
0000
0001
0000
0100
,
0020
0000
0030
0000
1000
0100
1000
0001
,
0010
0000
0110
0000
0000
0001
0000
1000
,
0020
0000
0030
0000
0100
0001
1000
0100
,
1000
0000
1010
0000
0000
0001
0000
0010
,
0100
0000
0110
0000
0010
0001
0100
0001
,
1000
0001
0100
0001
0010
0100
1000
0001
,
0100
0000
0110
0000
0010
1000
0100
1000
,
0001
1000
0100
1000
0010
0100
0001
0010
,
0100
0000
0110
0000
0010
0001
0100
0001
,
0100
1000
0100
0001
0010
0001
1000
0010
,
0100
0000
0110
0000
0010
1000
0100
1000
,
0100
0001
0100
1000
0001
0100
0010
0000
,
1001
0002
0003
0020
,
0030
0200
0300
2000
,
3000
0020
0030
0200
,
0300
0002
0003
0010
,
0110
2000
0020
3030
,
0110
0002
0020
0033
,
0101
0001
0100
0000
1010
1000
0010
0000
,
1001
0000
0001
0000
0010
0100
0010
0000
0100
0000
1000
0000
0002
0000
0000
0000
,
1003
0010
1000
0000
0001
0000
0100
0000
0001
1000
0001
0000
0010
0000
0100
0000
,
1000
0100
1000
0000
0001
0000
0100
0000
0001
0000
0010
0000
1000
0000
0010
0000
,
0001
0010
0001
0000
1000
0000
0010
0000
0100
0010
0100
0000
0001
0000
0010
0000
,
0100
1000
0100
0000
1000
0000
0010
0000
0200
0000
0000
0000
0001
0000
0300
0000
,
0010
1000
0010
0000
1000
0010
1000
0000
0001
0000
0100
0000
0101
0000
0000
0000
,
0001
0010
0001
0000
0010
0100
0010
0000
0001
0000
1000
0000
1100
0000
0000
0000
,
0001
0010
0100
0000
0010
0000
0001
0000
1000
0010
0100
0000
0001
0000
1000
0000
,
0100
0010
0001
0000
0100
0000
0010
0000
1000
0000
0001
1000
0001
0000
0010
0000
,
0220
0000
0000
0330
,
0001
0000
1000
0100
0010
0000
0100
0000
1000
0000
0010
0100
0001
0000
0010
0000
,
0110
0000
1000
0001
0100
0000
0010
0000
1000
0000
0001
0010
0100
0000
1000
0000
,
1001
0000
0001
0100
0010
0000
1000
0000
0100
0000
0010
0100
1000
0000
0001
0000
,
1001
0000
1000
0010
0100
0000
0001
0000
0010
0000
0001
1000
0010
0000
0100
0000
,
0110
0000
0001
1000
0100
0000
1000
0100
1000
0000
0010
0100
0001
0000
0010
0000
,
0001
0000
0100
0001
1000
0000
0010
0100
0001
0000
0010
0001
0010
0000
0100
0000
,
1000
0000
0010
1000
0001
0000
0100
0010
0100
0000
0001
0010
0100
0000
1000
0000
,
0001
0000
0100
0010
1000
0000
0100
1000
0100
0000
0010
0001
1000
0000
0010
0000
,
0220
0000
0000
0000
,
0000
0000
0000
0000
,
0330
0000
0000
0000
;

//--------------- dance-double - forcednature ----------------
#NOTEDATA:;
#STEPSTYPE:dance-double;
#DESCRIPTION:forcednature;
#DIFFICULTY:Easy;
#METER:9;
#RADARVALUES:0,0,0,0,0;
#CREDIT:forcednature;
#NOTES:
00000000
00000000
00000000
00000000
,
00000000
00000000
00000000
00000000
,
00000000
00000000
00000000
00000000
,
00011000
00000000
00000000
00000000
,
00011000
00000000
00000000
00000000
,
00200000
00000000
00000000
00300000
,
00002000
00000000
00000000
00003000
,
00020000
00000000
00000000
00030000
,
00000200
00000000
00000000
00000300
,
00011000
00000000
00000010
00000000
,
00001000
00000000
00000100
00000000
,
00011000
00000000
00100000
00000000
,
00010000
00000000
01000000
00000000
,
00100000
10000000
01000000
00000000
,
00100000
00010000
01000000
00000000
,
00001000
00010000
00000010
00000000
,
00010000
00001000
00100000
00000000
,
00011000
00000000
00000100
00000000
,
00001000
00000000
00000010
00000000
,
00011000
00000000
01000000
00000000
,
00010000
00000000
00100000
00000000
,
00022000
00000000
00000000
00000000
,
00000000
00000000
00033000
00000000
,
00100000
00000000
00010000
00000000
01000000
00010000
01000000
00000000
,
00100000
10000000
01000000
00010000
,
00001000
00000000
00100000
00000000
00001000
00010000
00001000
00000000
,
00010000
00000100
00001000
00000010
,
00000100
00000000
00001000
00000000
00000100
00000001
00000100
00000000
,
00000001
00000010
00000100
00010000
,
00001000
00000000
00100000
00000000
00010000
10000000
00010000
00000000
,
01000000
00100000
10000000
01000000
,
20020000
00000000
30030000
00000000
,
00010000
00010000
00000000
00100000
,
00002000
00000000
00003000
00000000
,
00010000
00010000
00000000
00000100
,
00002000
00000000
00003000
00000000
,
00000010
00000010
00000000
00000100
,
00000002
00000000
00000003
00000000
,
00000020
00000000
00000000
00000030
,
00000100
00001000
00000100
00000000
00010000
00000000
00001000
00000000
,
01000000
00010000
01000000
00000000
00001000
00000000
00010000
00000000
,
00000010
00001000
00000010
00000000
00000100
00000000
00000001
00000000
,
00000010
00000001
00000010
00000000
00000100
00000000
00010000
00000000
,
00002000
00000000
00103000
00010000
,
02000000
00000000
03100000
10000000
,
02000000
00000000
03100000
00001000
,
00010000
00001000
00010000
00001000
00010000
00000000
00001000
00000000
,
00022000
00000000
00000000
00000000
,
00033000
00000000
00000100
00000000
00000000
00001000
00000000
00000000
,
00002002
00000000
00000000
00000000
,
00003003
00000000
00000001
00000000
00000000
00000100
00000000
00000000
,
00000220
00000000
00000000
00000000
,
00000330
00000000
00000010
00000000
00000000
00010000
00000000
00000000
,
00022000
00000000
00000000
00000000
,
00033000
00000000
00100000
00000000
00000000
00010000
00000000
00000000
,
01000000
00000000
00100000
00000000
00000000
10000000
00000000
10000000
,
00000000
01000000
00000000
00010000
00000000
00001000
00000000
00001000
,
00010000
00000000
00001000
00000000
00000000
00010000
00000000
00010000
,
00000000
00000100
00000000
00001000
00000000
00000010
00000000
00000010
,
00000100
00000000
00000001
00000000
00000000
00000010
00000000
00000010
,
00000000
00000001
00000000
00000100
00000000
00001000
00000000
00010000
,
00001000
00000000
00001000
00000000
00000000
00010000
00000000
00010000
,
00000000
00100000
00000000
10000000
00000000
00020000
00000000
00000000
,
00030000
10000000
00000000
01000000
,
00000000
00100000
00000000
00010000
,
00000000
00001000
00000000
00000100
,
00000000
00000010
00000000
00000001
,
00000000
00001000
00000020
00000000
,
00000030
00010000
00002000
00000000
,
00003000
01000000
00020000
00000000
,
00230000
00000000
02300000
00000000
,
13000000
00100000
01000000
00100000
,
00010000
00000000
00001000
00000000
00010000
00001000
00010000
00000000
,
00001000
00000010
00000100
00000010
,
00000001
00000000
00000100
00000000
00000001
00001000
00000001
00000000
,
00000010
00000100
00010000
00001000
,
00100000
00000000
00010000
00000000
10000000
00010000
10000000
00000000
,
00100000
00100000
01000000
00010000
,
00100000
00110000
00001000
00011000
,
00000200
00000000
00000000
00000300
,
00001000
00000010
00000100
00000000
00000001
00000000
00001000
00000000
,
00000100
00010000
00001000
00000000
01000000
00000000
00010000
00000000
,
00100000
01000000
10000000
00000000
00100000
00000000
01000000
00000000
,
00010000
00100000
00001000
00000000
00010000
00000000
00000010
00000000
,
00001000
00000100
00000010
00000000
00000001
00000000
00000100
00000000
,
00000010
00001000
00000001
00000000
00000010
00000000
00000100
00000000
,
00010000
00001000
00100000
00000000
00010000
00000000
01000000
00000000
,
10000000
01000000
00010000
00000000
00100000
00000000
00001000
00000000
,
00022000
00000000
00000000
00000000
,
00000000
00000000
00000000
00000000
,
00033000
00000000
00000000
00000000
;

//--------------- dance-double - forcednature ----------------
#NOTEDATA:;
#STEPSTYPE:dance-double;
#DESCRIPTION:forcednature;
#DIFFICULTY:Medium;
#METER:13;
#RADARVALUES:0,0,0,0,0;
#CREDIT:forcednature;
#NOTES:
00000000
00000000
00000000
00000000
,
00000000
00000000
00000000
00000000
,
00000000
00000000
00000000
00000000
,
00011000
00000000
00010000
00100000
00010000
00000000
00001000
00000000
,
00011000
00000000
00001000
00000010
00001000
00000000
00010000
00000000
,
00000100
00001000
00000001
00000100
00002000
00000000
00003000
00000000
,
00010000
00100000
10000000
00010000
02000000
00000000
03000000
00000000
,
00100000
10000000
01000000
00010000
00002000
00000000
00003000
00000000
,
00000010
00000100
00010000
00001000
00000020
00000000
00000030
00000000
,
00000100
00001000
00001000
00000010
00001000
00000100
00000000
00010000
,
00001000
00100000
00000000
00010000
00100000
00001000
00000000
00010000
,
00001000
01000000
01000000
00010000
01000000
00100000
00000000
10000000
,
01000000
00100000
00000000
00001000
00010000
00000100
00000000
00010000
,
00001000
00000010
00000001
00000100
00001000
00000000
00011000
00000000
,
00010000
00100000
10000000
01000000
00010000
00000000
00011000
00000000
,
00001000
00000100
00000001
00000010
00001000
00000000
00011000
00000000
,
00010000
01000000
10000000
00100000
00010000
00000000
00011000
00000000
,
00001000
00000010
00000010
00000001
00000010
00001000
00000000
00010000
,
00000100
00010000
00000000
00001000
01000000
00001000
00000000
00010000
,
00100000
10000000
10000000
01000000
10000000
00010000
00000000
00100000
,
01000000
00010000
00000000
00001000
00000010
00000100
00000000
00001000
,
00000002
00000000
00000000
00000000
,
00000000
00000000
00000000
00000003
,
00000101
00000000
00000011
00000000
00000010
00000100
00001000
00000100
,
00010000
00000000
00011000
00000000
00100000
00010000
01000000
00100000
,
10000000
01000000
00100000
00001000
01000000
00100000
10000000
00000000
,
01000000
00010000
00001000
00010000
00001000
00000010
00000100
00000000
,
00000110
00000000
00001100
00000000
00001000
00000001
00000100
00000000
,
00001000
00010000
00001000
00010000
00100000
01000000
00010000
00000000
,
10000000
01000000
00100000
00001000
01000000
00010000
00100000
00000000
,
00001000
00010000
00000010
00001000
00000100
00000010
00000001
00000000
,
00000100
00001000
00010000
00000000
00001000
00000000
00010000
00100000
,
01000000
01100000
00000000
00000000
,
00100000
10000000
01000000
00000000
00010000
00000000
00001000
00010000
,
00001000
00011000
00000000
00000000
,
00001000
00000010
00000001
00000000
00000100
00000000
00000001
00000100
,
00001000
00011000
00000000
00000000
,
00010000
00100000
10000000
00000000
00010000
00000000
10000000
01000000
,
00010000
00011000
00000000
00000000
,
00001000
00000010
00000100
00000010
00000001
00001000
00000001
00000100
,
00000010
00010000
00001000
00000010
00000100
00010000
00001000
00000000
,
01000000
00010000
00100000
00001000
00010000
00100000
10000000
00010000
,
01000000
00100000
10000000
01000000
00100000
00001000
00010000
00000000
,
00000100
00001000
00000010
00000100
00001000
00010000
00000010
00000100
,
00000001
00000010
00001000
00010000
00000100
00001000
00000010
00000000
,
00010000
00001000
00100000
01000000
00010000
00001000
01000000
00100000
,
00010000
00001000
00010000
00000100
00001000
00000001
00000010
00000000
,
00001002
00000000
00000000
00000000
,
00000000
00000000
00000103
00001000
00000000
00001000
00010000
00000000
,
00200000
00000000
00000000
00000000
,
00000000
00000000
10300000
01000000
00000000
01000000
00010000
00000000
,
00002000
00000000
00000000
00000000
,
00000000
00000000
00003010
00000100
00000000
00000100
00010000
00000000
,
00000020
00000000
00000000
00000000
,
00000000
00000000
00001030
00000001
00000000
00000001
00000100
00000000
,
00000110
00000000
00001010
00000000
00000000
00010000
00000000
00001000
,
00000000
01000000
00000000
00010000
00000000
00100000
00000000
10000000
,
00100000
00000000
00000000
00000000
00001000
00010000
00000000
00000100
,
00000000
00000010
00000000
00000001
00000001
00001000
00000001
00000000
,
00000101
00000000
00001100
00000000
00000000
00000010
00000000
00001000
,
00000000
00010000
00000000
01000000
00000000
00001000
00000000
00100000
,
00010000
10000000
00000000
00000000
01000000
00010000
00000000
00001000
,
00010000
00000000
00011000
00000000
00000100
00001000
00000010
00000100
,
00000001
00000020
00000030
00000200
,
00000300
00002000
00003000
00020000
,
00030000
00200000
00300000
02000000
,
03000000
20000000
30000000
00200000
,
00300000
01000000
02200000
03300000
,
00000000
00010000
00022000
00033000
,
00000010
00001000
00000010
00000000
00010000
00001000
00010000
00000000
,
00000100
00001000
00000001
00000010
00000100
00000000
00000110
00000000
,
00000010
00000001
00000000
00000000
00000001
00000100
00000000
00000000
00000100
00000010
00000000
00000000
00000010
00010000
00000000
00000000
,
00010000
00001000
00000000
00000000
00001000
01000000
00000000
00000000
01000000
00000000
00010000
00000000
00100000
00000000
01000000
00000000
,
10000000
00100000
00000000
00000000
00100000
01000000
00000000
00000000
01000000
00001000
00000000
00000000
00001000
00010000
00000000
00000000
,
00010000
00000100
00000000
00000000
00000100
00001000
00000000
00000000
00001000
00000000
00000010
00000000
00000100
00000000
00000000
00000000
,
00000110
00000000
00000101
00000000
00000001
00000010
00001000
00000000
,
00010000
01000000
10000000
00000000
00010000
01000000
00100000
00000000
,
10100000
11000000
01010000
00011000
,
00001000
00000010
00001000
00000010
00000001
00001000
00000100
00000000
,
00000220
00000000
00000000
00000330
,
00000010
00000001
00000010
00000001
00000100
00001000
00010000
00001000
,
00010000
00100000
00010000
00100000
10000000
00010000
01000000
00100000
,
10000000
01000000
10000000
01000000
00010000
00001000
00000010
00000100
,
00001000
00000001
00001000
00000001
00000100
00001000
00010000
00100000
,
01000000
00010000
01000000
00010000
10000000
00100000
00010000
00001000
,
01000000
00010000
01000000
00010000
10000000
01000000
00010000
00001000
,
00000010
00000100
00000010
00000100
00001000
00000001
00000100
00001000
,
00010000
00001000
00010000
00001000
00010000
00100000
10000000
00000000
,
20020000
00000000
00000000
00000000
,
00000000
00000000
00000000
00000000
,
30030000
00000000
00000000
00000000
;

//--------------- dance-double - forcednature ----------------
#NOTEDATA:;
#STEPSTYPE:dance-double;
#DESCRIPTION:forcednature;
#DIFFICULTY:Hard;
#METER:17;
#RADARVALUES:0,0,0,0,0;
#CREDIT:forcednature;
#NOTES:
00000000
00000000
00000000
00000000
,
00000000
00000000
00000000
00000000
,
00000000
00000000
00000000
00000000
,
00000000
00000000
00000000
00000000
,
00000000
00000000
00000000
00000000
,
00022000
00000000
00000000
00033000
,
00020200
00000000
00000000
00030300
,
00202000
00000000
00000000
00303000
,
00020020
00000000
00000000
00030030
,
00000001
00000000
00000001
00000100
00001000
00000000
00010000
00000000
00100000
00000000
00010000
00000000
00000000
00000000
00010000
00000000
,
00000100
00010000
00000000
00010000
00001000
00010000
00000000
00100000
,
10000000
00000000
10000000
01000000
00010000
00000000
00001000
00000000
00000010
00000000
00001000
00000000
00000000
00000000
00001000
00000000
,
01000000
00001000
00000000
00001000
00010000
00001000
00000000
00000010
,
00000001
00000010
00000001
00000010
00000100
00001000
00000001
00000010
00000100
00000000
00010000
00000000
00001000
00000000
00000000
00000000
,
01000000
00010000
01000000
00010000
10000000
00100000
01000000
00010000
10000000
00000000
01000000
00000000
00010000
00000000
00000000
00000000
,
00001000
00100000
00001000
00100000
00001000
00010000
00000100
00001000
00000010
00000000
00000100
00000000
00000001
00000000
00000000
00000000
,
00001000
00000100
00001000
00000100
00010000
00001000
00100000
00010000
01000000
00000000
00100000
00000000
10000000
00000000
00000000
00000000
,
10010000
00000000
10000000
01000000
00010000
00000000
00001000
00000000
00000010
00000000
00001000
00000000
00000000
00000000
00001000
00000000
,
01000000
00001000
00000000
00001000
00010000
00001000
00000000
00000110
,
00001001
00000000
00000001
00000100
00001000
00000000
00010000
00000000
00100000
00000000
00010000
00000000
00000000
00000000
00010000
00000000
,
00000100
00010000
00000000
00010000
00001000
00010000
00000000
00100000
,
20020000
00000000
00000000
00000000
,
00000000
00000000
00000000
30030000
,
10000000
01000000
10000000
01000000
00100000
00000000
00010000
00000000
01000000
00000000
00001000
00000000
00010000
00000000
00000010
00000000
,
00001000
00000001
00001000
00000001
00000100
00000000
00000010
00000000
00001000
00000000
00000100
00000000
00000001
00000000
00000100
00000000
,
00010000
00000010
00001000
00000010
00010000
00000000
00001000
00000000
01000000
00010000
01000000
00000000
00100000
00000000
10000000
00000000
,
01000000
00100000
00010000
00000000
01000000
00000000
00001000
00000000
00010000
00000000
00000000
00000000
00011000
00000000
00000000
00000000
,
00100000
00010000
10000000
00010000
00100000
00000000
01000000
00000000
00010000
00000000
00001000
00000000
00100000
00000000
00001000
00000000
,
00010000
00000100
00001000
00000100
00010000
00000000
00001000
00000000
00000010
00000000
00000100
00000000
00000010
00000000
00000001
00000000
,
00001000
00000010
00010000
00001000
00010000
00000000
00100000
00000000
01000000
00010000
01000000
00000000
00001000
00000000
00010000
00000000
,
00000100
00001000
00000010
00000000
00000100
00000000
00000001
00000000
00001000
00000000
00000000
00000000
00001001
00000000
00000000
00000000
,
00000001
00000010
00000100
00001000
00010000
00001000
00000100
00000010
,
00000100
00001000
00010000
00100000
01000000
10000000
01000000
00100000
,
00010000
00001000
00010000
00100000
01000000
00100000
00010000
00001000
,
00000100
00000010
00000100
00001000
00010000
00001000
00000100
00000010
,
00000001
00000010
00000100
00001000
00010000
00100000
01000000
10000000
,
01000000
00100000
00010000
00100000
01000000
00100000
00010000
00001000
,
00000100
00000010
00000100
00001000
00010000
00001000
00000100
00000010
,
00000001
00000010
00000100
00010000
00002000
00000000
00000000
00003000
,
01000000
00010000
01000000
00010000
10000000
00100000
01000000
00000000
00010000
00000000
00100000
00000000
00110000
00000000
00000000
00000000
,
00001000
00010000
00001000
00010000
00000100
00000000
00001000
00000000
00000010
00000000
00000100
00000000
00000101
00000000
00000000
00000000
,
00001000
00000100
00010000
00001000
00010000
00000010
00001000
00000000
00000001
00000000
00000100
00000000
00000110
00000000
00000000
00000000
,
00001000
00000010
00010000
00001000
00010000
00001000
01000000
00000000
00010000
00000000
00100000
00000000
10010000
00000000
00000000
00000000
,
20000000
32000000
03020000
00032000
00023000
02030000
23000000
30020000
,
00130000
00001000
00010000
00001000
00010000
00000000
00000100
00000000
00001000
00000000
00000010
00000000
00000110
00000000
00000000
00000000
,
00000002
00000203
00002300
00023000
00032000
00003200
00000302
00002003
,
00003010
00010000
00001000
00010000
00001000
00000000
01000000
00000000
00010000
00100000
01000000
10000000
00100000
00000000
01000000
00000000
,
10010000
10000000
00100000
00010000
00001000
00000100
00000001
00001000
,
00000001
00000010
00001000
00010000
01000000
10000000
00010000
10000000
,
00100000
00010000
00001000
00000100
00000001
00001000
00000001
00000010
,
00001000
00010000
01000000
10000000
00010000
10000000
00100000
00010000
,
00001000
00000010
00000001
00001000
00000001
00000100
00001000
00010000
,
00100000
10000000
00010000
10000000
01000000
00010000
00001000
00000010
,
00000001
00001000
00000001
00000100
00001000
00010000
00100000
10000000
,
00010000
10000000
01000000
00010000
00001000
00000010
00000001
00001000
,
00000010
00001000
00000100
00000000
00000010
00000001
00000100
00000000
00000000
00000000
00001000
00010000
00001000
00000000
00100000
00010000
,
00100000
00000000
01000000
00100000
01000000
00000000
10000000
00010000
01000000
00000000
01100000
00000000
00000000
00000000
00100000
00000000
,
10000000
01000000
00100000
00000000
00010000
01000000
00100000
00000000
10000000
01000000
10000000
00000000
01000000
00000000
00010000
00000000
,
00001000
00100000
00010000
00000000
00100000
00001000
00010000
00000000
00000100
00001000
00000010
00000000
00000100
00000000
00000001
00000000
,
00001000
00000100
00000010
00000000
00000001
00000100
00000010
00000000
00000000
00000000
00010000
00001000
00100000
00000000
00010000
01000000
,
00001000
00000000
00010000
00000010
00001000
00000000
00000100
00000010
00000001
00000000
00000100
00000001
00001000
00000000
00000100
00000000
,
00000110
00000000
00000010
00000001
00001000
00000000
00000000
00000000
00000010
00000000
00000100
00001000
00010000
00000000
00001000
00000000
,
00011000
00000000
00100000
00010000
01000000
00000000
00100000
00000000
10000000
00010000
10000000
00010000
01000000
00100000
01000000
00100000
,
10000000
02000000
03000000
00002000
,
00003000
00000020
00000030
00000200
,
00000300
00002000
00003000
00200000
,
00300000
02000000
03000000
00010000
,
00011000
00000020
00000200
00000330
,
00011000
00200000
02000000
03300000
,
10010000
00000000
00010000
00000000
01000000
00010000
01000000
00010000
00100000
00000000
00001000
00000000
00010000
00001000
00010000
00000100
,
00001000
00000000
00001000
00000000
00000010
00000100
00000001
00000100
00000010
00000000
00001000
00000100
00010000
00001000
00010000
00001000
,
00100000
00010000
00100000
00000000
01000000
10000000
01000000
00000000
00100000
00001000
00010000
00000000
00001000
00010000
00001000
00000000
,
00010000
00000100
00001000
00000000
00000010
00001000
00000010
00000000
00000100
00000000
00000001
00000000
00000100
00000000
00001000
00000000
,
00010000
00001000
00010000
00000000
00001000
00100000
00010000
00000000
01000000
00010000
01000000
00000000
00100000
10000000
00010000
00000000
,
00100000
00010000
00100000
00000000
00001000
00010000
00001000
00000000
00022000
00000000
00000000
00000000
00033000
00000000
00000000
00000000
,
00000100
00001000
00000010
00000000
00000100
00000001
00000010
00000000
00001000
00000000
00010000
00000000
00011000
00000000
00000000
00000000
,
01000000
00010000
00100000
00000000
01000000
10000000
00100000
00000000
00010000
00000000
00001000
00000000
00011000
00000000
00000000
00000000
,
00000010
00001000
00000001
00000000
00000100
00000001
00000100
00000000
00000010
00001000
00000100
00000000
00010000
00001000
00010000
00000000
,
00001000
00100000
00010000
00000000
00110000
00000000
00000000
00000000
10000000
00000000
01000000
00100000
00010000
00000000
01000000
00000000
,
02200000
00000000
00000000
03300000
,
00010000
00000000
10000000
01000000
00010000
00000000
00001000
00000000
00100000
00010000
01000000
00000000
00001000
00000000
00010000
00000000
,
00000010
00000000
00001000
00000100
00000001
00000000
00000100
00000000
00001000
00000010
00001000
00000000
00000001
00000000
00000100
00000000
,
00001000
00000000
00010000
00001000
00100000
00000000
01000000
00000000
10000000
00100000
10000000
00000000
01000000
00000000
00010000
00000000
,
00001000
00000000
00000010
00000100
00001000
00000000
00000001
00000000
00000100
00000001
00000100
00000000
00000010
00000000
00001000
00000000
,
00000100
00010000
00000100
00010000
00001000
00000000
00100000
00010000
00100000
00000000
01000000
10000000
00010000
00000000
01000000
00000000
,
00100000
10000000
00100000
10000000
00010000
00000000
00100000
00001000
00010000
00000000
00000100
00010000
00001000
00000000
00000010
00000000
,
00000100
00001000
00000010
00000100
00000001
00000000
00000010
00000001
00001000
00000000
00000010
00010000
00001000
00000000
01000000
00000000
,
00010000
00100000
01000000
10000000
00100000
00000000
01000000
00010000
00100000
00000000
00001000
00010000
00000010
00000000
00001000
00000000
,
00000200
00000000
00000000
00000000
,
00000000
00000000
00000000
00000000
,
00000300
00000000
00000000
00000000
;
