#VERSION:0.83;
#TITLE:RAGNAROK;
#SUBTITLE:;
#ARTIST:96;
#TITLETRANSLIT:;
#SUBTITLETRANSLIT:;
#ARTISTTRANSLIT:;
#GENRE:;
#CREDIT:;
#MUSIC:RAGNAROK.ogg;
#BANNER:RAGNAROK.png;
#BACKGROUND:RAGNAROK-bg.png;
#CDTITLE:./CDTitles/RB colette -Autumn-.png;
#SAMPLESTART:65.972;
#SAMPLELENGTH:15.000;
#SELECTABLE:YES;
#OFFSET:1.738;
#BPMS:0.000=108.000
,24.000=109.000
,25.188=184.000
;
#STOPS:;
#TIMESIGNATURES:0.000=4=4,
24.000=6=4,
30.000=4=4
;
#BGCHANGES:2.000=../BGAs/21he.mp4=1.000=0=0=0=StretchNoLoop====,
99999.000=-nosongbg-=1.000=0=0=0=StretchNoLoop====
;
#FGCHANGES:;

//--------------- dance-single - forcednature ----------------
#NOTEDATA:;
#STEPSTYPE:dance-single;
#DESCRIPTION:forcednature;
#CREDIT:forcednature;
#DIFFICULTY:Beginner;
#METER:4;
#RADARVALUES:0,0,0,0,0;
#NOTES:
0000
0000
0000
0000
,
0000
0000
0000
0000
,
0000
0000
0000
0000
,
0000
0000
0000
0000
,
0002
0000
0003
0000
,
2000
0000
3000
0000
,
0020
0000
0000
0000
,
0030
0000
0100
0000
,
0000
0000
0001
0000
,
0000
0000
0010
0000
,
0001
0000
0010
0000
,
0000
0000
0100
0000
,
0000
0000
1000
0000
,
0000
0000
0010
0000
,
1000
0000
0010
0000
,
0000
0000
1001
0000
,
0000
0000
0001
0000
,
0000
0000
0010
0000
,
0000
0000
0100
0000
,
0000
0000
1000
0000
,
1000
0000
0001
0000
,
1000
0000
0002
0000
,
0003
0000
0200
0000
,
0300
0000
0010
0000
,
0000
0010
0000
0000
,
1000
0000
0100
0000
,
0000
0100
0000
0000
,
0001
0000
0010
0000
,
0000
1000
0000
0000
,
0010
0000
0100
0000
,
0100
0000
0001
0000
,
0000
0000
1001
0000
,
0000
0000
1000
0000
,
0000
0000
0100
0000
,
0000
0000
1000
0000
,
0000
0000
0020
0000
,
0000
0000
0030
0000
,
0000
0000
0200
0000
,
0000
0000
0300
0000
,
0000
0000
1001
0000
,
0000
0000
0001
0000
,
0000
0000
0100
0000
,
0000
0000
0001
0000
,
0000
0000
0020
0000
,
0000
0000
0130
0000
,
0000
0000
0200
0000
,
0010
0000
0310
0010
,
0000
0000
1000
0000
,
0001
1000
0001
0000
,
0100
0000
0001
0000
,
0010
0000
0100
0000
,
1000
0000
0001
0000
,
1000
0001
1000
0000
,
0100
0000
1000
0000
,
0010
0000
0100
0000
,
0001
0000
0010
0000
,
0100
0010
0100
0000
,
1000
0000
0001
0000
,
0100
0000
0010
0000
,
1000
0000
0100
0000
,
0010
0100
0010
0000
,
0001
0000
1000
0000
,
0010
0000
0100
0100
,
0100
0000
0001
0000
,
0010
0000
0001
0000
,
1000
0000
0010
0000
,
1000
1000
0000
1000
,
0010
0000
0100
0000
,
0100
0000
0001
0001
,
0001
0000
1000
0000
,
0000
0100
0000
0000
,
1000
0000
0001
0000
,
0000
0100
0000
0000
,
0001
0000
0010
0000
,
0010
0000
0100
0000
,
1000
0000
0010
0000
,
0010
0000
0100
0000
,
0001
2000
0000
0000
,
3000
0000
0000
0000
;

//--------------- dance-single - forcednature ----------------
#NOTEDATA:;
#STEPSTYPE:dance-single;
#DESCRIPTION:forcednature;
#CREDIT:forcednature;
#DIFFICULTY:Easy;
#METER:9;
#RADARVALUES:0,0,0,0,0;
#NOTES:
0000
0000
0000
0000
,
0000
0000
0000
0000
,
0000
0000
0000
0000
,
0000
0000
0000
0000
,
2000
0000
3002
0000
,
0203
0000
0000
0000
,
0020
0000
0000
0000
,
0000
0000
0330
0000
0100
0001
0100
0000
,
0010
0000
1000
0000
0100
1000
0100
0000
,
0010
0000
0001
0000
0100
0001
0100
0000
,
0010
1000
0002
0023
,
0031
0000
1000
0000
0100
1000
0100
0000
,
0010
0000
0001
0000
0100
0001
0100
0000
,
0010
0000
1000
0000
0100
1000
0100
0000
,
0010
0001
2000
3010
,
2002
3003
0001
0010
,
0100
0010
0002
0000
,
1003
0010
0200
0000
,
0301
0000
1000
0001
2000
0000
0000
0000
,
3010
0000
0100
0000
0001
0000
0001
1000
,
0000
1000
0001
0000
1000
0000
1000
0001
,
0000
0001
1000
0000
0020
0000
0000
0000
,
0230
0000
0000
0300
0001
1000
0001
1000
,
0000
1000
0010
0000
0100
0000
0000
0001
,
0000
0000
0010
0000
0000
0001
0000
0000
,
1000
0000
1001
0000
0100
0000
0000
1000
,
0000
0000
0010
0000
0000
1000
0000
0000
,
0001
0000
1001
0000
0010
0000
0000
0001
,
0000
0000
0100
0000
0000
0010
0000
0000
,
1000
1001
0100
1000
,
1000
0010
0100
0001
,
0020
0030
0001
0001
,
0100
0000
0100
0000
0001
0010
0001
0000
,
1000
0000
0100
0100
,
1000
0000
1000
0000
0010
1000
0010
0000
,
0100
0001
0020
0000
,
0000
0000
0230
0000
2300
0000
0000
3002
,
0000
0203
0320
0000
,
0000
0030
1000
0001
2000
0000
0001
0000
,
3002
0003
0010
0100
,
1000
0000
0100
0000
0010
0001
0010
0000
,
0100
1000
0001
0100
,
0010
0000
0100
0000
0001
0100
0001
0000
,
2000
0000
3000
0000
0020
0000
0000
0230
,
0000
0000
0302
0000
0023
0000
0000
0230
,
0000
2300
3002
0100
,
2003
0000
0100
0000
3001
1000
0001
1000
,
0000
0020
0000
0030
0100
0000
0001
0000
,
0010
0001
0010
0001
1000
0000
0010
0000
,
0100
0010
0100
0000
0001
0000
0010
0000
,
0100
0010
0100
0000
1000
0100
0010
0000
,
0001
1001
1000
0010
,
0100
0010
0100
0010
1000
0000
0001
0000
,
0010
0100
1000
0000
0001
0000
0100
0000
,
0010
1000
0001
0000
0010
0000
0010
0000
,
0200
0300
0010
0001
,
0100
0001
0100
0001
1000
0000
0100
0000
,
0010
0001
1000
0000
0010
0000
0100
0000
,
0001
0010
0100
0000
1000
0000
0001
0000
,
0100
0110
0010
1000
,
0100
1000
0100
1000
0001
0000
0100
0000
,
0010
1000
0001
0000
0020
0000
0000
0000
,
0130
0000
1000
0002
0000
0000
0100
0000
,
0100
0000
0003
0000
1000
0001
1000
0001
,
1000
0000
0010
0000
0100
0010
0100
0000
,
0001
0010
0100
0010
,
0001
1000
0000
1000
0001
0000
0001
1000
,
0000
1000
0010
0000
0100
0000
0100
0000
,
0001
0100
0001
0000
0010
0000
0100
0000
,
0220
0000
0330
0000
1000
0000
0000
0100
,
0000
0000
1000
0000
0000
0010
0000
0000
,
0100
0000
1001
0000
0001
0000
0000
0100
,
0000
0000
0001
0000
0000
0010
0000
0000
,
0100
0000
1001
0000
1000
0000
0000
0100
,
0000
0000
1000
0000
0000
0001
0000
0000
,
0110
1001
0001
0001
,
0100
0001
0100
0000
0001
0000
0010
0000
,
0001
1000
0001
2000
0000
0000
0000
0000
,
3000
0000
0000
0000
;

//--------------- dance-single - forcednature ----------------
#NOTEDATA:;
#STEPSTYPE:dance-single;
#DESCRIPTION:forcednature;
#CREDIT:forcednature;
#DIFFICULTY:Medium;
#METER:14;
#RADARVALUES:0,0,0,0,0;
#NOTES:
0000
0000
0000
0000
,
0000
0000
0000
0000
,
0000
0000
0000
0000
,
0000
0000
0000
0000
,
2002
0000
0000
0000
0003
0000
0000
0000
0200
0000
3000
0000
0000
0000
0310
0001
,
2000
0000
0000
0000
,
0020
0000
0000
0000
,
0000
0000
3030
0000
1000
0100
1000
0100
,
0010
0001
1000
0010
0100
0001
0100
0001
,
1000
0100
0010
0001
0100
0010
0100
0010
,
1000
0001
0010
0100
2000
0000
3002
0000
,
0103
0010
0010
1000
0001
0010
0001
0010
,
0100
1000
0001
0100
0010
1000
0010
1000
,
0001
0100
0010
0100
0001
0010
0001
0010
,
0100
1000
0001
1000
0020
0000
0230
0000
,
0301
2000
0000
0000
3100
0010
0100
0001
,
0200
2300
3002
0010
,
2003
0000
3020
0000
0130
0001
0100
0001
,
0010
0000
0000
0100
0000
0000
1000
0000
0020
0000
0000
0000
0100
0000
0000
0000
,
2030
0000
3002
0000
0013
0100
1000
0010
,
0100
0001
0010
0100
0010
0001
0100
0010
,
1000
0100
0010
0001
2000
0000
0010
0000
,
3002
0000
0000
0000
0010
0000
0000
0000
1003
0000
0010
0000
0100
0000
0010
0100
,
0000
0001
0002
0000
1003
0000
0000
1100
,
0000
0000
0101
0000
0000
0011
0000
0000
,
1010
0000
0110
0000
0001
0000
0000
0101
,
0000
0000
1100
0000
0000
1010
0000
0000
,
0011
0000
0110
0000
1000
0001
0001
0100
,
0010
0010
1000
0001
0001
0010
0100
0100
,
1000
0000
0000
0000
1001
0000
0000
0000
0001
0000
0000
1000
0001
0000
0000
0000
,
0100
0000
0000
0010
0100
0000
0000
0000
0010
0000
1000
0000
0100
0000
1000
0000
,
0001
0010
0200
0000
1300
0001
0100
0001
,
1000
0001
0010
0001
1000
0010
0010
0100
,
0010
0001
0010
1000
0001
0100
0100
0010
,
1000
0010
0100
0001
0010
0001
1000
0010
,
0100
0001
0010
0100
2000
0000
0010
0000
,
0001
0000
3200
0000
0320
0000
0031
0002
,
0000
0103
0200
0000
0320
0000
1000
0000
,
0100
0000
1030
0001
0010
0100
1000
0010
,
0100
0001
1000
0000
0001
1000
0100
1000
,
0001
1000
0010
1000
0001
0010
0010
0100
,
0010
1000
0010
0001
1000
0100
0100
0010
,
0001
0010
0100
1000
0010
1000
0001
0010
,
0100
1000
0010
0000
0200
0000
0301
0002
,
0000
0013
0200
0000
2300
0000
3010
0020
,
0000
0130
0002
0000
0023
0000
0001
0000
,
0230
0000
1000
0000
0310
0001
0001
0100
,
0000
0000
0010
0100
0020
0000
0000
0000
1030
0000
0001
0000
0100
0000
0001
0000
,
0010
0000
0100
0000
0010
0001
0010
0000
0001
0000
0100
0000
0001
0000
1000
0000
,
0100
0000
0010
0000
0100
1000
0100
0000
1000
0000
0001
0000
0100
0000
0001
0000
,
1000
0000
0010
0000
0100
0010
0100
0000
0001
0000
1000
0000
0100
0000
1000
0000
,
0001
0100
0010
0000
1000
0001
0010
0001
,
1000
0000
0010
0000
0100
0010
0100
0000
0001
0000
1000
0000
0100
0000
0010
0000
,
0100
0000
1000
0000
0001
1000
0001
0000
0010
0000
0100
0000
0010
0000
0001
0000
,
1000
0000
0010
0000
0100
0010
0100
0000
0000
0000
0001
0000
0001
0000
0001
0000
,
0000
0010
0100
0000
1000
0001
0100
0001
,
0010
0000
0100
0000
1000
0100
1000
0000
0001
0000
0100
0000
0010
0000
1000
0000
,
0001
0000
0010
0000
0100
0010
0100
0000
1000
0000
0001
0000
0100
0000
0010
0000
,
1000
0000
0001
0000
0010
0001
0010
0000
0100
0000
1000
0000
0001
0000
0100
0000
,
0010
1000
0001
0000
0010
0100
0010
0001
,
0100
0000
0010
0000
1000
0010
1000
0000
0001
0000
0010
0000
0100
0000
0010
0000
,
0001
0000
0100
0000
0010
0100
0010
0000
2000
0000
0000
0000
0100
0000
0000
0000
,
3001
0100
0010
0110
0000
1000
1000
1000
,
0000
0010
0200
0000
0301
0010
0100
1000
,
0010
0100
0010
0000
1000
0000
0001
0000
1000
0000
0100
0000
0010
0000
0001
0000
,
0100
0010
0100
0000
0001
0000
1000
0000
0001
0000
0010
0000
0100
0000
0010
0000
,
0001
1000
0001
0000
0100
0000
0010
0000
1000
0001
1000
0000
0100
0000
0010
0000
,
0001
1000
0001
0000
0100
0000
0010
0000
1000
0000
0100
0000
0010
0000
0100
0000
,
1000
1000
0010
0100
0001
0000
0101
0000
,
0100
0020
0000
0000
1030
0000
0000
1100
,
0000
0000
0101
0000
0000
0011
0000
0000
,
1010
0000
0110
0000
0001
0000
0000
0101
,
0000
0000
1100
0000
0000
1010
0000
0000
,
0011
0000
0110
0000
0001
1000
1000
0100
,
0010
0010
0001
1000
1000
0010
0100
0100
,
0001
0000
0000
0000
1001
0000
0000
0000
1000
0000
0000
0001
1000
0000
0000
0000
,
0010
0000
0000
0100
0010
0000
0000
0100
0001
0000
1000
0000
0001
1000
0001
0000
,
2000
3200
0320
0032
0000
0000
0000
0000
,
0003
0000
0000
0000
;

//--------------- dance-single - forcednature ----------------
#NOTEDATA:;
#STEPSTYPE:dance-single;
#DESCRIPTION:forcednature;
#CREDIT:forcednature;
#DIFFICULTY:Hard;
#METER:17;
#RADARVALUES:0,0,0,0,0;
#NOTES:
0000
0000
0000
0000
,
0000
0000
0000
0000
,
0000
0000
0000
0000
,
0000
0000
0000
0000
,
2002
0000
0000
0000
3000
0000
0000
0000
0200
0000
0003
0000
0000
0000
0310
1000
,
2002
0000
0000
3000
,
0200
0000
0000
0000
,
0000
0000
0000
0000
0303
0000
0000
0000
1000
0000
0100
0000
1000
0001
1000
0000
,
0001
0010
0001
0000
1000
0000
0010
0000
0100
0000
0001
0000
0010
0001
0010
0000
,
0100
0010
0100
0000
1000
0000
0001
0000
0100
0000
0010
0000
1000
0100
1000
0000
,
0001
0100
0001
0000
0010
0000
0100
0000
1000
0000
0010
0000
0001
0000
0010
0000
,
1000
0000
0001
0000
0100
0010
0100
0010
1000
0000
0001
0000
0010
0100
0010
0000
,
0001
0100
0001
0000
1000
0000
0100
0000
1000
0000
0010
0000
0100
0010
0100
0000
,
0001
0100
0001
0000
1000
0000
0100
0000
0010
0000
0001
0000
0100
0010
0100
0000
,
0010
1000
0010
0000
0100
0000
0001
0000
1000
0000
0000
0100
1000
0100
1000
0001
,
1000
0000
0010
0100
0002
0000
0000
0000
1003
0000
0001
0000
0010
0100
0010
0001
,
0020
0000
0000
0000
0230
0000
0000
0000
2300
0000
0000
0000
3001
0100
0010
0100
,
0002
0000
0000
0000
2003
0000
0000
0000
3200
0000
0000
0000
0310
0000
0001
1000
,
0010
0000
0100
0010
0100
0000
0001
0000
2000
0000
0000
0000
3100
0000
1000
0000
,
0001
0100
0010
0000
0200
0000
0000
0000
0301
1000
0010
1000
0001
0000
1000
0001
,
0010
0001
1000
0000
0100
0000
0010
0000
0001
1000
0100
1000
0001
0000
1000
0001
,
0100
0001
1000
0000
0100
0000
0010
0000
0001
0100
0001
0100
0010
0100
0010
0100
,
0010
1000
0010
1000
0001
0000
0010
0000
0100
0000
0100
0000
0100
0000
0100
0000
,
1000
0001
1000
0000
0001
0000
0000
0000
1100
0000
0000
0000
0001
0000
0101
0000
,
0000
1000
1010
0000
0001
0011
0000
0100
,
0110
0000
1001
0000
0101
0000
1000
1100
,
0000
0001
0011
0000
1000
1010
0000
0100
,
0110
0000
0000
0000
1001
0000
0000
0000
0001
0000
0010
0001
0010
0000
0100
0000
,
1000
0001
1000
0000
0010
0000
0100
0001
0100
0000
0010
0000
1000
0001
1000
0000
,
0100
0000
0000
0000
0110
0000
0000
0000
0010
0001
0010
0001
1000
0000
0000
0010
,
1000
0000
0010
0100
0010
0000
0100
0000
0001
0000
1000
0001
1000
0001
1000
0100
,
0010
0001
0010
0001
2000
0000
0000
0000
3010
0000
0100
0000
0001
0000
0100
0000
,
1000
0000
0100
0000
0001
0000
0100
0000
0010
0000
1000
0010
1000
0000
0001
0000
,
0010
0100
1000
0001
0100
0010
1000
0010
,
0001
0000
0010
0000
1000
0000
0010
0000
0100
0000
0001
0100
0001
0000
0010
0001
,
0010
0000
0100
1000
0001
0000
0100
0000
0120
0000
0000
0000
1000
0000
0000
0000
,
0100
0000
2030
0000
3002
0000
0013
2000
,
0000
3010
0200
0000
2300
0000
0010
0000
,
0001
0000
0000
0000
3010
0000
0100
0000
0001
0000
1000
0010
1000
0000
0001
0010
,
0001
1000
0010
0000
0100
0000
0000
0000
0001
0000
0010
0000
1000
0000
0010
0000
,
0100
0000
0010
0000
1000
0000
0010
0000
0001
0000
1000
0001
1000
0000
0100
0000
,
1000
0010
0100
0001
0010
0100
0001
0100
,
1000
0000
0100
0000
0001
0000
0100
0000
1000
0000
0010
1000
0010
0000
0100
0010
,
0100
0000
0001
1000
0200
0000
0000
0000
0320
0000
0000
0000
0031
0000
0002
0000
,
0000
0103
0020
0000
2030
0000
3100
0002
,
0000
0000
0103
0000
0020
0000
0000
0000
0031
0000
0010
0001
1000
0000
0010
1000
,
0001
0000
0100
0001
1000
0000
0100
1000
0010
0000
0010
0000
0010
0000
0010
0000
,
0000
0000
1000
0001
1000
0001
1000
0001
0010
0000
0100
0000
0010
0001
0010
0000
,
0100
1000
0001
0000
0100
0010
1000
0000
0001
0000
0010
0000
0100
1000
0100
0000
,
1000
0001
0100
0000
0001
1000
0010
0000
0100
0000
0001
0000
0010
0001
0010
0000
,
0100
1000
0010
0000
0100
0001
1000
0000
0200
0000
0010
0000
0310
0000
0001
0000
,
2000
0000
0010
0000
3010
0100
0001
0000
1000
0000
0100
0000
1000
0001
1000
0000
,
0001
0100
0010
0000
1000
0001
0010
0000
0100
0000
1000
0000
0001
0100
0010
0000
,
1000
0001
0010
0000
0100
0010
0001
0000
1000
0000
0010
0000
0100
0010
0100
0000
,
0001
0010
0100
0000
1000
0000
1200
0000
0000
0000
0310
0001
0010
0001
0010
0000
,
0001
0000
0100
0010
1000
0010
1000
0000
0001
0000
0010
0000
0100
1000
0001
0000
,
0100
0010
0100
0000
0001
1000
0010
0000
0100
0000
0001
0000
1000
0100
0010
0000
,
0100
1000
0001
0000
0010
0100
0010
0000
0001
0000
1000
0000
0010
0100
0001
0000
,
1000
0100
1000
0000
0001
0100
0010
0000
2000
0000
0100
0000
3100
0000
0010
0000
,
0002
0000
0100
0000
0103
0010
1000
0000
0100
0000
0001
0000
0100
1000
0100
0000
,
0010
0001
1000
0000
0010
0100
0001
0000
0010
0000
1000
0000
0010
0001
0010
0000
,
0100
1000
0010
0000
0100
0001
1000
0000
0100
0010
0001
0010
0100
0000
1000
0000
,
0010
1000
0001
0000
0100
0000
0110
0000
0000
0000
1000
0010
1000
0001
0010
0000
,
0100
0000
0010
0001
2000
0000
0000
0000
3010
0100
0010
0100
0001
0100
0001
0100
,
0010
0100
0001
1000
0010
0000
0100
0000
0001
1000
0100
1000
0001
0010
0001
0000
,
1000
0010
1000
0001
0100
0000
0001
0000
1000
0001
1000
0001
0010
0100
0010
0100
,
1000
0001
1000
0001
0100
0000
0010
0000
1000
0001
0100
0001
1000
0000
0001
1000
,
0100
1000
0001
0000
0100
0000
0010
1000
0001
0010
0001
0010
0100
1000
0100
1000
,
0001
0010
0100
1000
0001
0000
0010
0001
0100
0000
0010
1000
0100
0000
1000
0001
,
0200
0020
0000
0330
0101
0000
1000
1010
,
0000
0001
0011
0000
1000
1100
0000
0010
,
0110
0000
1001
0000
1100
0000
0001
0011
,
0000
1000
1010
0000
0001
0101
0000
0010
,
0110
0000
0000
0000
1001
0000
0000
0000
0001
0000
0010
0001
1000
0000
0010
0000
,
0100
0001
1000
0000
0100
0000
0010
0001
1000
0000
0010
0000
0100
0001
0010
0000
,
0100
0000
0000
0000
1001
0000
0000
0000
0001
1000
0100
1000
0001
0000
0000
0100
,
0001
0000
0100
0010
1000
0010
0100
0000
0001
1000
0100
1000
0001
0100
0001
1000
,
0010
0100
0001
2002
0000
0000
0000
0000
,
3003
0000
0000
0000
;

//--------------- dance-double - forcednature ----------------
#NOTEDATA:;
#STEPSTYPE:dance-double;
#DESCRIPTION:forcednature;
#CREDIT:forcednature;
#DIFFICULTY:Easy;
#METER:9;
#RADARVALUES:0,0,0,0,0;
#NOTES:
00000000
00000000
00000000
00000000
,
00000000
00000000
00000000
00000000
,
00000000
00000000
00000000
00000000
,
00000000
00000000
00000000
00000000
,
00002000
00000000
00023000
00000000
,
00030020
00000000
00000000
00000000
,
00002000
00000000
00000000
00000000
,
00000000
00000000
00003030
00000000
00000001
00000100
00000001
00000000
,
00000010
00000000
00000100
00000000
00001000
00000100
00001000
00000000
,
00000010
00000000
00010000
00000000
00001000
00010000
00001000
00000000
,
01000000
00010000
00200000
02300000
,
03100000
00000000
00001000
00000000
00010000
00001000
00010000
00000000
,
00000100
00000000
00001000
00000000
00000010
00001000
00000010
00000000
,
00000100
00000000
00000001
00000000
00000010
00000001
00000010
00000000
,
00000100
00010000
00002000
00103000
,
00202000
00303000
00001000
01000000
,
00010000
00000000
10000000
00000000
00200000
00000000
00000000
00300000
,
01000000
00000000
00001000
00000000
00020000
00000000
00000000
00030000
,
00000100
00000000
00001000
00000100
00002000
00000000
00000000
00000000
,
00003010
00000000
00000100
00000000
00000001
00000000
00000001
00001000
,
00000000
00001000
00000100
00000000
00010000
00000000
00010000
00001000
,
00000000
00001000
01000000
00000000
00020000
00000000
00000000
00000000
,
20030000
00000000
00000000
30000000
00100000
01000000
00100000
01000000
,
00000000
01000000
00010000
00000000
00100000
00000000
00000000
00001000
,
00000000
00000000
00010000
00000000
00000000
00000100
00000000
00000000
,
00001000
00000000
00001000
00000000
00000010
00000000
00000000
00010000
,
00000000
00000000
00001000
00000000
00000000
01000000
00000000
00000000
,
00010000
00000000
00010000
00000000
00100000
00000000
00000000
01000000
,
00000000
00000000
00100000
00000000
00000000
00001000
00000000
00000000
,
00010000
00010000
00000100
00001000
,
00000010
00001000
00000100
00000010
,
00000002
00000000
00000103
00000100
,
00001000
00000000
00010000
00000000
00001000
00010000
00001000
00000000
,
00010000
00000000
00100000
00100000
,
10000000
00000000
00100000
00000000
10000000
01000000
10000000
00000000
,
01000000
00010000
00002000
00000000
,
00000000
00000000
00023000
00000000
00030200
00000000
00000000
00002300
,
00000000
00003002
00000203
00000000
,
00000000
00000300
00000001
00001000
00000002
00000000
00001000
00000000
,
00002003
00003000
00000100
00010000
,
00001000
00000000
00010000
00000000
00000010
00001000
00000010
00000000
,
00010000
00001000
01000000
00001000
,
00010000
00000000
00001000
00000000
00100000
00010000
00100000
00000000
,
00010000
00000000
10000000
00000000
00200000
00000000
00000000
02300000
,
00000000
00000000
03020000
00000000
00230000
00000000
00000000
00302000
,
00000000
00023000
00030200
00001000
,
00000320
00000000
00000001
00000000
00000130
00001000
00000100
00001000
,
00000000
00000020
00000000
00000030
00010000
00000000
00001000
00000000
,
00100000
00010000
00100000
00010000
10000000
00000000
00100000
00000000
,
01000000
00100000
01000000
00000000
00010000
00000000
00100000
00000000
,
00001000
00010000
00001000
00000000
00010000
00000100
00001000
00000000
,
00000010
00001001
00000001
00000100
,
00000001
00000010
00000001
00000010
00000100
00000000
00010000
00000000
,
00001000
00010000
00001000
00000000
00100000
00000000
00010000
00000000
,
01000000
00010000
01000000
00000000
00100000
00000000
00100000
00000000
,
20000000
30000000
01000000
10000000
,
01000000
00100000
01000000
00100000
00010000
00000000
01000000
00000000
,
00001000
00010000
00001000
00000000
00010000
00000000
00000100
00000000
,
00001000
00000010
00001000
00000000
00000001
00000000
00000010
00000000
,
00000100
00000110
00001000
00000010
,
00010000
00001000
00010000
00001000
01000000
00000000
00010000
00000000
,
00100000
00010000
00100000
00000000
02000000
00000000
00000000
00000000
,
13000000
00000000
00010000
02000000
00000000
00000000
00001000
00000000
,
03001000
00000000
00000000
00000000
00010000
00001000
00010000
00001000
,
00010000
00000000
00000100
00000000
00010000
00001000
00010000
00000000
,
00000010
00001000
00000001
00000010
,
00001000
00010000
00000000
00010000
00001000
00000000
00001000
00010000
,
00000000
00010000
00001000
00000000
00100000
00000000
00100000
00000000
,
00010000
00100000
00010000
00000000
01000000
00000000
00100000
00000000
,
20020000
00000000
30030000
00000000
10000000
00000000
00000000
01000000
,
00000000
00000000
00010000
00000000
00000000
00001000
00000000
00000000
,
00000100
00000000
00000100
00000000
00000001
00000000
00000000
00000100
,
00000000
00000000
00001000
00000000
00000000
00010000
00000000
00000000
,
01000000
00000000
01000000
00000000
10000000
00000000
00000000
00100000
,
00000000
00000000
00010000
00000000
00000000
00001000
00000000
00000000
,
00000010
00000010
00000001
00000100
,
00000001
00001000
00000001
00000000
00001000
00000000
00000100
00000000
,
00010000
00001000
00010000
00002000
00000000
00000000
00000000
00000000
,
00003000
00000000
00000000
00000000
;

//--------------- dance-double - forcednature ----------------
#NOTEDATA:;
#STEPSTYPE:dance-double;
#DESCRIPTION:forcednature;
#CREDIT:forcednature;
#DIFFICULTY:Medium;
#METER:14;
#RADARVALUES:0,0,0,0,0;
#NOTES:
00000000
00000000
00000000
00000000
,
00000000
00000000
00000000
00000000
,
00000000
00000000
00000000
00000000
,
00000000
00000000
00000000
00000000
,
00022000
00000000
00000000
00000000
00003000
00000000
00000000
00000000
00000200
00000000
00030000
00000000
00000000
00000000
00001300
00000001
,
00000200
00000000
00000000
00000000
,
00000020
00000000
00000000
00000000
,
00000000
00000000
00000330
00000000
00000100
00000001
00000100
00000001
,
00000010
00000100
00001000
00000100
00010000
00001000
00010000
00001000
,
01000000
00010000
00100000
01000000
10000000
00100000
10000000
00100000
,
01000000
10000000
01000000
00010000
00200000
00000000
02300000
00000000
,
03100000
00010000
01000000
00001000
00010000
00100000
00010000
00100000
,
01000000
00001000
00010000
00000010
00001000
00000100
00001000
00000100
,
00000010
00001000
00010000
00000100
00001000
00000001
00001000
00000001
,
00000100
00001000
00010000
01000000
00200000
00000000
02300000
00000000
,
13000000
00020000
00000000
00030000
01000000
00100000
01000000
10000000
,
02000000
03002000
00023000
00100000
,
00032000
00000000
00003020
00000000
00000031
00000100
00000001
00000100
,
00000001
00000000
00000000
00000010
00000000
00000000
00001000
00000000
00020000
00000000
00000000
00000000
00000100
00000000
00000000
00000000
,
00032000
00000000
02003000
00000000
03010000
00100000
01000000
00010000
,
01000000
00100000
00001000
00010000
00000010
00000100
00001000
00000100
,
00000010
00001000
00000100
00000001
00000200
00000000
00001000
00000000
,
00020300
00000000
00000000
00000000
00000010
00000000
00000000
00000000
00031000
00000000
00100000
00000000
00100000
00000000
00010000
00100000
,
00000000
01000000
02000000
00000000
13000000
00000000
10000000
00100000
,
00000000
00100000
00010000
00000000
00010000
00001000
00000000
00001000
,
00000010
00000000
00000110
00000000
00000001
00000000
00000001
00000100
,
00000000
00000100
00001000
00000000
00001000
00010000
00000000
00010000
,
01000000
00000000
01100000
00000000
10000000
01000000
01000000
00010000
,
00001000
00001000
00000100
00000001
00000001
00000010
00000100
00000100
,
00000110
00000000
00000000
00000000
00001001
00000000
00000000
00000000
00001000
00000000
00000000
00000100
00001000
00000000
00000000
00001000
,
00000010
00000000
00000000
00010000
00001000
00000000
00000000
00000000
00100000
00000000
00010000
00000000
01000000
00000000
01000000
00000000
,
00010000
10000000
00200000
00000000
10300000
01000000
00100000
01000000
,
00010000
01000000
00100000
00001000
00010000
00000100
00000100
00010000
,
00001000
00000010
00000001
00001000
00000001
00000100
00000010
00000100
,
00001000
00000100
00000010
00010000
00001000
00010000
00100000
01000000
,
00100000
10000000
00010000
01000000
00200000
00000000
10000000
00000000
,
10000000
00000000
02300000
00000000
03002000
00000000
00013000
00020000
,
00000000
00030100
00000200
00000000
00002300
00000000
00000010
00000000
,
00000001
00000000
00003010
00000100
00000001
00001000
00001000
00000100
,
00010000
00000010
00001000
00000000
00000001
00000100
00000010
00000100
,
00001000
00000100
00000010
00010000
00001000
01000000
01000000
00001000
,
00010000
00100000
10000000
00010000
10000000
01000000
00100000
01000000
,
00010000
01000000
00100000
00001000
00010000
00001000
00000010
00000100
,
00000010
00000001
00001000
00000000
00000020
00000000
00000130
00000200
,
00000000
00000301
00000020
00000000
00000230
00000000
00010300
00020000
,
00000000
00031000
00200000
00000000
00320000
00000000
01000000
00000000
,
00230000
00000000
00001000
00000000
01300000
10000000
10000000
00100000
,
00000000
00000000
01000000
00100000
02000000
00000000
00000000
00000000
03010000
00000000
00100000
00000000
01000000
00000000
00100000
00000000
,
00001000
00000000
00010000
00000000
00000100
00010000
00000100
00000000
00001000
00000000
00000010
00000000
00000100
00000000
00000001
00000000
,
00000010
00000000
00000100
00000000
00001000
00000100
00001000
00000000
00000010
00000000
00010000
00000000
00001000
00000000
01000000
00000000
,
00010000
00000000
00100000
00000000
01000000
00100000
01000000
00000000
10000000
00000000
00100000
00000000
01000000
00000000
00100000
00000000
,
00010000
00001000
00011000
00000000
00010000
00000100
00001000
00000100
,
00010000
00000000
00001000
00000000
00100000
00010000
00100000
00000000
01000000
00000000
10000000
00000000
00100000
00000000
01000000
00000000
,
00010000
00000000
00100000
00000000
00001000
00010000
00001000
00000000
00010000
00000000
00000010
00000000
00001000
00000000
00000100
00000000
,
00000010
00000000
00000001
00000000
00000100
00000010
00000100
00000000
00000000
00000000
00001000
00000000
00001000
00000000
00001000
00000000
,
00000000
00010000
00100000
00000000
01000000
00010000
00100000
00010000
,
10000000
00000000
01000000
00000000
00100000
01000000
00100000
00000000
00001000
00000000
00010000
00000000
00000010
00000000
00001000
00000000
,
00000100
00000000
00000010
00000000
00000001
00001000
00000001
00000000
00001000
00000000
00000010
00000000
00000100
00000000
00001000
00000000
,
00010000
00000000
00001000
00000000
00100000
00001000
00100000
00000000
00010000
00000000
01000000
00000000
10000000
00000000
01000000
00000000
,
00010000
10000000
00100000
00000000
10000000
01000000
00100000
01000000
,
00010000
00000000
00001000
00000000
00100000
00001000
00100000
00000000
00010000
00000000
01000000
00000000
00001000
00000000
00010000
00000000
,
00000010
00000000
00001000
00000000
00000001
00001000
00000001
00000000
00000020
00000000
00000000
00000000
00000100
00000000
00000000
00000000
,
00000031
00000100
00000010
00001001
00000000
00000100
00000100
00000100
,
00000000
00000110
00001001
00000000
00001000
00000010
00000100
00001000
,
00010000
00001000
00010000
00000000
00001000
00000000
00100000
00000000
00010000
00000000
01000000
00000000
00100000
00000000
10000000
00000000
,
01000000
00100000
01000000
00000000
00100000
00000000
00001000
00000000
00010000
00000000
00000100
00000000
00001000
00000000
00000010
00000000
,
00010000
00001000
00010000
00000000
00000100
00000000
00010000
00000000
00001000
00010000
00001000
00000000
01000000
00000000
00001000
00000000
,
00010000
00001000
00010000
00000000
00000010
00000000
00001000
00000000
00000001
00000000
00000010
00000000
00000100
00000000
00000010
00000000
,
00001000
00001000
00000010
00000100
00010000
00000000
00011000
00000000
,
00100000
00020000
00000000
00000000
10030000
00000000
10000000
00100000
,
00000000
00100000
00010000
00000000
00010000
00001000
00000000
00001000
,
00000010
00000000
00000110
00000000
00000001
00000000
00000001
00000100
,
00000000
00000100
00001000
00000000
00001000
00010000
00000000
00010000
,
01000000
00000000
01100000
00000000
10000000
01000000
01000000
00010000
,
00001000
00001000
00000100
00000001
00000001
00000010
00000100
00000100
,
00000110
00000000
00000000
00000000
00001001
00000000
00000000
00000000
00001000
00000000
00000000
00000100
00001000
00000000
00000000
00001000
,
00000010
00000000
00000000
00010000
00001000
00000000
00000000
00000000
00100000
00000000
00010000
00000000
10000000
00000000
00100000
00000000
,
20000000
32000000
03020000
00032000
00000000
00000000
00000000
00000000
,
00003000
00000000
00000000
00000000
;

//--------------- dance-double - forcednature ----------------
#NOTEDATA:;
#STEPSTYPE:dance-double;
#DESCRIPTION:forcednature;
#CREDIT:forcednature;
#DIFFICULTY:Hard;
#METER:17;
#RADARVALUES:0,0,0,0,0;
#NOTES:
00000000
00000000
00000000
00000000
,
00000000
00000000
00000000
00000000
,
00000000
00000000
00000000
00000000
,
00000000
00000000
00000000
00000000
,
00022000
00000000
00000000
00000000
00003000
00000000
00000000
00000000
02000000
00000000
00030000
00000000
00000000
00000000
03100000
00010000
,
20020000
00000000
00000000
30000000
,
02000000
00000000
00000000
00000000
,
00000000
00000000
00000000
00000000
03030000
00000000
00000000
00000000
00010000
00000000
00100000
00000000
00001000
00010000
00001000
00000000
,
00010000
00000100
00001000
00000000
00000010
00000000
00000100
00000000
00000001
00000000
00000010
00000000
00000100
00000010
00000100
00000000
,
00001000
00000100
00010000
00000000
00001000
00000000
01000000
00000000
00010000
00000000
00100000
00000000
01000000
10000000
01000000
00000000
,
10000000
00100000
01000000
00000000
00010000
00000000
00100000
00000000
01000000
00000000
00010000
00000000
00001000
00000000
00010000
00000000
,
01000000
00000000
00100000
00000000
00010000
01000000
00010000
01000000
00001000
00000000
00010000
00000000
00000100
00001000
00000100
00000000
,
00001000
00000001
00000100
00000000
00000010
00000000
00010000
00000000
00001000
00000000
00010000
00000000
00000100
00001000
00000100
00000000
,
00000010
00000001
00000100
00000000
00000010
00000000
00001000
00000000
00000100
00000000
00010000
00000000
00001000
00010000
00001000
00000000
,
00100000
00010000
01000000
00000000
00100000
00000000
10000000
00000000
01000000
00000000
00000000
00100000
00010000
00100000
01000000
10000000
,
00010000
00000000
01000000
00001000
00020000
00000000
00000000
00000000
00030010
00000000
00001000
00000000
00000010
00000100
00000001
00000100
,
00000020
00000000
00000000
00000000
00020030
00000000
00000000
00000000
00032000
00000000
00000000
00000000
00103000
00010000
00100000
01000000
,
00200000
00000000
00000000
00000000
00302000
00000000
00000000
00000000
00023000
00000000
00000000
00000000
00030100
00000000
00001000
00000001
,
00000100
00000000
00000010
00001000
00000100
00000000
00010000
00000000
00002000
00000000
00000000
00000000
01003000
00000000
00010000
00000000
,
00100000
01000000
10000000
00000000
02000000
00000000
00000000
00000000
03100000
00010000
00100000
00001000
00010000
00000000
00000010
00001000
,
00000010
00010000
00001000
00000000
00010000
00000000
00011000
00000000
00000100
00001000
00000100
00010000
00001000
00000000
01000000
00010000
,
01000000
00001000
00010000
00000000
00001000
00000000
00011000
00000000
00100000
00010000
00100000
00010000
01000000
00100000
01000000
00100000
,
10000000
01000000
00100000
00010000
01000000
00000000
00001000
00000000
00010000
00000000
00010000
00000000
00001000
00000000
00001000
00000000
,
00010000
00000010
00001000
00000000
00000010
00000000
00000000
00000000
00000110
00000000
00000000
00000000
00000100
00000000
00000101
00000000
,
00000000
00000001
00000011
00000000
00001000
00001010
00000000
00000100
,
00010100
00000000
00101000
00000000
01010000
00000000
10000000
10100000
,
00000000
00010000
00110000
00000000
00001000
00011000
00000000
00000100
,
00001100
00000000
00000000
00000000
00000011
00000000
00000000
00000000
00000001
00000000
00000100
00000001
00000100
00000000
00000010
00000000
,
00001000
00000010
00001000
00000000
00010000
00000000
01000000
00010000
01000000
00000000
00100000
00000000
10000000
00100000
10000000
00000000
,
01000000
00000000
00000000
00000000
01100000
00000000
00000000
00000000
00100000
00010000
00100000
00010000
01000000
00000000
00000000
00010000
,
01000000
00000000
00001000
00010000
00001000
00000000
00010000
00000000
00000100
00000000
00001000
00000001
00000010
00000001
00001000
00000010
,
00001000
00000001
00000100
00000010
00002000
00000000
00000000
00000000
00003100
00000000
00000010
00000000
00000100
00000000
00010000
00000000
,
00000010
00000000
00000100
00000000
00000010
00000000
00010000
00000000
00001000
00000000
00001000
00010000
00001000
00000000
00100000
00000000
,
01000000
00010000
00001000
01000000
00100000
00010000
00001000
00010000
,
01000000
00000000
00010000
00000000
00001000
00000000
00010000
00000000
00001000
00000000
00010000
00000100
00001000
00000000
00000100
00010000
,
00001000
00000000
01000000
00001000
00010000
00000000
00100000
00000000
20000000
00000000
00000000
00000000
00100000
00000000
00000000
00000000
,
00100000
00000000
32000000
00000000
03020000
00000000
00030000
00002000
,
00000000
00003000
00000020
00000000
00000032
00000000
00000100
00000000
,
00001000
00000000
00000000
00000000
00000013
00000000
00000100
00000000
00010000
00000000
00001000
00010000
00001000
00000000
00100000
00010000
,
10000000
00010000
00100000
00000000
01000000
00000000
00000000
00000000
10000000
00000000
00100000
00000000
00010000
00000000
00100000
00000000
,
00001000
00000000
00100000
00000000
00010000
00000000
00100000
00000000
10000000
00000000
00010000
10000000
00010000
00000000
00100000
00000000
,
01000000
00010000
00001000
00000100
00000001
00000010
00000100
00000010
,
00010000
00000000
00000010
00000000
00000100
00000000
00000010
00000000
00000001
00000000
00000100
00000001
00000100
00000000
00000010
00001000
,
00000100
00000000
00010000
00001000
02000000
00000000
00000000
00000000
03200000
00000000
00000000
00000000
10300000
00000000
02000000
00000000
,
00000000
03100000
00002000
00000000
00023000
00000000
00030100
00002000
,
00000000
00000000
00003010
00000000
00000200
00000000
00000000
00000000
00000301
00000000
00000010
00000001
00000010
00000000
00000100
00001000
,
00000100
00000000
00010000
00001000
00010000
00000000
00001000
00010000
00100000
00000000
00100000
00000000
00100000
00000000
00100000
00000000
,
00000000
00000000
10000000
00100000
01000000
00010000
01000000
00010000
10000000
00000000
01000000
00000000
00100000
00010000
00100000
00000000
,
00010000
01000000
00001000
00000000
00010000
00001000
00100000
00000000
00010000
00000000
01000000
00000000
00001000
00010000
00001000
00000000
,
00010000
00000010
00001000
00000000
00000010
00000100
00000001
00000000
00000010
00000000
00000100
00000000
00001000
00000100
00001000
00000000
,
00000010
00010000
00001000
00000000
01000000
00010000
00100000
00000000
02000000
00000000
10000000
00000000
13000000
00000000
00010000
00000000
,
00200000
00000000
00001000
00000000
00301000
01000000
00010000
00000000
00100000
00000000
00001000
00000000
00010000
00001000
00010000
00000000
,
00000010
00001000
00000001
00000000
00000010
00000100
00001000
00000000
00000010
00000000
00010000
00000000
00001000
00010000
00001000
00000000
,
01000000
00010000
00100000
00000000
01000000
10000000
00010000
00000000
01000000
00000000
00100000
00000000
00010000
00001000
00010000
00000000
,
00000010
00001000
00000100
00000000
00000010
00000000
00000012
00000000
00000000
00000000
00000103
00000010
00000100
00000010
00001000
00000000
,
00000100
00000000
00010000
00001000
00100000
00001000
00010000
00000000
00100000
00000000
10000000
00000000
01000000
00100000
00010000
00000000
,
01000000
00001000
00010000
00000000
00000010
00001000
00000100
00000000
00000010
00000000
00000001
00000000
00000100
00000010
00001000
00000000
,
00000100
00010000
00001000
00000000
00100000
00010000
10000000
00000000
00100000
00000000
01000000
00000000
00010000
00100000
01000000
00000000
,
00100000
00001000
00010000
00000000
00000100
00001000
00000010
00000000
00000200
00000000
00000001
00000000
00000301
00000000
00001000
00000000
,
00000020
00000000
00010000
00000000
00010030
00000100
00001000
00000000
00000001
00000000
00000100
00000000
00001000
00000100
00001000
00000000
,
00010000
00001000
01000000
00000000
00010000
00100000
01000000
00000000
10000000
00000000
00100000
00000000
01000000
00010000
00100000
00000000
,
01000000
00010000
00001000
00000000
00100000
00001000
00010000
00000000
00000100
00001000
00000100
00000010
00000100
00000000
00000010
00000000
,
00000001
00001000
00000010
00000000
00010000
00000000
00011000
00000000
00000000
00000000
00001000
00100000
00001000
00010000
00000100
00000000
,
00010000
00000000
00001000
01000000
00020000
00000000
00000000
00000000
00130000
01000000
00100000
01000000
10000000
01000000
10000000
01000000
,
00100000
00010000
00100000
00001000
00010000
00000000
00000010
00000000
00001000
00000001
00000100
00000001
00001000
00000100
00001000
00000000
,
00000010
00001000
00000010
00010000
00001000
00000000
00010000
00000000
00001000
00010000
00000100
00010000
00001000
00010000
00000100
00010000
,
00001000
00100000
00001000
00100000
00010000
00000000
01000000
00010000
01000000
00010000
00100000
00000000
00001000
00100000
00001000
00100000
,
00010000
00000000
01000000
00100000
10000000
00000000
01000000
00000000
00100000
00010000
00100000
00001000
00010000
00001000
00100000
00010000
,
01000000
00001000
00010000
00000010
00001000
00000000
00000100
00001000
00000001
00000000
00000100
00000001
00001000
00000000
00000100
00000010
,
00000002
00000200
00000000
00000303
00000110
00000000
00000100
00000101
,
00000000
00000001
00000011
00000000
00001000
00001010
00000000
00000100
,
00010100
00000000
00101000
00000000
01010000
00000000
10000000
10100000
,
00000000
00010000
00110000
00000000
00001000
00011000
00000000
00000100
,
00001100
00000000
00000000
00000000
00000011
00000000
00000000
00000000
00000001
00000000
00000100
00000001
00000100
00000000
00000010
00000000
,
00001000
00000010
00001000
00000000
00010000
00000000
01000000
00010000
01000000
00000000
00100000
00000000
10000000
00100000
10000000
00000000
,
01000000
00000000
00000000
00000000
01100000
00000000
00000000
00000000
00100000
00010000
00100000
00010000
01000000
00000000
00000000
00010000
,
01000000
00000000
00001000
00010000
00001000
00000000
00010000
00000000
00000100
00001000
00000100
00010000
00001000
00010000
00000010
00001000
,
00000010
00000100
00001000
00022000
00000000
00000000
00000000
00000000
,
00033000
00000000
00000000
00000000
;
