#VERSION:0.83;
#TITLE:プログレなぞなぞクイズのテーマ;
#SUBTITLE:;
#ARTIST:BEMANI Sound Team "プログレッシブなぞなぞ星人";
#TITLETRANSLIT:Progre nazonazo quiz no theme;
#SUBTITLETRANSLIT:;
#ARTISTTRANSLIT:Progressive nazonazo seijin;
#GENRE:;
#CREDIT:;
#MUSIC:Progre nazonazo quiz no theme.ogg;
#BANNER:Progre nazonazo quiz no theme.png;
#BACKGROUND:Progre nazonazo quiz no theme-bg.png;
#CDTITLE:;
#SAMPLESTART:11.520;
#SAMPLELENGTH:15.000;
#SELECTABLE:YES;
#OFFSET:-0.053;
#BPMS:0.000=136.000
,87.000=204.000
,261.000=272.000
;
#STOPS:60.000=0.221
,61.500=0.220
,66.000=0.221
,67.500=0.220
,74.000=0.221
,75.500=0.220
,80.000=0.221
,81.500=0.220
,255.000=0.295
,256.000=0.294
,257.000=0.294
,258.000=0.294
,258.500=0.294
,259.000=0.294
,259.500=0.882
,300.000=0.441
,365.000=0.441
,367.000=0.441
;
#TIMESIGNATURES:0.000=4=4,
20.000=2=4,
22.000=4=4,
54.000=5=4,
59.000=3=4,
68.000=5=4,
73.000=3=4,
82.000=5=4,
87.000=6=4,
261.000=4=4
;
#BGCHANGES:2.000=../BGAs/17te.mp4=1.000=0=0=0=StretchNoLoop====,
99999.000=-nosongbg-=1.000=0=0=0=StretchNoLoop====
;
#FGCHANGES:;

//--------------- dance-single - forcednature ----------------
#NOTEDATA:;
#STEPSTYPE:dance-single;
#DESCRIPTION:forcednature;
#DIFFICULTY:Beginner;
#METER:4;
#RADARVALUES:0,0,0,0,0;
#CREDIT:forcednature;
#NOTES:
0000
0000
0000
0000
,
0000
0000
0000
0000
,
0000
0000
0000
0000
,
0000
0000
0000
0000
,
0001
0000
0000
0000
,
1000
0000
0020
0000
,
0000
0030
0100
0000
,
0001
0000
0000
0000
,
0001
0000
0010
0000
,
0001
0000
0000
0000
,
0001
1000
0010
0000
,
1000
0000
0000
0000
,
1000
0000
0100
0000
,
1000
0000
0000
1001
,
0000
0001
0000
0000
,
1001
0000
0000
1001
0000
0000
0010
0000
,
0000
0000
0000
0000
1001
0000
0000
1001
,
0000
0100
0100
0100
,
0000
0000
0000
0000
1001
0000
0000
1001
,
0000
0010
0000
0000
,
1001
0000
0000
1001
0000
0000
0001
0000
,
0001
1000
0000
0020
,
0000
0000
0000
0030
,
0200
0000
0000
0000
0000
0300
0000
0002
,
0000
0000
0000
0000
0000
0000
0000
0003
,
0000
2000
0000
0000
3000
0000
0020
0000
,
0030
1000
0000
0000
,
1000
0000
0100
0000
,
0100
0000
0010
0000
,
0000
0010
0000
0001
,
0000
0001
0000
0100
,
0000
0000
0100
0000
,
0010
0000
0010
0000
,
1000
0000
0000
1000
,
0000
0001
0000
0001
,
0000
0010
0000
0000
,
0100
0000
0010
0000
,
0001
0000
1000
0000
,
0000
0010
0000
0100
,
0000
0001
0000
0020
,
0000
0000
0000
0000
,
0000
0000
0000
0000
,
0030
0000
0000
0002
,
0000
0000
0000
0000
,
0000
0000
0000
0000
,
0003
0000
0000
2000
,
0000
0000
0000
3000
,
0000
0020
0000
0000
,
0000
0030
0000
0200
,
0000
0000
0000
0300
,
0000
0002
0000
0000
,
0000
0003
0000
1000
,
0000
0001
0000
0000
,
0000
0001
0000
0100
,
0000
0001
0000
0010
,
0000
0001
0000
0000
,
0000
0001
0000
1000
,
0000
0100
0000
1001
,
0000
1000
0000
0010
,
0000
1001
0000
0001
,
0000
0010
0000
1001
,
0000
1000
0000
0100
,
0000
1000
0000
1000
,
0000
0001
0000
0100
,
0000
0000
0000
0000
0020
0000
0000
0030
,
0000
2002
0000
0000
,
0000
0000
0000
0000
,
0000
0000
0000
0000
,
0000
3003
0000
0000
,
0000
0220
0000
0000
,
0000
0000
0000
0000
,
0000
0000
0000
0000
,
0000
0330
0000
0000
,
0000
2000
0000
0000
,
0000
0000
0000
0000
,
3000
0001
0000
0000
,
0000
0001
0000
0000
,
0000
0010
0000
0000
,
0000
0000
0000
0000
,
0000
0001
0000
0001
,
0000
0100
0000
0001
,
0000
1000
0000
0010
,
0000
1000
0000
0000
,
0000
0100
0000
0000
,
0000
1000
0000
0000
,
0000
0100
0000
0000
,
0000
0010
0000
0000
,
0000
0001
0000
0001
,
0000
1000
0000
0010
,
0000
0100
0000
0001
,
0000
1000
0000
0000
,
0000
0010
0000
0100
,
0000
2002
0000
0000
,
0000
0000
0000
0000
,
0000
0000
0000
0000
,
0000
0000
0000
0000
,
0000
0000
0000
0000
,
0000
0000
0000
3003
,
0000
0001
1000
0000
;

//--------------- dance-single - forcednature ----------------
#NOTEDATA:;
#STEPSTYPE:dance-single;
#DESCRIPTION:forcednature;
#DIFFICULTY:Easy;
#METER:10;
#RADARVALUES:0,0,0,0,0;
#CREDIT:forcednature;
#NOTES:
0000
0000
0000
0000
,
0000
0000
0000
0000
,
2002
0000
0000
0000
,
0000
0000
0000
3003
,
0001
0000
0001
1000
0001
0000
0010
0000
,
0110
1001
2000
3200
,
0301
0000
0110
0000
0001
1000
0001
0000
,
1000
0100
1000
0000
0010
0000
0100
0000
,
0110
0000
1000
0000
0001
0100
0001
0000
,
1000
0100
1000
0000
0001
0000
0011
0000
,
0020
0000
0230
0000
1300
0001
1000
0000
,
0001
0100
0001
0000
0010
0000
0100
0000
,
0110
0000
0001
0000
1000
0010
1000
0000
,
0001
0010
0001
0000
1000
0000
1100
0000
,
0002
2003
3020
0130
,
0002
0003
0100
0000
0000
0000
0002
0003
0010
0000
0000
0000
0100
0000
0000
0000
,
1100
0000
0000
0000
0010
0000
0000
0000
2000
3000
0010
0000
0000
0000
2000
3000
,
0010
0000
0000
1000
0000
0001
1000
0000
0001
0010
0000
0000
,
0100
0000
0000
0000
0010
0000
0000
0000
2002
3003
0010
0000
0000
0000
2002
3003
,
0010
0001
1000
0100
,
2002
3003
0100
0000
0000
0000
2002
3003
1000
0000
0000
0000
0010
0000
0000
0000
,
0001
0000
0000
0010
0000
1000
0010
0000
1000
0002
0000
0000
,
0000
0000
0000
0003
,
0020
0000
0000
0000
0000
0030
0000
0200
,
0000
0000
0000
0000
0000
0000
0000
0300
,
0000
2000
0000
0000
0000
0000
0002
0000
,
3003
1001
1000
0010
,
0100
0001
1001
0001
,
0010
0000
0100
1000
0000
1000
0000
0010
,
0000
0100
0000
0001
0000
1001
0000
1000
,
0000
0200
0000
0000
0000
0300
0010
0100
,
0010
0001
0100
0001
,
1000
0001
1000
0000
0010
0000
0100
0000
,
0100
1000
0100
0001
,
0100
0010
0100
0000
0010
0000
2002
0000
,
3003
0000
0001
0010
0100
0000
0010
0000
,
0001
0000
0100
0000
0010
1000
0001
0000
,
1000
0100
0100
1000
,
0001
0000
0010
0100
1000
0000
0001
0000
,
0100
0110
0010
2002
,
0000
0003
0002
0000
,
0003
0002
0000
0003
,
0002
0000
0000
3003
,
0000
1000
0100
0010
,
0001
0200
0000
0000
,
0020
0000
0330
1001
,
0000
1000
0010
0100
,
0001
0010
0001
0100
,
0100
0010
1000
0001
,
1000
0100
1000
0001
,
0010
0000
0200
0000
0000
0000
0300
1000
,
0002
0000
0003
0100
,
0001
0000
0101
0000
0000
1000
0000
1000
,
0010
0100
0001
1000
,
0010
1000
0010
0000
0100
0000
0001
0000
,
2000
3200
0320
0032
,
0023
0230
2300
0000
,
0001
3000
1001
0110
,
0001
0000
2000
0000
3010
0000
1000
0100
,
0010
0001
0100
0002
,
1003
0000
0001
0010
0100
0000
1000
0000
,
0001
0000
0200
0000
0310
0000
1000
0100
,
0010
0000
0001
0000
0000
1001
0000
0000
,
1000
0000
0000
0000
0010
0000
0000
0000
0100
0000
0000
0000
0002
0003
0000
0000
,
2000
3000
0000
0000
2002
3003
0000
0000
0002
0003
0020
0030
0200
0300
2000
0000
,
3000
2002
0000
0000
,
0000
0000
0000
0000
,
0000
0000
0000
0000
,
0000
3003
0000
0000
,
0000
0220
0000
0000
,
0000
0000
0000
0000
,
0000
0000
0000
0000
,
0000
0330
0000
1000
,
1000
0002
0000
0000
,
0000
0000
0000
0000
,
0003
0010
0001
0000
,
0001
0000
0001
0100
,
0010
1000
0100
0000
,
0100
0000
0100
1000
,
0001
0010
0100
0010
,
0001
1000
0100
0010
,
0001
0000
2000
0000
0000
3020
0000
0000
,
0230
0000
0000
0000
,
0300
0001
1000
0001
,
0100
0001
0000
1000
,
0010
0000
0010
0100
,
0000
0001
0000
1000
,
0100
0010
0001
0010
,
0100
1000
0001
0100
,
0010
1000
0001
0010
,
0200
0000
0000
0000
,
0300
1001
0000
0110
,
0000
2002
0000
0000
,
0000
0000
0000
0000
,
0000
0000
0000
0000
,
0000
0000
0000
0000
,
0000
0000
0000
0000
,
0000
0000
0000
3003
,
0000
0010
0110
0000
;

//--------------- dance-single - forcednature ----------------
#NOTEDATA:;
#STEPSTYPE:dance-single;
#DESCRIPTION:forcednature;
#DIFFICULTY:Medium;
#METER:14;
#RADARVALUES:0,0,0,0,0;
#CREDIT:forcednature;
#NOTES:
0000
0000
0000
0000
,
0000
0000
0000
0000
,
2002
0000
0000
0000
,
0000
0000
0000
3003
,
0001
0000
0000
0100
0000
0100
0000
0001
0000
0001
0000
0000
0100
0000
0010
0000
,
1000
0000
0000
0001
0010
0000
0000
0000
0100
0000
1000
0000
0010
0000
0100
0000
,
0001
0000
0000
0010
0200
0000
0000
0000
1300
0001
1000
0000
0001
1000
0001
0000
,
0100
0000
0010
1000
0000
1000
0000
0000
0001
0000
0010
0000
0100
1000
0100
0000
,
0010
0000
0001
0000
1000
0000
0000
0000
0001
1000
0001
0000
1000
0001
1000
0000
,
0100
0000
0010
0001
0000
0001
0000
0000
1000
0000
0010
0000
0110
0000
0000
0000
,
0100
0000
0000
0000
0001
0000
0000
0000
0100
0000
0000
0000
0001
0000
0000
0000
0010
0000
0000
0000
0001
0000
0000
0000
0010
0000
0000
0100
0000
0000
0010
0000
0000
0000
0000
0000
0001
0000
0000
1000
0000
0000
0001
0000
0000
0000
0000
0000
,
0100
0000
0010
1000
0000
1000
0000
0000
0100
0000
0001
0000
0100
0010
0100
0000
,
1000
0000
0001
0000
0010
0000
0000
0000
0100
0010
0100
0000
1000
0001
1000
0000
,
0010
0000
0100
0001
0000
0001
0000
0000
1000
0001
1000
0001
0100
0000
0000
0000
,
0010
0100
0010
0100
0001
1000
0020
0000
0000
1030
0001
1000
,
0002
0000
0000
0003
0000
0000
1000
0000
0000
0000
0001
0000
0000
0000
1000
0000
0000
0000
0002
0000
0000
0003
0000
0000
1000
0000
0000
0000
0001
0000
0000
0000
1000
0000
0000
0000
0010
0000
0000
0000
0000
0000
0000
0000
0010
0000
0000
0000
,
0100
0000
0000
0000
0000
0000
0000
0000
0100
0000
0000
0000
0001
0000
0000
0000
1000
0000
0000
0000
0001
0000
0000
0000
2000
0000
0000
3000
0000
0000
0001
0000
0000
0000
1000
0000
0000
0000
0001
0000
0000
0000
2000
0000
0000
3000
0000
0000
,
0001
1000
0001
1000
0100
0010
0001
0010
0100
2000
0000
0000
,
3020
0000
0000
0000
0000
0000
0000
0000
0000
0000
0000
0000
1030
0000
0000
0000
0001
0000
0000
0000
1000
0000
0000
0000
2002
0000
0000
3003
0000
0000
1000
0000
0000
0000
0001
0000
0000
0000
1000
0000
0000
0000
2002
0000
0000
3003
0000
0000
,
1000
0001
1000
0020
0000
0100
0230
0000
0000
0301
1000
0001
,
2002
0000
0000
3003
0000
0000
0001
0000
0000
0000
1000
0000
0000
0000
0001
0000
0000
0000
2002
0000
0000
3003
0000
0000
0001
0000
0000
0000
0010
0000
0000
0000
0001
0000
0000
0000
0010
0000
0000
0000
0100
0000
0000
0000
0010
0000
0000
0000
,
0001
1000
0001
0100
0010
1000
0100
0000
0000
2002
0000
0000
,
0000
0000
0000
3003
,
0220
0000
0000
0000
0000
0330
0000
2002
,
0000
0000
0000
0000
0000
0000
0000
3003
,
0000
2200
0000
0000
3300
0000
0202
0000
,
0303
0000
1001
0000
0001
0010
0100
0000
,
0100
1000
0010
0000
1010
0000
1000
0100
,
0010
0000
0001
0100
0000
0110
0000
0010
,
0000
1000
0000
0100
0000
1100
0000
0001
,
0000
0200
0000
0000
0000
0000
0310
1000
,
0010
1000
0001
0100
0010
1000
0001
0010
,
0001
1000
0100
1000
0001
0010
0100
1000
,
0001
0100
0001
1000
0100
0010
0001
1000
,
0010
0100
0001
0010
0100
1000
0020
0000
,
0000
0000
1030
0100
1000
0001
0100
0010
,
0100
1000
0100
0001
1000
0010
1000
0001
,
0010
0001
0100
0010
1000
0001
1000
0100
,
0010
0100
0001
0100
1000
0001
0100
0010
,
0100
0001
1000
1000
0001
0001
2000
0000
,
0000
0000
0020
0000
,
0030
0200
0000
0300
,
0200
0000
0000
3300
,
0000
1000
0001
0000
2000
0000
3010
0000
,
0100
0001
2000
0000
0000
0000
0000
0000
,
0002
0000
3003
1001
,
0000
0000
0001
0010
0001
0010
0100
1000
,
0100
1000
0010
0100
0001
0100
0020
0000
,
1030
0001
0100
0001
1000
0100
2000
0000
,
3020
0000
0032
0000
0023
0000
1030
0010
,
0100
0001
0020
0000
0000
0000
0000
0130
,
2000
0000
0001
0000
3001
0000
1000
0100
,
0010
0000
0100
0001
0000
0100
0000
1000
,
0100
0000
0110
0000
0010
0001
1000
0000
,
0001
0100
0001
0100
0010
0100
1000
0000
,
0100
0010
0100
0000
0001
0000
0011
0000
,
0110
1100
2000
3200
,
0302
0000
0000
0203
0000
0000
2300
0000
0000
3001
0000
0010
,
0001
0000
0010
0001
0000
0100
0010
0000
1000
0100
0000
0100
,
0010
0000
0001
1000
0000
0010
1000
0000
0010
1000
0000
0010
,
0100
0000
0001
0100
0000
0100
0010
0000
1000
0001
0000
0010
,
0001
0000
1000
0010
0000
0100
0010
0000
1000
0001
0000
0001
,
1000
0000
1001
0000
0000
1001
0000
0000
,
0011
0000
0000
0000
0110
0000
0000
0000
1100
0000
0000
0000
2002
3003
0000
0000
,
0220
0330
0000
0000
2002
3003
0000
0000
2000
3000
0002
0003
0200
0300
0220
0000
,
0330
2002
0000
0000
,
0000
0000
0000
0000
,
0000
0000
0000
0000
,
3003
0000
1000
0100
0000
0100
0000
1000
,
0001
2002
0000
0003
,
0000
0002
0000
0003
,
0000
0002
0000
0003
,
0000
0000
3001
0010
0000
0100
0010
0100
,
1000
0020
0000
0000
,
0000
0000
0000
0000
,
0030
0000
1000
0000
0001
1000
0000
0001
,
0200
0000
0000
0000
0310
0000
1000
0001
,
1000
0000
0001
0000
1000
0001
0000
1000
,
0200
0000
0000
0000
0310
0000
0001
1000
,
0001
0000
0100
0001
0100
0000
0010
1000
,
0010
0000
0100
0010
0100
0000
0001
1000
,
0001
0000
0020
0000
0000
0230
0000
0000
,
2300
0000
0000
0000
,
3000
0000
0010
0000
0100
0000
0001
0100
,
0001
0100
0001
0000
0010
0000
0100
0010
,
0000
0100
0000
1000
0100
0000
1000
0001
,
1000
0000
0020
0000
0230
0000
0301
0100
,
0001
0000
0010
0001
1000
0000
0010
1000
,
0001
0000
0020
0000
0130
0000
1000
0100
,
1000
0000
0010
0100
0001
0000
0010
0001
,
0010
0002
0000
0000
0010
0000
0000
0000
,
0013
1001
0000
0110
,
0000
2002
0000
0000
,
0000
0000
0000
0000
,
0000
0000
0000
0000
,
0000
0000
0000
0000
,
3003
0000
1000
0000
0000
1000
0001
0000
,
1000
0001
0000
1000
0001
0000
0100
0000
,
0010
0110
1001
0000
;

//--------------- dance-single - forcednature ----------------
#NOTEDATA:;
#STEPSTYPE:dance-single;
#DESCRIPTION:forcednature;
#DIFFICULTY:Hard;
#METER:17;
#RADARVALUES:0,0,0,0,0;
#CREDIT:forcednature;
#NOTES:
0000
0000
0000
0000
,
0000
0000
0000
0000
,
2002
0000
0000
0000
,
0000
0000
0000
3003
,
0001
1000
0000
0100
0000
0100
0000
1000
0000
0001
0010
0000
0110
0000
0110
0000
,
0001
1000
0000
0010
0100
0000
0001
0000
1000
0100
1000
0001
0010
0100
1000
0001
,
0100
0010
1000
0001
0020
0000
0000
0000
0130
1000
0100
1000
0001
0010
0001
0010
,
0100
0000
1000
0100
0000
1000
0000
1000
0010
0000
0010
0000
0100
0001
0100
0010
,
0000
1000
0001
0000
0010
0001
1000
0000
0010
1000
0010
1000
0001
0100
0001
0100
,
0010
0000
1000
0100
0000
1000
0000
1000
0001
0000
0001
0000
0010
0100
0000
0010
,
0001
0000
0000
0000
1000
0000
0000
0000
0100
0000
0000
0000
0001
0000
0000
0000
0100
0000
0000
0000
1000
0000
0000
0000
0001
0000
0000
1000
0000
0000
0001
0000
0000
1000
0000
0000
0010
0000
0000
0100
0000
0000
0010
0000
0000
0100
0000
0000
,
1000
0000
0100
0001
0000
0100
0000
0100
0010
0000
0010
0000
1000
0001
0100
0001
,
1000
0100
1000
0001
0010
0100
1000
0000
0010
0100
0010
0100
0001
1000
0001
1000
,
0010
0000
0100
0001
0000
0010
0000
0010
0001
1000
0001
1000
0100
0010
0100
1000
,
0001
0000
0010
0000
1000
0000
0010
0000
0001
0000
1000
0000
0200
0000
0000
0000
0000
0000
1300
0001
1000
0001
1000
0000
,
0020
0000
0000
0030
0000
0000
1000
0000
0001
0000
1000
0000
0001
0000
1000
0000
0000
0000
0020
0000
0000
0030
0000
0000
1000
0000
0001
0000
1000
0000
0001
0000
1000
0000
0000
0000
0010
0000
0000
0000
0100
0000
0000
0000
1000
0000
0000
0000
,
0100
0000
0000
0000
0001
0000
0000
0000
0100
0000
0000
0000
0001
0000
1000
0000
0001
0000
1000
0000
0001
0000
0000
0000
0020
0000
0000
0030
0000
0000
0001
0000
1000
0000
0001
0000
1000
0000
0001
0000
0000
0000
0020
0000
0000
0030
0000
0000
,
0001
0000
1000
0100
1000
0000
0010
0000
0010
0000
0010
0000
0100
0000
0100
0000
0100
0000
0002
0000
0000
0000
0013
0000
,
0200
0000
0000
0000
0000
0000
0000
0000
0310
0000
0000
0000
0001
0000
1000
0000
0001
0000
1000
0000
0001
0000
0000
0000
2002
0000
0000
3003
0000
0000
0001
0000
1000
0000
0001
0000
1000
0000
0001
0000
0000
0000
2002
0000
3000
0003
0000
0000
,
0001
1000
0001
1000
0001
0000
1000
0000
0100
1000
0100
0000
0010
0000
0001
0010
0100
0000
1000
0001
1000
0001
1000
0000
,
2002
0000
0000
3003
0000
0000
1000
0000
0001
0000
1000
0000
0001
0000
1000
0000
0000
0000
2002
0000
0000
3003
0000
0000
1000
0000
0000
0000
0010
0000
1000
0000
0010
0000
0000
0000
0100
0000
0000
0000
0001
0000
0100
0000
0001
0000
0000
0000
,
0010
0000
0100
1000
0001
0000
0010
0000
0100
0010
0001
0000
0100
0000
0010
0000
1000
0000
2002
0000
0000
0000
0000
0000
,
0000
0000
0000
3003
,
0220
0000
0000
0000
0000
0330
0000
2002
,
0000
0000
0000
0000
0000
0000
0000
3003
,
0000
0202
0000
0000
0303
0000
2200
0000
,
3300
0000
1000
0010
0100
0010
0001
0010
,
1000
0001
0010
0100
0001
0100
1000
0001
,
0010
0001
0100
1000
0100
0010
0100
0001
,
0010
0100
1000
0001
0010
1000
0010
0001
,
0100
0010
0010
1000
0001
1000
1001
0001
,
0010
0100
0010
0002
0100
2003
0100
3001
,
1001
1000
0002
0010
2003
0010
3001
1001
,
1000
0100
0001
0100
0020
0001
0230
1000
,
0310
0000
0001
0000
0100
0000
0010
0000
0100
0000
1000
0000
0100
0000
0001
0100
,
0001
0000
1000
0000
0001
0000
0010
0001
0010
0000
0100
0010
0100
0000
1000
0000
,
0100
0000
0001
0000
0100
0000
0010
0000
0001
0000
0100
0001
0100
0000
0010
0100
,
0001
0000
1000
0000
0001
0000
0010
0000
0100
1000
0100
0000
1000
0001
0100
0000
,
0001
0000
0010
0000
0100
0000
0001
0000
0100
0000
1000
0000
0001
0000
0010
0001
,
0010
0000
0100
1000
0010
0000
1000
0000
0001
1000
0100
1000
0002
0000
0000
0000
,
0000
0000
0023
0000
,
0000
0230
0000
0000
,
2300
0000
0000
3000
,
0000
0000
0000
0100
0000
0000
0010
0000
0000
0001
0000
0000
1000
0000
0001
0000
1000
0000
0010
0000
0000
0100
0000
0000
,
0001
0010
0200
0000
0000
0000
1000
0000
,
0320
0000
0001
0001
0031
0000
1001
0000
,
1000
0000
0100
1000
0001
0100
0001
1000
,
0010
0000
0100
0000
0001
0000
0010
0000
1000
0000
0010
0000
0001
0000
1000
0001
,
1000
0010
0100
0001
0010
0100
0001
0100
,
0010
0100
1000
0100
0010
0100
1000
0001
,
0100
0000
0010
0000
2000
0000
0000
0000
0000
0000
0000
0000
0000
3000
0001
1000
,
0002
0000
0100
0000
0013
0000
0001
1000
,
1001
0000
0001
0011
0000
1100
0000
1000
,
1010
0000
0101
0000
0001
0010
0110
0000
,
1000
1000
0100
1000
0001
0010
0000
0100
,
0110
0011
0101
1100
,
1010
0000
0000
1001
0000
0000
0001
0010
0001
0010
0100
0010
,
0100
1000
0100
1000
0000
0010
0200
0000
0000
0301
1000
0010
,
1000
0001
0010
0001
0100
0010
1000
0100
1000
0002
0023
0230
,
2300
3200
0320
0031
1000
0100
1000
0010
0100
0001
0010
0001
,
1000
0010
1000
0200
0320
0032
0023
0230
2300
3010
0100
0001
,
0010
0001
0100
0010
1000
0001
0010
0100
1000
0002
0203
0320
,
0230
0000
2300
0000
3200
0000
0302
0000
0000
0100
0000
0000
0103
0000
0000
0020
0000
0000
1000
0000
0000
1030
0000
0000
,
0100
0000
0000
0000
1100
0000
0000
0000
0101
0000
0000
0000
2002
3003
0000
0000
,
0220
0330
0000
0000
2002
3003
0000
0000
0202
0303
2200
3300
2020
3030
0022
0000
,
0033
2002
0000
0000
,
0000
0000
0000
0000
,
0000
0000
0000
0000
,
3003
0000
0001
1000
0000
0100
1000
0010
,
0100
0001
0020
0000
0000
0100
0000
0100
,
0000
0001
0100
0100
,
0000
0001
0000
0100
0000
0100
0000
0000
,
0031
0000
0010
0100
0000
1000
0001
0100
,
0010
1000
0002
0000
0000
0000
0000
0000
,
0000
0000
0000
0000
,
0003
0000
1000
0000
1000
0100
0000
0001
,
0200
0000
1000
0000
0310
0000
0001
0010
,
0100
1000
0001
0000
0001
0100
0000
1000
,
0200
0000
0000
0001
0000
0000
0310
0000
0000
0100
0001
0100
,
0001
0100
0001
1000
0010
1000
0010
1000
0010
0100
0001
1000
,
0100
1000
0001
0010
0100
1000
0100
0010
0001
1000
0001
0100
,
0010
0000
0100
0000
0010
0000
2000
0000
0000
0000
0000
0000
0000
0000
0000
3200
0000
0000
0000
0000
0000
0000
0000
0000
,
0320
0000
0001
0030
,
0011
0000
1100
0000
1000
0100
1000
0001
,
0100
0001
0020
0000
0130
0000
0010
0001
,
0000
0101
0000
0100
0010
0000
1000
0100
,
0010
0000
0000
0001
0000
0000
0100
0000
0000
0010
0000
0000
2000
0000
0000
0000
0000
0000
3100
0000
1000
0000
0100
0000
,
1000
0100
1000
0001
0010
0100
0010
0001
1000
0100
0010
0001
,
0100
0000
0010
0000
1000
0000
0200
0000
0000
0000
0000
0000
0310
0000
0000
0000
0000
0000
0100
0000
0000
1000
0000
0000
,
0010
1000
0001
0100
1000
0100
0001
1000
,
0001
0020
0000
0000
0100
0000
0000
0000
,
0130
0110
0000
1001
,
0000
2002
0000
0000
,
0000
0000
0000
0003
,
0000
0010
0000
0010
,
0000
0010
0000
0010
,
0000
0000
0000
0000
3001
0000
0000
0000
0000
1000
0001
1000
0001
0000
0000
0000
,
1000
0000
0000
0001
0000
0000
0000
0000
0000
1000
0000
0000
0001
0000
0000
0000
0000
0000
1000
0000
0100
0000
0010
0000
,
0001
0011
1100
0000
;

//--------------- dance-double - forcednature ----------------
#NOTEDATA:;
#STEPSTYPE:dance-double;
#DESCRIPTION:forcednature;
#DIFFICULTY:Easy;
#METER:10;
#RADARVALUES:0,0,0,0,0;
#CREDIT:forcednature;
#NOTES:
00000000
00000000
00000000
00000000
,
00000000
00000000
00000000
00000000
,
00022000
00000000
00000000
00000000
,
00000000
00000000
00000000
00033000
,
00010000
00000000
00001000
00010000
00001000
00000000
00000010
00000000
,
00000100
00001001
00000002
00000203
,
00001300
00000000
00011000
00000000
00010000
00001000
00010000
00000000
,
00001000
00100000
00001000
00000000
00100000
00000000
00010000
00000000
,
01000000
00000000
00100000
00000000
10000000
01000000
10000000
00000000
,
00010000
01000000
00010000
00000000
00100000
00000000
00001000
00000000
,
00020000
00000000
00030200
00000000
00001300
00000100
00001000
00000000
,
00000001
00000100
00000001
00000000
00000010
00000000
00001000
00000000
,
00010000
00000000
00001000
00000000
00100000
00001000
00100000
00000000
,
00010000
00100000
00010000
00000000
01000000
00000000
01100000
00000000
,
00200000
20300000
30020000
00130000
,
00002000
00003000
00100000
00000000
00000000
00000000
00002000
00003000
00100000
00000000
00000000
00000000
00010000
00000000
00000000
00000000
,
00001000
00000000
00000000
00000000
00000100
00000000
00000000
00000000
00020000
00030000
00000100
00000000
00000000
00000000
00020000
00030000
,
00000100
00000000
00000000
00001000
00000000
00001000
00000001
00000000
00000001
00001000
00000000
00000000
,
00000010
00000000
00000000
00000000
00000100
00000000
00000000
00000000
00002002
00003003
00000100
00000000
00000000
00000000
00002002
00003003
,
00000100
00000001
00001000
00000100
,
00022000
00033000
00000100
00000000
00000000
00000000
00022000
00033000
00100000
00000000
00000000
00000000
00010000
00000000
00000000
00000000
,
01000000
00000000
00000000
00100000
00000000
01000000
00100000
00000000
00000000
20020000
00000000
00000000
,
00000000
00000000
00000000
30030000
,
20000000
00000000
00000000
00000000
00000000
30000000
00000000
02000000
,
00000000
00000000
00000000
00000000
00000000
00000000
00000000
03000000
,
00000000
00020000
00000000
00000000
00000000
00000000
00002000
00000000
,
00033000
00011000
00001000
00000010
,
00000001
00000100
00001000
00000100
,
00000001
00000000
00000100
00000010
00000000
00000010
00000000
00001000
,
00000000
00000100
00000000
00010000
00000000
00001000
00000000
00100000
,
00000000
00020000
00000000
00000000
00000000
00030000
01000000
00010000
,
01000000
00100000
10000000
01000000
,
00010000
01000000
00100000
00001000
,
00010000
00000100
00001000
00000010
,
00000100
00000010
00000100
00000000
00000001
00000000
00000020
00000000
,
00000030
00000000
00000001
00001000
00000001
00000000
00000010
00000000
,
00001000
00000000
00010000
00000000
00001000
00010000
00001000
00000000
,
01000000
00010000
00100000
01000000
,
10000000
00000000
00100000
10000000
00100000
00000000
01000000
00000000
,
00010000
00100000
00001000
00020000
,
00000000
00000000
00002000
00000000
,
00003000
00002000
00000000
00003000
,
00002000
00000000
00000000
00033000
,
00000000
00001000
00000010
00000100
,
00000010
00000002
00000000
00000000
,
00002000
00000000
00003003
00001001
,
00000000
00000001
00000100
00000001
,
00001000
00000010
00010000
00001000
,
00001000
00100000
00010000
00100000
,
01000000
10000000
00010000
10000000
,
00100000
02000000
00000000
03000000
,
00002000
00000000
00003000
00010000
,
00001000
00000000
00011000
00000000
00000000
00000100
00000000
00000100
,
00000000
00001000
00000010
00000100
,
00000001
00000010
00000100
00010000
,
00002000
00203000
00320000
00230000
,
02300000
23000000
30200000
00000000
,
00000000
00300000
01100000
10000000
,
01000000
00010000
00001000
00000200
,
00000010
00000301
00000100
00001000
,
00010000
02000000
00100000
13000000
,
01000000
00010000
00001000
00000020
,
00000100
00000000
00000031
00000000
00000000
00001001
00000000
00000000
,
00001000
00000000
00000000
00000000
00000010
00000000
00000000
00000000
00000100
00000000
00000000
00000000
00002000
00003000
00000000
00000000
,
00020000
00030000
00000000
00000000
00002000
00003000
00000000
00000000
00020000
00030000
00002000
00003000
00020000
00030000
00002000
00000000
,
00003000
00022000
00000000
00000000
,
00000000
00000000
00000000
00000000
,
00000000
00000000
00000000
00000000
,
00000000
00033000
00000000
00000000
,
00000000
00200000
00000000
00000000
,
00000000
00000000
00000000
00000000
,
00000000
00000000
00000000
00000000
,
00000000
00300000
00000000
01000000
,
00000000
20000000
00000000
00000000
,
00000000
00000000
00000000
00000000
,
30000000
00100000
01000000
00000000
,
01000000
00000000
01000000
00010000
,
00000000
00100000
00001000
00000000
,
00001000
00000000
00001000
00010000
,
00000000
00000100
00001000
00000100
,
00001000
00000001
00000010
00000100
,
00001000
00000000
00000020
00000000
00000000
00020030
00000000
00000000
,
00032000
00000000
00000000
00000000
,
00003000
00010000
00001000
00000000
,
00001000
00010000
00000000
00001000
,
00000000
00100000
00000000
00010000
,
00100000
00010000
00000000
01000000
,
00100000
10000000
00010000
10000000
,
00100000
01000000
00000000
00001000
,
00010000
00000010
00001000
00000001
,
00000200
00000000
00000000
00000000
,
00000300
00000110
00000000
00001000
,
00000000
00022000
00000000
00000000
,
00000000
00000000
00000000
00000000
,
00000000
00000000
00000000
00000000
,
00000000
00000000
00000000
00000000
,
00000000
00000000
00000000
00000000
,
00000000
00000000
00000000
00033000
,
00000000
00010000
00011000
00000000
;

//--------------- dance-double - forcednature ----------------
#NOTEDATA:;
#STEPSTYPE:dance-double;
#DESCRIPTION:forcednature;
#DIFFICULTY:Medium;
#METER:14;
#RADARVALUES:0,0,0,0,0;
#CREDIT:forcednature;
#NOTES:
00000000
00000000
00000000
00000000
,
00000000
00000000
00000000
00000000
,
00022000
00000000
00000000
00000000
,
00000000
00000000
00000000
00033000
,
00001000
00000000
00000000
00000100
00000000
00000100
00000000
00000001
00000000
00000001
00000000
00000000
00000100
00000000
00000010
00000000
,
00001000
00000000
00000000
00000100
00010000
00000000
00000000
00000000
00001000
00000000
00100000
00000000
00010000
00000000
01000000
00000000
,
00010000
00000000
00000000
00100000
02000000
00000000
00000000
00000000
13000000
00010000
10000000
00000000
00010000
10000000
00010000
00000000
,
01000000
00000000
00100000
00000000
00010000
00000000
00000000
00000000
00001000
00000000
00000100
00000000
00000001
00000100
00000001
00000000
,
00000010
00000000
00000100
00000000
00001000
00000000
00000000
00000000
00000001
00001000
00000001
00000000
00001000
00000001
00001000
00000000
,
00000100
00000010
00001000
00000000
00010000
01000000
20000000
00000000
,
31000000
00000000
00000000
00000000
00100000
00000000
00000000
00000000
01000000
00000000
00000000
00000000
00100000
00000000
00000000
00000000
00010000
00000000
00000000
00000000
00100000
00000000
00000000
00000000
00010000
00000000
00000000
10000000
00000000
00000000
00010000
00000000
00000000
00000000
00000000
00000000
01000000
00000000
00000000
00010000
00000000
00000000
01000000
00000000
00000000
00000000
00000000
00000000
,
00100000
00000000
00010000
00000000
00001000
00000000
00000000
00000000
00000100
00000000
00000001
00000000
00000100
00000010
00000100
00000000
,
00000010
00000000
00001000
00000000
00000100
00000000
00000000
00000000
00001000
00000001
00001000
00000000
00000100
00001000
00000100
00000000
,
00000010
00000000
00001000
00000000
00010000
00000000
00000000
00000000
00001000
00010000
00001000
00010000
00100000
00000000
00000000
00000000
,
10000000
01000000
10000000
00010000
00000000
01000000
00020000
00000000
00000000
00130000
01000000
00100000
,
02000000
00000000
00000000
03000000
00000000
00000000
00100000
00000000
00000000
00000000
01000000
00000000
00000000
00000000
00100000
00000000
00000000
00000000
02000000
00000000
00000000
03000000
00000000
00000000
00100000
00000000
00000000
00000000
01000000
00000000
00000000
00000000
00100000
00000000
00000000
00000000
00002000
00000000
00000000
00000000
00000000
00000000
00000000
00000000
00000000
00000000
00000000
00000000
,
00023000
00000000
00000000
00000000
00000000
00000000
00000000
00000000
00000000
00000000
00000000
00000000
00030010
00000000
00000000
00000000
00000100
00000000
00000000
00000000
00000010
00000000
00000000
00000000
00000200
00000000
00000000
00000300
00000000
00000000
00000010
00000000
00000000
00000000
00000100
00000000
00000000
00000000
00000010
00000000
00000000
00000000
00000200
00000000
00000000
00000300
00000000
00000000
,
00000010
00000100
00000010
00001000
00000001
00000100
00000001
00001000
00000100
00020000
00000000
00000000
,
00032000
00000000
00000000
00000000
00000000
00000000
00000000
00000000
00000000
00000000
00000000
00000000
00103000
00000000
00000000
00000000
01000000
00000000
00000000
00000000
00100000
00000000
00000000
00000000
02200000
00000000
00000000
03300000
00000000
00000000
00100000
00000000
00000000
00000000
01000000
00000000
00000000
00000000
00100000
00000000
00000000
00000000
02200000
00000000
00000000
03300000
00000000
00000000
,
00100000
01000000
00100000
00001000
00000000
00001000
00010000
00000000
00010000
00000010
00000100
00000010
,
00000220
00000000
00000000
00000330
00000000
00000000
00000010
00000000
00000000
00000000
00000100
00000000
00000000
00000000
00000010
00000000
00000000
00000000
00000220
00000000
00000000
00000330
00000000
00000000
00000010
00000000
00000000
00000000
00001000
00000000
00000000
00000000
00000010
00000000
00000000
00000000
00001000
00000000
00000000
00000000
00000100
00000000
00000000
00000000
00010000
00000000
00000000
00000000
,
00001000
01000000
00010000
01000000
00100000
10000000
01000000
00000000
00100000
00020000
00000000
00000000
,
00000000
00000000
00000000
00030000
,
02002000
00000000
00000000
00000000
00000000
03003000
00000000
00022000
,
00000000
00000000
00000000
00000000
00000000
00000000
00000000
00033000
,
00000000
00020200
00000000
00000000
00030300
00000000
00002020
00000000
,
00003030
00000000
00000001
00000100
00000001
00000010
00000100
00000000
,
00001000
00000100
00010000
00000000
00100000
01000000
00010000
01000000
,
00100000
00000000
10000000
01000000
00000000
01100000
00000000
00100000
,
00000000
00001000
00000000
00000100
00000000
00000110
00000000
00000010
,
00000000
00002002
00000000
00000000
00003003
00000000
00001000
00000100
,
00001000
00000100
00010000
00001000
00100000
00010000
01000000
00100000
,
10000000
01000000
00100000
01000000
10000000
00010000
01000000
00001000
,
00010000
00000010
00010000
00001000
00100000
00010000
01000000
00100000
,
00010000
00001000
00010000
00000100
00001000
00000100
00000020
00000000
,
00000000
00000000
00000130
00001000
00000001
00000100
00000010
00000100
,
00001000
00010000
00001000
01000000
00010000
00100000
01000000
00100000
,
10000000
00100000
00010000
01000000
00100000
01000000
00010000
00100000
,
00001000
00010000
01000000
00010000
00001000
00010000
00000100
00001000
,
00000010
00000100
00000001
00000001
00000100
00000010
00002000
00000000
,
00000000
00000000
00000200
00000000
,
00000300
00000002
00000000
00000003
,
00000002
00000000
00000000
00003003
,
00000000
00010000
00001000
00000000
00200000
00000000
00310000
00000000
,
00100000
01000000
20000000
00000000
00000000
00000000
00000000
00000000
,
00020000
00000000
30030000
10010000
,
00000000
00000000
00010000
01000000
00010000
01000000
00001000
00010000
,
00001000
00100000
00010000
01000000
00100000
01000000
00020000
00000000
,
00130000
00001000
00010000
00001000
00010000
00000100
00002000
00000000
,
00003002
00000000
00000023
00000000
00000032
00000000
00000103
00000010
,
00000100
00001000
00020000
00000000
00000000
00000000
00000000
00130000
,
20000000
00000000
00000000
00000000
30000000
00000000
10000000
01000000
,
00100000
00000000
01000000
00010000
00000000
00001000
00000000
00010000
,
00000010
00000000
00001010
00000000
00001000
00000001
00000100
00000000
,
00001000
00000100
00001000
00000100
00000010
00000100
00000001
00000000
,
00001000
00000001
00000020
00000000
00002030
00000000
00023000
00000000
,
00230000
20300000
32000000
03020000
,
00032000
00000000
00000000
00003100
00000000
00000000
00000110
00000000
00000000
00000010
00000000
00001000
,
00000010
00000000
00001000
00000010
00000000
00000100
00000001
00000000
00000010
00000100
00000000
00000100
,
00010000
00000000
00010000
00001000
00000000
00100000
00001000
00000000
00100000
00001000
00000000
01000000
,
00010000
00000000
00100000
01000000
00000000
10000000
00010000
00000000
01000000
00001000
00000000
01000000
,
00001000
00000000
00010000
00000100
00000000
00010000
00001000
00000000
00100000
00010000
00000000
00010000
,
10000000
00000000
10010000
00000000
00000000
10010000
00000000
00000000
,
10000000
00000000
00000000
00000000
00100000
00000000
00000000
00000000
00010000
00000000
00000000
00000000
00022000
00033000
00000000
00000000
,
00022000
00033000
00000000
00000000
00022000
00033000
00000000
00000000
00002000
00003000
00000020
00000030
00000002
00000003
00000200
00000300
,
00000000
00000220
00000000
00000000
,
00000000
00000000
00000000
00000000
,
00000000
00000000
00000000
00000000
,
00000330
00000000
00000010
00001000
00000000
00000010
00010000
00001000
,
00010000
00022000
00000000
00030000
,
00000000
00020000
00000000
00030000
,
00000000
00020000
00000000
00030000
,
00003000
00000000
00001000
00100000
00000000
00010000
00100000
00010000
,
10000000
02000000
00000000
00000000
,
00000000
00000000
00000000
00000000
,
03000000
00000000
10000000
00000000
00010000
10000000
00000000
00010000
,
02000000
00000000
00000000
00000000
03001000
00000000
00010000
00001000
,
00010000
00000000
00000100
00000000
00001000
00000100
00000000
00000010
,
00000200
00000000
00000310
00000001
,
00000100
00000000
00000010
00000100
00001000
00000000
00000100
00001000
,
00010000
00000000
00100000
00010000
00001000
00000000
00010000
00100000
,
10000000
00000000
00200000
00000000
00000000
02300000
00000000
00000000
,
23000000
00000000
00000000
00000000
,
30000000
00000000
01000000
00000000
00010000
00000000
00100000
00010000
,
00100000
00010000
00100000
00000000
00001000
00000000
00010000
00000100
,
00000000
00001000
00000000
00000010
00001000
00000000
00000010
00000100
,
00000010
00000000
00000200
00000000
00000302
00000000
00000013
00000001
,
00000010
00000000
00000001
00000010
00001000
00000000
00010000
00001000
,
00010000
00000000
02000000
00000000
03100000
00000000
01000000
10000000
,
01000000
00000000
10000000
00100000
00010000
00000000
00001000
00010000
,
00001000
00020000
00000000
00000000
00000100
00000000
00000000
00000000
,
00030100
00010100
00000000
01001000
,
00000000
00022000
00000000
00000000
,
00000000
00000000
00000000
00000000
,
00000000
00000000
00000000
00000000
,
00000000
00000000
00000000
00000000
,
00033000
00000000
00010000
00000000
00000000
00010000
00001000
00000000
,
00010000
00001000
00000000
00010000
00001000
00000000
00000100
00000000
,
00000010
00000110
00001001
00000000
;

//--------------- dance-double - forcednature ----------------
#NOTEDATA:;
#STEPSTYPE:dance-double;
#DESCRIPTION:forcednature;
#DIFFICULTY:Hard;
#METER:17;
#RADARVALUES:0,0,0,0,0;
#CREDIT:forcednature;
#NOTES:
00000000
00000000
00000000
00000000
,
00000000
00000000
00000000
00000000
,
00022000
00000000
00000000
00000000
,
00000000
00000000
00000000
00033000
,
00010000
00001000
00000000
00100000
00000000
00100000
00000000
00010000
00000000
10000000
01000000
00000000
01100000
00000000
01100000
00000000
,
10000000
00010000
00000000
01000000
00100000
00000000
00010000
00000000
00001000
00010000
00000100
00001000
00000001
00000010
00000100
00000010
,
00000001
00001000
00000010
00010000
00002000
00000000
00000000
00000000
01003000
00100000
00010000
00000000
00010000
00100000
01000000
00000000
,
00100000
00000000
10000000
00100000
00000000
10000000
00000000
10000000
01000000
00000000
01000000
00000000
00100000
00010000
00100000
00001000
,
00000000
00001000
00010000
00000000
00000100
00001000
00000001
00000000
00000100
00000010
00000001
00000000
00000001
00000010
00000100
00000000
,
00000010
00000000
00001000
00000010
00000000
00010000
00000000
00010000
00001000
00000000
00001000
00000000
00100000
00010000
00000000
00100000
,
01000000
00000000
00000000
00000000
10000000
00000000
00000000
00000000
01000000
00000000
00000000
00000000
00010000
00000000
00000000
00000000
00001000
00000000
00000000
00000000
00000100
00000000
00000000
00000000
00000010
00000000
00000000
00000100
00000000
00000000
00001000
00000000
00000000
00000000
00000000
00000000
00001000
00000000
00000000
00000100
00000000
00000000
00000010
00000000
00000000
00000000
00000000
00000000
,
00000100
00000000
00000001
00000100
00000000
00001000
00000000
00001000
00010000
00000000
00010000
00000000
00100000
10000000
00010000
00000000
,
00100000
01000000
10000000
00000000
01000000
00010000
00001000
00000000
00100000
01000000
00010000
00000000
00010000
01000000
00100000
00000000
,
00010000
00000000
01000000
00010000
00000000
10000000
00000000
10000000
01000000
00100000
01000000
00100000
00010000
01000000
00000000
00001000
,
00010000
00000000
00000010
00000000
00000100
00000000
00001000
00000000
00000100
00000000
00000001
00000000
00000200
00000000
00000000
00000000
00000000
00000000
00000301
00001000
00000001
00001000
00000001
00000000
,
00000020
00000000
00000000
00000030
00000000
00000000
00001000
00000000
00010000
00000000
00001000
00000000
00010000
00000000
00001000
00000000
00000000
00000000
00200000
00000000
00000000
00300000
00000000
00000000
00010000
00000000
10000000
00000000
00010000
00000000
10000000
00000000
00010000
00000000
00000000
00000000
00100000
00000000
00000000
00000000
01000000
00000000
00000000
00000000
00100000
00000000
00000000
00000000
,
00001000
00000000
00000000
00000000
00010000
00000000
00000000
00000000
01000000
00000000
00000000
00000000
10000000
00000000
00010000
00000000
10000000
00000000
00010000
00000000
10000000
00000000
00000000
00000000
00200000
00000000
00000000
00300000
00000000
00000000
00010000
00000000
00001000
00000000
00010000
00000000
00001000
00000000
00010000
00000000
00000000
00000000
00000020
00000000
00000000
00000030
00000000
00000000
,
00001000
00000000
00000001
00000100
00000001
00000000
00000010
00000000
00001000
00000000
00010000
00000000
01000000
00000000
10000000
00000000
01000000
00000000
00020000
00000000
00000000
00000000
00000000
00000000
,
00032000
00000000
00000000
00000000
00000000
00000000
00000000
00000000
00003010
00000000
00000000
00000000
00000001
00000000
00001000
00000000
00000001
00000000
00001000
00000000
00000001
00000000
00000000
00000000
00000020
00000000
00000000
00000030
00000000
00000000
00001000
00000000
00010000
00000000
00001000
00000000
00010000
00000000
00001000
00000000
00000000
00000000
00200000
00000000
00000000
00300000
00000000
00000000
,
00010000
10000000
00010000
10000000
00010000
00000000
01000000
00000000
00001000
00000000
00010000
00000000
00100000
00000000
01000000
00000000
00010000
00000000
10000000
00010000
10000000
00010000
10000000
00000000
,
00200000
00000000
00000000
00300000
00000000
00000000
00010000
00000000
00001000
00000000
00010000
00000000
00001000
00000000
00010000
00000000
00000000
00000000
00000020
00000000
00000000
00000030
00000000
00000000
00001000
00000000
00000000
00000000
00000100
00000000
00001000
00000000
00000100
00000000
00000000
00000000
00000010
00000000
00000000
00000000
00000001
00000000
00000010
00000000
00000001
00000000
00000000
00000000
,
00000100
00000000
00000010
00001000
00000100
00000000
00010000
00000000
00001000
01000000
00010000
00000000
00100000
00000000
01000000
00000000
10000000
00000000
20020000
00000000
00000000
00000000
00000000
00000000
,
00000000
00000000
00000000
30030000
,
02200000
00000000
00000000
00000000
00000000
03300000
00000000
00022000
,
00000000
00000000
00000000
00000000
00000000
00000000
00000000
00033000
,
00000000
00000220
00000000
00000000
00000330
00000000
00002002
00000000
,
00003003
00000000
00000001
00000100
00000010
00000100
00001000
00010000
,
01000000
00100000
01000000
00010000
00001000
00100000
00010000
01000000
,
10000000
01000000
00010000
00001000
00100000
10000000
00010000
01000000
,
00001000
00010000
00000010
00001000
00000100
00000010
00001000
00010000
,
01000000
00100000
00100000
01000000
10000000
00010000
10010000
10000000
,
00100000
00010000
00001000
00010000
00001000
00000100
00000001
00001000
,
00001001
00000001
00000010
00001000
00010000
01000000
10000000
10010000
,
00010000
10000000
00100000
01000000
00010000
00100000
00001000
00000010
,
00000100
00000000
00010000
00000000
00001000
00000000
00000010
00000000
00000001
00000000
00000100
00000000
00001000
00000000
00000100
00000010
,
00000100
00000001
00001000
00000010
00000100
00000010
00001000
00000100
,
01000000
00010000
00100000
01000000
10000000
01000000
00010000
01000000
,
00100000
00000000
00010000
00000000
00100000
00000000
00000010
00000000
00001000
00000010
00000100
00000000
00000001
00000000
00000010
00000000
,
00001000
00010000
00000100
01000000
00001000
00100000
00000010
00010000
,
00000100
00000000
00001000
00000000
00000001
00000000
00000100
00000000
00001000
00010000
00001000
00010000
00002000
00000000
00000000
00000000
,
00000000
00000000
00203000
00000000
,
00000000
00320000
00000000
00000000
,
20030000
00000000
00000000
30000000
,
00000000
00000000
00000000
01000000
00000000
00000000
00100000
00000000
00000000
00001000
00000000
00000000
00010000
00000000
00001000
00000000
00010000
00000000
00000100
00000000
00000000
00001000
00000000
00000000
,
00000100
00000010
00000002
00000000
00000000
00000000
00000100
00000000
,
00002003
00000000
00000010
00000010
00003010
00000000
00011000
00000000
,
00010000
00000000
01000000
10000000
00100000
01000000
00010000
00100000
,
01000000
00000000
00010000
00000000
00001000
00000000
00100000
00000000
00001000
00000000
00010000
00000000
00000100
00000000
00001000
00000100
,
00000010
00000001
00000100
00000010
00001000
00000100
00000001
00000100
,
00000010
00000100
00010000
00000100
00001000
00000100
00000010
00001000
,
00010000
00000000
01000000
00000000
00200000
00000000
00000000
00000000
00000000
00000000
00000000
00000000
00000000
00000000
00310000
10000000
,
00020000
00000000
01000000
00000000
10030000
00000000
00010000
00100000
,
00110000
00000000
00001000
00011000
00000000
00010100
00000000
00001000
,
00001010
00000000
00000011
00000000
00000001
00000100
00000110
00000000
,
00000010
00001000
00010000
01000000
00010000
00100000
00000000
01000000
,
10000000
01000000
00200000
00000000
00302000
00000000
00003020
00000000
,
00000032
00000000
00000000
00000203
00000000
00000000
00001300
00010000
00001000
00010000
00100000
00010000
,
00100000
10000000
00100000
10000000
00000000
01000000
20000000
00000000
00000000
30100000
01000000
00010000
,
01000000
00010000
00100000
00001000
00010000
00001000
00010000
00000100
00001000
00000020
00000230
00002300
,
00023000
00032000
00003200
00000310
00000100
00000010
00000100
00000001
00000100
00000001
00001000
00000100
,
00001000
00000100
00010000
00002000
00023000
00230000
02300000
03200000
00320000
00031000
00010000
00001000
,
00100000
00010000
00100000
01000000
10000000
00010000
00100000
00010000
10000000
00200000
02300000
03200000
,
00320000
00000000
00032000
00000000
00003200
00000000
00000320
00000000
00000000
00000100
00000000
00000000
00000130
00000000
00000000
00000002
00000000
00000000
00001000
00000000
00000000
00001003
00000000
00000000
,
00000010
00000000
00000000
00000000
00000110
00000000
00000000
00000000
00000101
00000000
00000000
00000000
00000022
00000033
00000000
00000000
,
00002020
00003030
00000000
00000000
00022000
00033000
00000000
00000000
00220000
00330000
20200000
30300000
22000000
33000000
02020000
00000000
,
03030000
00022000
00000000
00000000
,
00000000
00000000
00000000
00000000
,
00000000
00000000
00000000
00000000
,
00033000
00000000
00001000
00000010
00000000
00000001
00000010
00000100
,
00001000
00000001
00000200
00000000
00000000
00001000
00000000
00001000
,
00000000
00000010
00001000
00001000
,
00000000
00000010
00000000
00001000
00000000
00001000
00000000
00000000
,
00000310
00000000
00000100
00000001
00000000
00000100
00000010
00010000
,
00001000
01000000
00020000
00000000
00000000
00000000
00000000
00000000
,
00000000
00000000
00000000
00000000
,
00030000
00000000
10000000
00000000
10000000
01000000
00000000
01000000
,
00020000
00000000
00001000
00000000
00030010
00000000
00010000
00000100
,
00001000
00000100
00000010
00000000
00000010
00000001
00000000
00000001
,
00000200
00000000
00000000
00001000
00000000
00000000
00000310
00000000
00000000
00000100
00000001
00000100
,
00000001
00000100
00000001
00001000
00000100
00001000
00000100
00001000
00000100
00010000
00001000
00010000
,
00001000
00010000
00001000
00100000
00010000
00100000
01000000
10000000
01000000
00100000
00010000
00100000
,
00001000
00000000
00010000
00000000
00001000
00000000
02000000
00000000
00000000
00000000
00000000
00000000
00000000
00000000
00000000
03020000
00000000
00000000
00000000
00000000
00000000
00000000
00000000
00000000
,
20030000
00000000
00100000
30000000
,
10010000
00000000
11000000
00000000
01000000
00100000
00010000
00100000
,
00001000
00010000
00000200
00000000
00000310
00000000
00000100
00001000
,
00000000
00001010
00000000
00000010
00000100
00000000
00000001
00000010
,
00000100
00000000
00000000
00001000
00000000
00000000
00000001
00000000
00000000
00000100
00000000
00000000
00002000
00000000
00000000
00000000
00000000
00000000
00003100
00000000
00000010
00000000
00000100
00000000
,
00000010
00000100
00000010
00001000
00000001
00001000
00000001
00000010
00000001
00001000
00000100
00010000
,
00001000
00000000
00100000
00000000
00010000
00000000
20000000
00000000
00000000
00000000
00000000
00000000
30100000
00000000
00000000
00000000
00000000
00000000
10000000
00000000
00000000
01000000
00000000
00000000
,
00100000
00010000
01000000
00100000
00010000
00001000
00000100
00000010
,
00000100
00000002
00000000
00000000
00000010
00000000
00000000
00000000
,
00001003
00001001
00000000
00011000
,
00000000
20020000
00000000
00000000
,
00000000
00000000
00000000
30000000
,
00000000
00100000
00000000
00100000
,
00000000
00000000
00100000
00000000
00000000
00000000
00100000
00030000
,
00000000
00000000
00000000
00000000
00001000
00000000
00000000
00000000
00000000
00010000
00001000
00010000
00001000
00000000
00000000
00000000
,
00010000
00000000
00000000
00001000
00000000
00000000
00000000
00000000
00000000
00010000
00000000
00000000
00001000
00000000
00000000
00000000
00000000
00000000
00010000
00000000
00000100
00000000
00001000
00000000
,
00000001
00000011
00001100
00000000
;
