#VERSION:0.83;
#TITLE:Programmed World;
#SUBTITLE:;
#ARTIST:kors k as StripE;
#TITLETRANSLIT:;
#SUBTITLETRANSLIT:;
#ARTISTTRANSLIT:;
#GENRE:PSY TRANCE (FULL ON);
#CREDIT:;
#MUSIC:Programmed World.ogg;
#BANNER:Programmed World.png;
#BACKGROUND:Programmed World-bg.png;
#CDTITLE::./CDTitles/bm IIDX 16 EMPRESS.png;
#SAMPLESTART:41.119;
#SAMPLELENGTH:15.000;
#SELECTABLE:YES;
#OFFSET:1.226;
#BPMS:0.000=153.000
,68.000=38.250
,68.500=76.500
,70.000=153.000
,137.000=76.500
,151.000=153.000
;
#STOPS:249.500=0.392;
#TIMESIGNATURES:0.000=4=4,
68.000=5=4,
73.000=4=4,
149.000=6=4,
155.000=4=4,
247.000=3=4,
250.000=4=4
;
#DISPLAYBPM:153.000;
#BGCHANGES:0.000=../BGAs/08cy.mp4=1.000=0=0=0=StretchNoLoop====,
99999.000=-nosongbg-=1.000=0=0=0=StretchNoLoop====
;
#FGCHANGES:;

//--------------- dance-single - forcednature ----------------
#NOTEDATA:;
#STEPSTYPE:dance-single;
#DESCRIPTION:forcednature;
#CREDIT:forcednature;
#DIFFICULTY:Beginner;
#METER:4;
#RADARVALUES:0,0,0,0,0;
#NOTES:
0000
0000
0000
0000
,
0000
0000
0000
0000
,
0000
0000
0000
0000
,
0000
0000
0000
0000
,
0000
0000
0000
0000
,
0000
0000
0000
0000
,
0000
0000
0000
0000
,
0000
0000
0000
0000
,
0000
0000
0000
0000
,
0000
0000
0000
0000
,
0000
0000
0000
0000
,
0002
0000
0000
0000
,
0000
0000
0003
0000
,
0200
0000
0000
0000
,
0000
0000
0300
0000
,
0020
0000
0000
0000
,
0000
0000
0000
0000
,
0200
0000
0000
0330
,
0000
1001
0000
0000
,
0000
1000
0000
0100
,
0000
0010
0000
0000
,
0000
0100
0000
1000
,
0000
0001
0000
0000
,
0000
0100
0000
0010
,
0000
1000
0000
0000
,
0000
0001
0001
0001
,
1000
0010
0000
0000
,
0000
0100
0000
0001
,
0100
0001
0000
0000
,
0000
0010
0000
0010
,
0000
0100
0000
0000
,
0000
1000
0000
0100
,
1000
0100
0000
0000
,
0000
0010
0000
0001
,
0000
2002
0000
0000
,
0000
0000
0000
0000
,
0000
0000
0000
0000
,
0000
0000
0000
3003
,
0000
0000
0000
0110
,
0000
0000
0000
0001
,
0000
0001
0000
0010
,
0000
0000
0000
0100
,
0000
0100
0000
1000
,
0000
0010
0000
0100
,
0000
0001
0000
1000
,
0000
0001
1000
0002
,
0000
0000
0003
0010
,
0000
0100
0000
0010
,
0000
0001
0000
1000
,
0000
0100
0000
0010
,
0000
0100
1000
0100
,
0000
1000
0000
0010
,
0000
1000
0000
0001
,
0000
0010
0000
0001
,
0000
1000
0001
1000
,
0000
0010
0000
0100
,
0000
0001
0000
0010
,
0000
0001
0000
1000
,
1000
1000
0000
0100
,
0000
0010
0000
0100
,
0000
1000
0000
0001
,
0000
0100
0000
0010
,
0010
0010
1001
0000
,
1000
0000
0100
0000
,
0010
0000
0100
0000
,
1000
0000
0001
0001
,
0001
0000
0100
0100
,
0100
0000
0001
0001
,
0001
0000
1000
1000
,
1000
0000
0100
0000
,
0010
0000
2002
0000
,
0000
0000
3003
0000
;

//--------------- dance-single - forcednature ----------------
#NOTEDATA:;
#STEPSTYPE:dance-single;
#DESCRIPTION:forcednature;
#CREDIT:forcednature;
#DIFFICULTY:Easy;
#METER:8;
#RADARVALUES:0,0,0,0,0;
#NOTES:
0000
0000
0000
0000
,
0000
0000
0000
0000
,
0000
0000
0000
0000
,
0000
0000
0000
0000
,
0000
0000
0000
0000
,
0000
0000
0000
0000
,
0000
0000
0000
0000
,
0000
0000
0000
0000
,
0000
0000
0000
0000
,
0000
0000
0000
0000
,
0000
0000
0000
0000
,
2001
0000
0000
3200
,
0000
0000
0000
0300
,
0020
0000
0000
0032
,
0000
0000
0000
0003
,
0200
0000
0010
0010
,
0010
0000
0301
0000
,
2002
0000
0000
0000
,
3003
0001
0010
0100
,
0010
0001
0010
0100
,
1000
0010
0100
0010
,
1000
0010
0100
0001
,
1000
0100
0010
0100
,
1000
0100
0010
0001
,
1000
0001
0100
0010
,
0100
0000
0000
0000
0001
0000
0000
1000
0000
0000
0001
0000
0000
1000
0000
0000
,
0020
0000
0130
0000
0001
0100
0001
0000
,
1000
0010
0100
0001
,
0010
0000
0100
0000
1000
0100
1000
0000
,
0001
0100
0010
1000
,
0001
0000
0010
0000
0100
0010
0100
0000
,
1000
0001
0100
0010
,
1000
0000
0100
0000
1000
0010
1000
0000
,
0001
0010
0001
0100
,
0110
2002
0000
0000
,
0000
0000
0000
0000
,
0000
0000
0000
0000
,
0000
0000
0000
3003
,
0000
0000
0000
0002
,
0010
0010
0000
1000
,
1000
1000
0000
0100
,
0100
0100
0000
1000
,
1000
1000
0003
0001
,
0010
0100
1000
0001
,
0100
0000
0010
0000
1000
0000
0100
0010
,
0100
0010
0100
0000
0010
0000
2002
0000
,
0000
0000
3003
1000
,
0100
1000
0001
0000
0010
0000
0100
0000
,
0010
0001
1000
0000
0010
0000
0100
0000
,
0010
1000
0001
0000
0100
0000
0010
0000
,
1010
0100
1001
0001
,
0010
0100
1000
0000
0001
0000
0100
0000
,
0010
1000
0001
0000
0010
0000
0100
0000
,
0010
0001
1000
0000
0010
0000
0220
0000
,
0330
0000
2002
0000
3003
0000
0001
0010
,
0100
0000
0010
0000
0001
0000
1000
0010
,
0100
0000
0010
1000
0001
0000
0100
0010
,
1000
0000
0001
0000
0010
0000
0100
0010
,
0001
0000
1000
0100
0010
0000
0100
1000
,
0001
0000
0100
0000
0010
0000
0100
0001
,
1000
0000
0100
0000
0010
0000
0100
1000
,
0010
0000
0100
0001
0010
0000
0110
0000
,
0001
0000
1001
0000
1010
0000
0001
0100
,
0010
0000
1000
0000
0001
0010
0100
0000
,
0010
0001
1000
0000
0010
0000
0100
0001
,
1000
0000
0100
0000
0010
0100
1000
0000
,
0010
0100
0001
0000
0101
0000
1000
0000
,
0010
0100
0010
0000
0100
0000
0001
0000
,
0010
0001
0010
0000
0100
1000
0100
0000
,
0010
0001
0010
0000
0100
1000
0100
0000
,
0010
0110
2002
0000
,
0000
0000
3003
0000
;

//--------------- dance-single - forcednature ----------------
#NOTEDATA:;
#STEPSTYPE:dance-single;
#DESCRIPTION:forcednature;
#CREDIT:forcednature;
#DIFFICULTY:Medium;
#METER:12;
#RADARVALUES:0,0,0,0,0;
#NOTES:
0000
0000
0000
0000
,
0000
0000
0000
0000
,
0000
0000
0000
0000
,
0000
0000
0000
0000
,
0000
0000
0000
0000
,
0000
0000
0000
0000
,
0000
0000
0000
0000
,
0000
0000
0000
0000
,
0000
0000
0000
0000
,
0000
0000
0000
0000
,
0000
0000
0000
0000
,
1002
0000
0000
0203
0000
0000
0320
0000
,
0000
0000
0000
0030
,
2000
0000
0000
3002
0000
0000
0023
0000
,
0000
0000
0000
0030
,
0200
1000
0010
1000
,
0320
0001
0100
0031
,
2002
0000
0000
0000
,
3003
0000
1000
0100
0001
0000
0100
0000
,
1000
0000
0010
0100
0001
0000
0010
0100
,
1000
0000
0001
0100
1000
0000
0100
0000
,
0001
0000
0010
0100
1000
0000
0010
0100
,
0001
0000
1000
0010
0001
0000
0010
0000
,
1000
0000
0100
0001
0100
0000
1000
0010
,
1000
0000
0001
0010
1000
0000
0010
0000
,
0001
0000
0000
0000
0101
0000
0000
1000
0000
0000
0101
0000
0000
1000
0000
0000
,
0010
0100
0010
0000
0100
0000
0001
0000
0010
0000
0001
0000
0100
0000
0010
0000
,
1000
0000
0001
0010
1000
0000
0010
0001
,
1000
0000
0100
0010
0001
0010
0100
0010
,
0001
0000
1000
0010
0001
0000
0010
1000
,
0001
0000
0100
0010
1000
0010
1000
0100
,
0001
0000
0100
1000
0010
0100
0001
0010
,
1000
0000
0010
0001
0100
0000
0010
1000
,
0100
0000
0000
0000
0001
0000
0100
0000
1000
0000
0001
0000
0010
0000
0000
0001
,
0100
2002
0000
0000
,
0000
0000
0000
0000
,
0000
0000
0000
0000
,
0000
0000
0000
3003
,
0000
0000
0000
1100
,
1010
1100
1010
0011
,
0101
0011
0101
1100
,
0101
1100
0101
0011
,
1010
0000
0011
0000
1010
0000
0001
1000
,
0100
1000
0010
1000
0100
1000
0001
0100
,
0001
0010
0001
1000
0001
0010
0001
0100
,
0010
1000
0100
0010
0001
0000
2002
0000
,
3003
0000
1000
0010
0200
0000
0301
0010
,
0001
0000
1000
0100
0000
1000
0000
1000
0000
0000
0001
0000
0010
0000
0100
0000
,
0010
0000
0001
1000
0000
0010
0000
0010
0000
0000
0100
0000
0001
0000
0010
0000
,
0001
0000
1000
0100
0000
0010
0000
0010
0000
0000
0100
0000
1000
0000
0001
0100
,
0000
0100
0000
0000
0010
0000
1000
0010
0000
0010
0000
0000
1000
0000
0100
0000
,
1000
0000
0001
0010
0000
0100
0000
0100
0000
0000
0010
0000
0001
0000
1000
0000
,
0010
0000
0100
0001
0000
0001
0000
0010
0000
0000
0100
0000
1000
0000
0001
0000
,
0100
0000
0001
1000
0000
1000
0000
0100
0000
0000
0010
0000
0220
0000
0000
0000
,
0330
0000
0000
0000
1000
0000
0001
1000
0002
0000
0000
0000
0013
0000
0100
0000
,
1000
0000
0100
0000
0010
0100
0010
0000
0001
0000
0000
0000
1000
0000
0010
0000
,
0100
0000
1000
0000
0100
0001
0100
0000
0001
0000
0000
0000
0010
0000
0001
0000
,
1000
0000
0010
0000
0100
0010
0100
0000
0001
0000
0000
0000
0010
0000
1000
0000
,
0010
0000
0001
0000
1000
0001
1000
0000
0100
0000
0000
0000
1000
0000
0010
0000
,
0100
0000
0000
0100
0010
0000
0100
0000
0001
0000
0000
0001
0010
0000
0001
0000
,
1000
0000
0000
1000
0100
0000
1000
0000
0010
0000
0000
0000
0100
0000
0001
0000
,
0010
0001
1000
0001
0010
0001
0200
0000
,
0010
0000
0301
1000
0101
0001
1000
0010
,
0001
0010
1000
0001
0100
0001
0010
1000
,
0010
0001
1000
0100
1000
0010
0100
1000
,
0100
0001
0010
0100
0001
0100
1000
0001
,
0010
0001
1000
0000
0010
0100
0001
0100
,
1000
0100
0001
0100
0010
1000
0100
1000
,
0001
1000
0100
1000
0001
0010
1000
0010
,
0001
0010
0100
0010
0001
0100
1000
0100
,
0001
0010
1000
0010
2002
0000
0000
0000
,
0000
0000
3003
0000
;

//--------------- dance-single - forcednature ----------------
#NOTEDATA:;
#STEPSTYPE:dance-single;
#DESCRIPTION:forcednature;
#CREDIT:forcednature;
#DIFFICULTY:Hard;
#METER:15;
#RADARVALUES:0,0,0,0,0;
#NOTES:
0000
0000
0000
0000
,
0000
0000
0000
0000
,
0000
0000
0000
0000
,
0000
0000
0000
0000
,
0000
0000
0000
0000
,
0000
0000
0000
0000
,
0000
0000
0000
0000
,
0000
0000
0000
0000
,
0000
0000
0000
0000
,
0000
0000
0000
0000
,
0000
0000
0000
0000
,
1001
0000
1000
0100
0000
0010
0100
0000
,
0010
0001
0000
1000
0100
0010
0001
1000
,
0001
0000
0100
0010
0000
1000
0001
0000
,
0100
0001
0000
1000
0100
1000
0001
0010
,
0200
0001
0010
1000
,
0302
0100
1000
0013
,
0220
0000
0000
0000
,
0330
0000
0000
0000
0001
0000
0010
0001
0010
0000
0100
1000
0000
0001
0000
0100
,
0000
0000
0010
0000
1000
0010
1000
0000
0001
0000
0010
0000
0100
0010
0100
0000
,
1000
0000
0001
0000
0100
0000
0001
0100
0001
0000
1000
0010
0000
0100
0000
0100
,
0000
0000
0001
0000
0010
0001
0000
0010
0001
0000
1000
0000
0100
0010
0100
0000
,
0010
0000
0001
0000
1000
0000
0010
1000
0010
0000
0100
0001
0000
1000
0000
0100
,
0000
0000
0010
0000
0001
0010
0001
0000
1000
0000
0010
0000
0100
0010
0100
0000
,
0001
0000
1000
0000
0200
0000
0000
1300
0001
0000
1000
0000
0010
0100
0000
0100
,
0010
0000
1000
0000
0001
0010
0000
0100
1000
0000
0001
0010
0000
0100
1000
0000
,
0010
0100
0010
0100
0001
0000
1000
0000
0100
0000
0001
0100
0000
1000
0000
1000
,
0000
0001
0010
0000
0100
0010
0100
0000
1000
0000
0001
0000
0010
0100
1000
0000
,
0020
0000
0000
0000
1030
0000
0001
0000
0100
0000
1000
0100
0000
0001
0000
0001
,
0000
1000
0010
0000
0100
0010
0100
0000
0001
0000
1000
0000
0100
0000
1000
0001
,
0010
0000
0001
0000
1000
0000
0010
0000
0001
0000
0010
1000
0000
0001
0000
0001
,
0000
0100
0010
0000
1000
0100
1000
0000
0001
0000
0010
0000
0100
1000
0001
0000
,
0200
0000
0000
0000
0310
0000
1000
0000
0100
1000
0000
0001
0000
0010
0100
0010
,
0100
1000
0001
0000
0100
0010
1000
0000
1000
0000
0001
0010
0100
1000
0010
0100
,
0001
2002
0000
0000
,
0000
0000
0000
0000
,
0000
0000
0000
0000
,
0000
0000
0000
3003
,
0000
0000
0000
0000
0000
0000
0000
0000
0000
0000
0000
0000
1000
0100
0000
0000
,
1000
0010
0000
0000
0100
0001
0000
0000
0010
0001
0000
0000
0001
0100
0000
0000
,
0010
1000
0000
0000
0001
0010
0000
0000
0100
1000
0000
0000
1000
0010
0000
0000
,
0100
0001
0000
0000
0010
0100
0000
0000
1000
0001
0000
0000
0001
0100
0000
0000
,
0010
1000
0000
0000
0100
0010
0000
0000
0001
1000
0000
0000
0010
0000
0100
0000
,
0010
0100
0001
0010
1000
0010
0001
1000
,
0001
0000
1000
0000
0100
0000
0010
0000
0001
0000
0100
0000
0010
1000
0010
1000
,
0001
0100
0001
0100
0010
1000
0001
0100
0020
0000
0000
0000
0200
0000
0000
0000
,
0330
0000
0000
0000
1000
0001
1000
0001
0010
0100
1000
0001
0010
0000
0001
0000
,
0100
0000
1000
0100
0000
0001
0000
1000
0000
0010
0100
0001
1000
0000
0100
0000
,
0001
0000
0100
1000
0000
0001
0000
0010
0000
0001
0100
0010
1000
0000
0001
0000
,
0010
0000
1000
0010
0000
0001
0000
0100
0000
0010
1000
0001
0100
0000
0010
1000
,
0000
1000
0100
0010
0100
0000
0010
0001
0000
0100
0001
1000
0010
0000
0100
0000
,
1000
0000
0100
0001
0000
1000
0000
0010
0000
1000
0100
0010
0100
0000
1000
0000
,
0001
0000
0010
1000
0000
0010
0000
0001
0000
1000
0100
1000
0001
0000
0100
0000
,
0010
0000
1000
0001
0000
0100
0000
1000
0000
0100
0001
0100
0002
0000
0000
0000
,
0000
0000
0003
0000
0010
0100
0010
0100
2000
0000
0000
0000
3001
0000
0100
0010
,
0100
0001
0000
0010
0001
0000
0010
0001
1000
0100
1000
0000
0010
0100
0001
0100
,
0010
0000
1000
0000
0100
0010
0001
0010
0100
0000
1000
0000
0001
0000
0100
0010
,
1000
0100
0000
1000
0001
0000
0010
0001
1000
0001
0010
0000
0100
1000
0100
1000
,
0010
0000
1000
0000
0001
0100
0001
0100
1000
0100
0001
1000
0010
0000
0100
0001
,
0010
0001
0000
0010
0100
0000
1000
0010
0100
0010
0000
0100
0001
0000
1000
0100
,
1000
0100
0000
0001
0100
0000
1000
0001
0010
0001
0000
0010
0100
0000
1000
0010
,
0100
0010
0000
1000
0001
0000
0010
0100
0010
0001
0000
0010
0100
0000
1000
0100
,
0010
0000
0001
0100
0010
0000
2000
3000
1001
0000
0001
0010
0100
0000
0001
0100
,
0000
1000
0000
0001
0000
0010
0001
0010
0001
0000
1000
0100
0010
0100
1000
0001
,
0010
0000
0001
0100
0010
0100
0001
1000
0010
0000
1000
0100
0010
0000
1000
0010
,
0000
0001
0000
1000
0000
0100
0010
0100
0010
0000
0001
1000
0010
1000
0001
0100
,
0010
0000
1000
0001
0010
0001
1000
0100
0010
0000
0100
1000
0001
0000
0100
0010
,
0000
0001
0000
0010
0000
1000
0001
1000
0001
0000
0100
0010
0000
1000
0100
1000
,
0001
0010
0100
0010
0001
0100
0001
1000
0010
0000
0100
0001
1000
0100
1000
0001
,
0010
0000
0100
1000
0001
0100
0001
1000
0010
0000
0100
0001
0010
0100
0010
0001
,
1000
0000
0010
0100
0001
0010
0100
1000
0020
0000
0000
0000
0000
0000
0000
0000
,
0000
0000
0030
0000
;

//--------------- dance-double - forcednature ----------------
#NOTEDATA:;
#STEPSTYPE:dance-double;
#DESCRIPTION:forcednature;
#CREDIT:forcednature;
#DIFFICULTY:Easy;
#METER:8;
#RADARVALUES:0,0,0,0,0;
#NOTES:
00000000
00000000
00000000
00000000
,
00000000
00000000
00000000
00000000
,
00000000
00000000
00000000
00000000
,
00000000
00000000
00000000
00000000
,
00000000
00000000
00000000
00000000
,
00000000
00000000
00000000
00000000
,
00000000
00000000
00000000
00000000
,
00000000
00000000
00000000
00000000
,
00000000
00000000
00000000
00000000
,
00000000
00000000
00000000
00000000
,
00000000
00000000
00000000
00000000
,
00020000
00000000
00000000
00032000
,
00000000
00000000
00000000
00003000
,
00020000
00000000
00000000
00030200
,
00000000
00000000
00000000
00000300
,
00002000
00000000
00000001
00000001
,
00000001
00000000
00003010
00000000
,
00000220
00000000
00000000
00000000
,
00000330
00000001
00001000
00000100
,
00001000
00000010
00010000
00001000
,
00000000
01000000
00010000
01000000
,
00100000
10000000
01000000
00100000
,
00000000
00010000
01000000
00001000
,
00010000
00001000
00010000
00000100
,
00000000
00001000
00000010
00001000
,
00000001
00000000
00000000
00000000
00000010
00000000
00000000
00000100
00000000
00000000
00000010
00000000
00000000
00000100
00000000
00000000
,
00000020
00000000
00000031
00000000
00001000
00000001
00001000
00000000
,
00000100
00010000
00001000
00100000
,
00000000
00000000
00010000
00000000
01000000
00010000
01000000
00000000
,
00100000
10000000
01000000
00100000
,
00000000
00000000
00001000
00000000
00010000
00001000
00010000
00000000
,
00000100
00001000
00000010
00000100
,
00000000
00000000
00000001
00000000
00000010
00000001
00000010
00000000
,
00000100
00001000
00000100
00010000
,
00001000
00022000
00000000
00000000
,
00000000
00000000
00000000
00000000
,
00000000
00000000
00000000
00000000
,
00000000
00000000
00000000
00033000
,
00000000
00000000
00000000
00100000
,
00100000
00010000
00010000
01000000
,
01000000
00100000
00100000
10000000
,
10000000
01000000
01000000
00010000
,
00010000
00001000
00001000
00000010
,
00000100
00000010
00000001
00000100
,
00000010
00000000
00000100
00000000
00001000
00000000
00010000
00001000
,
00010000
00000000
00001000
00010000
00001000
00000000
00022000
00000000
,
00000000
00000000
00033000
01000000
,
00010000
01000000
00100000
00000000
10000000
00000000
01000000
00000000
,
10000000
00010000
00100000
00000000
00010000
00000000
01000000
00000000
,
00010000
01000000
00001000
00000000
00010000
00000000
00000100
00000000
,
00011000
00010000
00011000
00000010
,
00001000
00000010
00000100
00000000
00000001
00000000
00000010
00000000
,
00000100
00000010
00000001
00000000
00000100
00000000
00000010
00000000
,
00001000
00000010
00010000
00000000
00001000
00000000
00022000
00000000
,
00033000
00000000
00022000
00000000
00033000
00000000
00010000
00001000
,
00100000
00000000
00010000
00000000
01000000
00000000
00100000
10000000
,
00010000
00000000
00100000
00010000
10000000
00000000
01000000
00100000
,
00010000
00000000
00100000
00000000
00001000
00000000
00010000
00000100
,
00001000
00000000
00000100
00001000
00000001
00000000
00000100
00000001
,
00001000
00000000
00000010
00000000
00000100
00000000
00000010
00001000
,
00000100
00000000
00010000
00000000
00001000
00000000
00100000
00010000
,
00100000
00000000
01000000
10000000
00100000
00000000
01100000
00000000
,
01000000
00000000
10010000
00000000
10100000
00000000
00010000
01000000
,
00010000
00000000
00100000
00000000
00001000
00010000
00001000
00000000
,
00010000
00000100
00001000
00000000
00000010
00000000
00000100
00000001
,
00000100
00000000
00000001
00000000
00000010
00000100
00001000
00000000
,
00000100
00010000
00001000
00000000
00011000
00000000
00100000
00000000
,
00010000
00100000
00010000
00000000
01000000
00000000
00100000
00000000
,
10000000
01000000
00100000
00000000
01000000
10000000
00010000
00000000
,
00100000
00001000
00010000
00000000
00001000
00010000
00000100
00000000
,
00001000
00001001
00000220
00000000
,
00000000
00000000
00000330
00000000
;

//--------------- dance-double - forcednature ----------------
#NOTEDATA:;
#STEPSTYPE:dance-double;
#DESCRIPTION:forcednature;
#CREDIT:forcednature;
#DIFFICULTY:Medium;
#METER:12;
#RADARVALUES:0,0,0,0,0;
#NOTES:
00000000
00000000
00000000
00000000
,
00000000
00000000
00000000
00000000
,
00000000
00000000
00000000
00000000
,
00000000
00000000
00000000
00000000
,
00000000
00000000
00000000
00000000
,
00000000
00000000
00000000
00000000
,
00000000
00000000
00000000
00000000
,
00000000
00000000
00000000
00000000
,
00000000
00000000
00000000
00000000
,
00000000
00000000
00000000
00000000
,
00000000
00000000
00000000
00000000
,
00020000
00000000
00000000
00032000
00000000
00000000
00203000
00000000
,
00000000
00000000
00000000
00300000
,
00020000
00000000
00000000
20030000
00000000
00000000
30200000
00000000
,
00000000
00000000
00000000
00300000
,
02000000
00100000
00010000
00100000
,
03020000
00100000
10000000
00130000
,
20020000
00000000
00000000
00000000
,
30030000
00000000
10000000
01000000
00010000
00000000
00001000
00000000
,
00010000
00000000
00001000
00000010
00000001
00000000
00000100
00000001
,
00000010
00000000
00000001
00000100
00001000
00000000
00010000
00000000
,
00100000
00000000
10000000
01000000
00010000
00000000
01000000
10000000
,
00100000
00000000
00010000
00100000
10000000
00000000
01000000
00000000
,
00010000
00000000
00001000
00100000
00001000
00000000
00010000
00000100
,
00010000
00000000
00001000
00000010
00000001
00000000
00000100
00000000
,
00001000
00000000
00000000
00000000
00011000
00000000
00000000
00100000
00000000
00000000
00011000
00000000
00000000
00000010
00000000
00000000
,
00010000
00001000
00010000
00000000
00001000
00000000
00100000
00000000
00010000
00000000
00100000
00000000
01000000
00000000
10000000
00000000
,
00100000
00000000
10000000
01000000
00010000
00000000
00001000
00000100
,
00000001
00000000
00000010
00000100
00001000
00000100
00000010
00000100
,
00001000
00000000
00000001
00000010
00001000
00000000
00010000
00001000
,
00000010
00000000
00001000
00010000
00000100
00010000
00001000
00100000
,
00010000
00000000
01000000
00100000
10000000
01000000
00100000
00010000
,
01000000
00000000
00001000
00010000
00100000
00000000
00010000
00001000
,
00000010
00000000
00000000
00000000
00000100
00000000
00001000
00000000
00000010
00000000
00000100
00000000
00000001
00000000
00000000
00000010
,
00000001
00002002
00000000
00000000
,
00000000
00000000
00000000
00000000
,
00000000
00000000
00000000
00000000
,
00000000
00000000
00000000
00003003
,
00000000
00000000
00000000
00001100
,
00010000
00001000
00100000
00110000
,
10000000
00100000
01000000
01010000
,
00001000
00010000
00000100
00001100
,
00000001
00000000
00000010
00000000
00000100
00000000
00001000
00000100
,
00010000
00000000
00001000
00100000
00010000
00000000
01000000
00001000
,
00010000
00000000
00000010
00010000
00001000
00000000
00100000
00010000
,
01000000
00100000
10000000
01000000
00100000
00000000
20020000
00000000
,
30030000
00000000
10000000
01000000
00020000
00000000
00031000
00100000
,
00001000
00000000
00010000
00000100
00000000
00001000
00000000
00001000
00000000
00000000
00000010
00000000
00000100
00000000
00000001
00000000
,
00000100
00000000
00000010
00001000
00000000
00000100
00000000
00000100
00000000
00000000
00010000
00000000
00001000
00000000
00100000
00000000
,
00001000
00000000
00010000
00000100
00000000
00001000
00000000
00001000
00000000
00000000
00000010
00000000
00010000
00000000
00001000
01000000
,
00000000
01000000
00000000
00000000
00010000
00000000
10000000
00100000
00000000
00100000
00000000
00000000
10000000
00000000
01000000
00000000
,
10000000
00000000
00010000
00100000
00000000
01000000
00000000
01000000
00000000
00000000
00100000
00000000
00001000
00000000
00010000
00000000
,
00000100
00000000
00010000
00001000
00000000
00001000
00000000
00100000
00000000
00000000
00001000
00000000
00010000
00000000
00000010
00000000
,
00001000
00000000
00000010
00000100
00000000
00000100
00000000
00000001
00000000
00000000
00000010
00000000
00000220
00000000
00000000
00000000
,
00000330
00000000
00000000
00000000
00000001
00000000
00001000
00000001
00002000
00000000
00000000
00000000
00003010
00000000
00000100
00000000
,
00000001
00000000
00000100
00000000
00000010
00000100
00000010
00000000
00001000
00000000
00000000
00000000
00000100
00000000
00010000
00000000
,
00001000
00000000
00010000
00000000
00001000
00100000
00001000
00000000
00100000
00000000
00000000
00000000
00010000
00000000
01000000
00000000
,
00100000
00000000
01000000
00000000
00100000
10000000
00100000
00000000
10000000
00000000
00000000
00000000
01000000
00000000
00100000
00000000
,
00010000
00000000
00100000
00000000
00001000
00010000
00001000
00000000
00010000
00000000
00000000
00000000
00000100
00000000
00001000
00000000
,
00000010
00000000
00000000
00000010
00000100
00000000
00000001
00000000
00001000
00000000
00000000
00001000
00000100
00000000
00010000
00000000
,
00001000
00000000
00000000
00001000
00100000
00000000
00010000
00000000
01000000
00000000
00000000
00000000
00100000
00000000
10000000
00000000
,
01000000
10000000
00010000
10000000
00100000
10000000
02000000
00000000
,
03020000
00000000
00031000
00001000
00011000
00000000
00001000
00000010
,
00000001
00000100
00000001
00000010
00001000
00010000
00100000
10000000
,
01000000
10000000
00100000
00010000
00001000
00000010
00000100
00000010
,
00001000
00010000
00100000
01000000
00100000
00010000
00001000
00000100
,
00000010
00000100
00001000
00000000
00010000
01000000
10000000
01000000
,
00010000
00001000
00100000
00001000
00010000
00000100
00010000
00001000
,
00000010
00000001
00000010
00000100
00001000
00000001
00000100
00000010
,
00000100
00001000
00010000
00001000
00010000
00100000
01000000
00100000
,
10000000
00000000
00010000
00000000
10000000
00000000
01000000
00100000
00020000
00000000
00000000
00000000
00000000
00000000
00000000
00000000
,
00000000
00000000
00030000
00000000
;

//--------------- dance-double - forcednature ----------------
#NOTEDATA:;
#STEPSTYPE:dance-double;
#DESCRIPTION:forcednature;
#CREDIT:forcednature;
#DIFFICULTY:Hard;
#METER:16;
#RADARVALUES:0,0,0,0,0;
#NOTES:
00000000
00000000
00000000
00000000
,
00000000
00000000
00000000
00000000
,
00000000
00000000
00000000
00000000
,
00000000
00000000
00000000
00000000
,
00000000
00000000
00000000
00000000
,
00000000
00000000
00000000
00000000
,
00000000
00000000
00000000
00000000
,
00000000
00000000
00000000
00000000
,
00000000
00000000
00000000
00000000
,
00000000
00000000
00000000
00000000
,
00000000
00000000
00000000
00000000
,
00011000
00000000
00010000
00100000
00000000
10000000
00100000
00000000
,
01000000
00010000
00000000
10000000
01000000
00100000
01000000
00010000
,
00001000
00000000
00000010
00000100
00000000
00000010
00000001
00000000
,
00000100
00000001
00000000
00001000
00000010
00010000
00001000
00100000
,
00020000
01000000
10000000
00100000
,
00032000
00000100
00000001
00000010
,
00020000
00000000
00000000
00000000
,
00033000
00000000
00000000
00000000
01000000
00000000
00010000
01000000
00010000
00000000
10000000
00100000
00000000
01000000
00000000
00010000
,
00000000
00100000
00010000
00000000
00100000
00001000
00010000
00000000
00000100
00000000
00001000
00000000
00000010
00001000
00000010
00000000
,
00000100
00000000
00000001
00000000
00000010
00000000
00000100
00000010
00000100
00000000
00001000
00000100
00000000
00010000
00000000
00001000
,
00000000
00100000
00010000
00000000
01000000
00100000
00000000
01000000
00100000
00000000
10000000
00000000
01000000
00100000
00010000
00000000
,
01000000
00000000
00001000
00000000
00010000
00000000
00000100
00001000
00000100
00000000
00000010
00000001
00000000
00000100
00000000
00001000
,
00000000
00010000
00001000
00000000
00100000
00010000
00100000
00000000
01000000
00000000
10000000
00000000
00100000
01000000
00100000
00000000
,
01000000
00000000
00010000
00000000
00200000
00000000
00000000
00301000
00010000
00000000
00000100
00001000
00000100
00000010
00000000
00000010
,
00000100
00000000
00001000
00000000
00000001
00000100
00000000
00000010
00001000
00000000
00010000
01000000
00000000
00100000
10000000
00000000
,
01000000
00100000
01000000
00100000
00010000
00000000
10000000
00000000
01000000
00000000
00010000
00001000
00000000
00100000
00000000
00001000
,
00000000
00010000
00000100
00000000
00001000
00000010
00001000
00000000
00000001
00000000
00000100
00000000
00000010
00001000
00000100
00000000
,
00000020
00000000
00000000
00000000
00000031
00000000
00000100
00000000
00001000
00000000
00010000
00001000
00000000
00100000
00000000
00010000
,
00000000
01000000
00100000
00000000
10000000
01000000
10000000
00000000
00010000
00000000
00100000
00000000
00001000
00000000
00010000
00000010
,
00001000
00000000
00010100
00000000
00000010
00000000
00001000
00000000
00000010
00000000
00000001
00000100
00000000
00001000
00000000
00010000
,
00000000
00001000
01000000
00000000
00010000
00100000
01000000
00000000
10000000
00000000
01000000
00000000
00010000
00001000
00010000
00000000
,
00000020
00000000
00000000
00000000
00000130
00000000
00001000
00000000
00000100
00000001
00000000
00000001
00000010
00000100
00000010
00000100
,
00001000
00000000
00010000
00000000
00100000
00010000
01000000
00000000
01000000
00000000
00100000
10000000
01000000
00100000
00001000
00010000
,
00000100
00022000
00000000
00000000
,
00000000
00000000
00000000
00000000
,
00000000
00000000
00000000
00000000
,
00000000
00000000
00000000
00033000
,
00000000
00000000
00000000
00000000
00000000
00000000
00000000
00000000
00000000
00000000
00000000
00000000
00001000
00000010
00000000
00000000
,
00000010
00000001
00000000
00000000
00000001
00000100
00000000
00000000
00000100
00001000
00000000
00000000
00001000
00010000
00000000
00000000
,
00010000
00100000
00000000
00000000
00100000
10000000
00000000
00000000
10000000
01000000
00000000
00000000
01000000
00010000
00000000
00000000
,
00010000
00001000
00000000
00000000
00001000
00000010
00000000
00000000
00000010
00000001
00000000
00000000
00000001
00000100
00000000
00000000
,
00000100
00001000
00000000
00000000
00001000
00010000
00000000
00000000
00010000
00100000
00000000
00000000
00100000
00000000
10000000
00000000
,
00100000
10000000
01000000
00010000
00001000
00000010
00000001
00000100
,
00000001
00000000
00000100
00000000
00001000
00000000
00010000
00000000
01000000
00000000
10000000
00000000
00100000
10000000
00100000
10000000
,
00010000
01000000
00010000
01000000
00001000
00010000
00000010
00001000
00000002
00000000
00000000
00000000
00000200
00000000
00000000
00000000
,
00000303
00000000
00000000
00000000
00001000
00000010
00000100
00000001
00000010
00000100
00010000
00001000
00100000
00000000
00010000
00000000
,
01000000
00000000
10000000
01000000
00000000
00010000
00000000
00100000
00000000
00001000
00010000
00000100
00010000
00000000
00001000
00000000
,
00000010
00000000
00000001
00000100
00000000
00000001
00000000
00000010
00000000
00000100
00010000
00001000
00100000
00000000
00001000
00000000
,
00010000
00000000
01000000
00100000
00000000
00010000
00000000
01000000
00000000
00100000
10000000
01000000
10000000
00000000
00100000
00010000
,
00000000
00001000
00010000
00001000
01000000
00000000
00010000
00100000
00000000
00001000
00010000
00000010
00010000
00000000
00001000
00000000
,
00000100
00000000
00000001
00000010
00000000
00000100
00000000
00010000
00000000
00001000
00000010
00000001
00000010
00000000
00000100
00000000
,
00010000
00000000
00001000
01000000
00000000
00010000
00000000
00100000
00000000
10000000
00100000
00010000
00100000
00000000
01000000
00000000
,
10000000
00000000
00100000
01000000
00000000
00001000
00000000
00010000
00000000
00000010
00000100
00001000
00000200
00000000
00000000
00000000
,
00000000
00000000
00000300
00000000
00000001
00000010
00000100
00010000
00002000
00000000
00000000
00000000
00013000
00000000
01000000
00100000
,
01000000
10000000
00000000
00100000
10000000
00000000
00100000
01000000
00010000
00100000
00001000
00000000
00010000
00000100
00010000
00001000
,
00100000
00000000
00001000
00000000
00010000
00000010
00001000
00000010
00010000
00000000
00001000
00000000
00000010
00000000
00000001
00001000
,
00000100
00000010
00000000
00000001
00000100
00000000
00001000
00010000
00001000
00100000
00010000
00000000
01000000
10000000
01000000
00010000
,
01000000
00000000
00100000
00000000
10000000
01000000
10000000
01000000
10000000
00100000
01000000
00010000
00100000
00000000
01000000
00010000
,
00001000
00010000
00000000
00001000
00000010
00000000
00000001
00000010
00000001
00000100
00000000
00000010
00001000
00000000
00000100
00010000
,
00001000
00010000
00000000
00100000
01000000
00000000
00010000
01000000
00010000
10000000
00000000
01000000
00010000
00000000
00001000
00100000
,
00001000
00010000
00000000
00000100
00001000
00000000
00000010
00000100
00001000
00000100
00000000
00000001
00001000
00000000
00000100
00010000
,
00001000
00000000
01000000
00001000
00010000
00000000
00200000
00300000
10010000
00000000
00010000
00100000
01000000
00000000
00010000
00001000
,
00000000
00000010
00000000
00000100
00000000
00001000
00000010
00001000
00000010
00000000
00000100
00000001
00001000
00000010
00000100
00001000
,
00010000
00000000
00100000
01000000
00010000
01000000
00100000
10000000
01000000
00000000
00100000
01000000
00010000
00000000
00001000
00010000
,
00000000
00001000
00000000
00000010
00000000
00000001
00001000
00000100
00001000
00000000
00000010
00000100
00000001
00000100
00000010
00001000
,
00000100
00000000
00000010
00001000
00010000
00001000
00010000
00000100
00001000
00000000
00000010
00000100
00001000
00000000
00010000
00100000
,
00000000
01000000
00000000
00010000
00000000
10000000
01000000
10000000
00010000
00000000
00100000
01000000
00000000
00100000
00001000
00010000
,
00000100
00010000
00001000
00000010
00000100
00000010
00000001
00001000
00000010
00000000
00000100
00000001
00001000
00000100
00010000
00001000
,
00100000
00000000
01000000
10000000
00010000
01000000
00010000
10000000
00100000
00000000
01000000
00010000
00100000
00001000
00010000
00000100
,
00001000
00000000
00000010
00000100
00000001
00000010
00000100
00010000
00002000
00000000
00000000
00000000
00000000
00000000
00000000
00000000
,
00000000
00000000
00003000
00000000
;
