#VERSION:0.83;
#TITLE:Petite Queen;
#SUBTITLE:;
#ARTIST:BEMANI Sound Team "HuΣeR" feat.ゆきまめ;
#TITLETRANSLIT:;
#SUBTITLETRANSLIT:;
#ARTISTTRANSLIT:HuΣeR feat. Yukimame;
#GENRE:;
#CREDIT:;
#MUSIC:Petite Queen.ogg;
#BANNER:Petite Queen.png;
#BACKGROUND:Petite Queen-bg.png;
#CDTITLE:./CDTitles/NOSTALGIA Op.3.png;
#SAMPLESTART:14.724;
#SAMPLELENGTH:15.000;
#SELECTABLE:YES;
#OFFSET:1.099;
#BPMS:0.000=150.000
,22.000=125.000
,25.000=100.000
,29.000=150.000
,97.000=140.000
,98.000=130.000
,99.000=110.000
,100.000=75.000
,101.000=150.000
,145.000=140.000
,146.000=130.000
,147.000=110.000
,148.000=75.000
,149.000=150.000
,201.000=152.000
,205.000=154.000
,209.000=156.000
,213.000=158.000
,293.000=155.000
,297.000=150.000
,305.000=140.000
,306.000=130.000
,307.000=110.000
,308.000=85.000
,309.000=150.000
;
#STOPS:;
#TIMESIGNATURES:0.000=4=4,
24.000=5=4,
29.000=4=4
;
#BGCHANGES:0.000=../BGAs/22wh.mp4=1.000=0=0=0=StretchNoLoop====,
99999.000=-nosongbg-=1.000=0=0=0=StretchNoLoop====
;
#FGCHANGES:;

//--------------- dance-single - forcednature ----------------
#NOTEDATA:;
#STEPSTYPE:dance-single;
#DESCRIPTION:forcednature;
#DIFFICULTY:Beginner;
#METER:3;
#RADARVALUES:0,0,0,0,0;
#CREDIT:forcednature;
#NOTES:
0000
0000
0000
0000
,
0000
0000
0000
0000
,
0000
0000
0000
0000
,
0000
0000
0000
0000
,
0000
0000
0000
0000
,
0000
0000
0001
0000
,
0000
0100
0000
0000
,
0010
0000
0000
0000
,
0000
0000
0000
0000
,
0000
1000
0000
0000
,
0000
1000
0000
0000
,
0000
0100
0000
0000
,
0000
1000
0000
0000
,
0000
0001
0000
0000
,
0000
0001
0000
0000
,
0000
0010
0000
0000
,
0000
0001
0000
0000
,
0000
0100
0000
0000
,
0000
0000
0000
0000
,
0000
0010
0000
0000
,
0000
0000
0000
0000
,
0000
0100
0000
0000
,
0000
0000
0000
0000
,
0000
0001
0000
0000
,
0000
0010
0000
0000
,
0000
1001
0000
0000
,
0000
0001
0000
0000
,
0000
0100
0000
0100
,
0000
0100
0000
0000
,
0000
0010
0000
0000
,
0000
1000
0000
0000
,
0000
0100
0000
0100
,
0000
0100
0000
0000
,
0000
0110
0000
0000
,
0000
0001
0000
0001
,
0000
1000
0000
0010
,
0000
0100
0000
0001
,
1000
0000
0000
0000
,
0000
0000
0000
0000
,
0000
0000
0000
0000
,
0000
0000
0000
0000
,
0000
0000
0000
0000
,
0000
0000
0000
0000
,
0000
0000
0000
0000
,
0000
0000
0000
0000
,
0000
0001
0000
0001
,
0000
1000
1000
1000
,
0000
0001
0000
0001
,
0000
0100
0000
0010
,
0000
1000
0000
1000
,
0000
0001
0001
0001
,
0000
0010
0000
0100
,
0000
1000
0000
0001
,
0000
0100
0000
0010
,
0000
0110
0000
0000
,
0000
0001
0000
1000
,
0000
1001
0000
0000
,
0000
1000
0000
0100
,
0000
1001
0000
0000
,
0000
0001
0000
0010
,
0000
1001
0000
0000
,
0000
1000
0000
0010
,
0000
1000
1000
0010
,
0000
0100
0000
0001
,
0000
0100
0100
0001
,
0000
1000
0000
0100
,
0000
1000
0100
1000
,
0000
0001
0000
0010
,
0000
0001
0001
1000
,
0000
0010
0000
0100
,
0000
0001
0001
1000
,
0000
1001
0000
0110
,
0000
1000
0001
1001
,
0000
1000
0000
0100
,
0000
1000
0000
0010
,
0000
0100
0000
0001
,
0000
0010
0000
0100
,
1000
0000
0000
0000
,
0000
0010
0000
0000
;

//--------------- dance-single - forcednature ----------------
#NOTEDATA:;
#STEPSTYPE:dance-single;
#DESCRIPTION:forcednature;
#DIFFICULTY:Easy;
#METER:6;
#RADARVALUES:0,0,0,0,0;
#CREDIT:forcednature;
#NOTES:
0000
0000
0000
0000
,
0000
0000
0000
0000
,
0000
0000
0000
0000
,
0000
0000
0000
0000
,
0000
0000
0000
0000
,
0000
0000
1000
0000
,
0001
0000
0100
0000
,
0020
0000
0000
0000
,
0000
0000
0000
0030
,
0000
1000
0000
0001
,
0000
0100
0100
0001
,
0000
1000
0000
0001
,
0000
0010
0100
0110
,
0000
0001
0000
1000
,
0000
0100
0100
1000
,
0000
0001
0000
1000
,
0000
0010
0100
0110
,
0000
0002
0000
0000
,
0003
1000
0000
0100
,
0000
0020
0000
0000
,
0030
0001
0000
0100
,
0000
0020
0000
0000
,
0030
2000
0000
0000
,
3000
0001
0000
0100
,
0000
0010
0010
1000
,
0001
1001
0000
1000
,
0000
0100
0100
1000
,
0000
0010
0000
0100
,
0000
0001
0000
1000
,
0000
0100
0000
0010
,
0000
0001
0001
0010
,
0000
0100
0000
1000
,
0000
0001
0000
0100
,
0000
0010
0000
0110
,
0000
1000
0000
1001
,
0000
0001
0000
0010
,
0000
0001
0100
0010
,
1000
0001
0000
0000
,
0000
0001
0000
0100
,
0000
0010
0000
0000
,
0000
1000
1000
0001
,
0000
1000
0000
0000
,
0000
0100
0000
0010
,
0000
0001
0000
0001
,
0000
0100
0000
0000
,
0000
1001
0000
1000
,
0000
0010
0010
1000
,
0000
0001
0000
0100
,
0000
0001
0010
0010
,
0001
0100
0000
0010
,
0000
1000
1000
0001
,
0000
0010
0100
1000
,
0000
0100
0010
0001
,
0000
1001
0000
0100
,
0000
0001
0001
0010
,
0000
1001
0000
0100
,
0000
1000
1000
0010
,
0000
0110
0000
0001
,
0000
0010
0010
1000
,
0000
0110
0000
1001
,
0000
1000
1000
0001
,
0000
0100
0010
0100
,
0000
0010
1000
0001
,
0000
0010
0001
0010
,
0000
0100
1000
0001
,
0100
0010
1000
0010
,
0000
0100
0001
1000
,
0000
0100
1000
0010
,
1000
0001
0010
0001
,
0000
1001
0000
0110
,
0000
0001
1000
0100
,
1000
0010
0000
1001
,
0000
1000
0010
0100
,
0001
0010
0000
0110
,
0000
1000
0000
1001
,
0000
0001
0100
0001
,
0000
1000
0100
0010
,
0001
0000
0000
0000
,
0000
0200
0000
0000
,
0000
0000
0000
0000
,
0000
0300
0000
0000
;

//--------------- dance-single - forcednature ----------------
#NOTEDATA:;
#STEPSTYPE:dance-single;
#DESCRIPTION:forcednature;
#DIFFICULTY:Medium;
#METER:9;
#RADARVALUES:0,0,0,0,0;
#CREDIT:forcednature;
#NOTES:
0000
0000
0000
0000
,
0000
0000
0000
0000
,
0000
0000
0000
0000
,
0000
0000
0000
0000
,
0000
0000
0000
0000
,
0000
0000
0001
0100
,
0010
1000
0001
0000
,
2002
0000
0000
0000
,
0000
0000
0000
3003
,
0000
1000
0100
1000
,
1001
0001
0001
0010
,
0110
1000
0010
0100
,
0110
0000
0001
0000
1000
0001
1000
0000
,
0010
0110
0100
0001
,
2000
3010
0010
1000
,
0001
0020
0130
0020
,
0031
0000
1000
0001
1000
0000
0020
0000
,
0030
0000
2000
0000
0000
3000
0200
0000
,
0000
0300
0020
0000
0000
0030
0001
0000
,
0100
0010
1000
0200
,
0000
0300
0010
0000
0001
0000
0100
0000
,
0010
1001
0001
0010
,
0001
0100
0010
1000
,
0100
0110
1000
1001
,
0010
0101
0011
1010
,
0220
0330
0001
0000
0101
0000
1000
0000
,
1020
0130
0100
0001
,
1000
0200
1000
0010
,
1000
0320
0001
0100
,
0001
0130
0110
0001
,
2000
0000
3010
0000
0010
0000
0100
0001
,
0100
0002
0010
2003
,
0010
3002
0100
2003
,
3100
1001
0000
0011
,
0000
0101
0000
1010
,
0000
1000
0100
0001
,
0100
2000
3020
0032
,
0023
1030
1000
0001
,
0002
0003
0100
0001
,
0002
1003
0100
1000
,
0002
0000
0013
0000
0100
0010
0100
0000
,
0110
0001
0010
0001
,
0002
0000
0003
0000
0100
0000
0001
1000
,
0001
0020
1030
2000
,
3001
0002
0023
0230
,
0300
1001
1000
0001
,
0020
0130
0110
0001
,
0100
1001
1000
0010
,
0200
0000
0310
0000
1000
0001
1000
0000
,
0100
0110
0001
1000
,
0020
0000
0130
0000
0110
0000
0001
1000
,
0001
0020
0130
2000
,
3100
1001
0001
0200
,
0310
0000
1001
0000
1000
0000
0010
0100
,
0010
0000
1000
0000
1000
0000
0010
0100
,
0010
0000
1000
0000
0001
0000
0010
0100
,
0010
0001
0100
0010
,
0110
0000
0001
0000
1000
0000
0100
0010
,
0100
0000
1000
0000
1000
0000
0100
0010
,
0100
1000
0001
0100
,
0001
0000
0010
0100
0010
0000
0220
0000
,
0330
0000
1000
0000
0100
0000
1000
0001
,
1000
0000
0010
0000
0010
0000
1000
0001
,
1000
0100
0110
0001
,
1001
0010
0110
1000
,
1001
0000
0001
0000
0100
0000
0001
1000
,
0001
0000
0010
0000
0010
0000
0001
1000
,
0001
0200
0310
2000
,
3100
0110
1000
2002
,
3003
0002
0103
2000
,
3010
0110
1010
0202
,
0303
1100
0001
0011
,
1000
0000
0100
0010
0001
0010
0002
0000
,
0003
1001
0000
0011
,
0000
1001
0000
1010
,
0000
0101
1000
1100
,
0001
0200
0320
2030
,
3002
0003
0000
0000
,
0000
0020
0000
0000
,
0000
0000
0000
0000
,
0000
0030
0000
0000
;

//--------------- dance-single - forcednature ----------------
#NOTEDATA:;
#STEPSTYPE:dance-single;
#DESCRIPTION:forcednature;
#DIFFICULTY:Hard;
#METER:13;
#RADARVALUES:0,0,0,0,0;
#CREDIT:forcednature;
#NOTES:
0000
0000
0000
0000
,
0000
0000
0000
0000
,
0000
0000
0000
0000
,
0000
0000
0000
0000
,
0000
0000
0000
0000
,
0000
0000
0000
0000
0001
0000
0100
0010
,
1000
0001
0010
0100
1000
0000
0000
0000
,
0110
0000
0000
0000
0001
0000
0000
0000
1000
0000
0001
1000
0001
0000
1000
0001
,
1000
0000
0001
0000
0100
0010
0100
0000
0010
0100
0010
0000
0110
0000
0000
0000
,
0000
0000
0011
0000
1100
0000
0001
0010
,
1000
0000
1000
0010
0100
1000
0001
0010
,
1000
0000
0011
0000
1100
0000
0001
0010
,
1000
0000
0010
0001
0100
0010
0110
0000
,
1001
0000
1010
0000
0101
0000
1000
0010
,
0001
0000
0001
0010
0100
0001
1000
0010
,
0001
0010
1010
0000
1000
0100
1100
0000
,
0001
0010
0001
0100
0010
1000
0220
0000
,
0330
0000
2000
0000
0000
3100
0020
0000
,
0000
0000
0031
0100
0002
0000
0000
0000
0000
0000
1003
0000
0010
0000
0100
0000
,
0001
0010
0200
0000
2300
0000
3010
0100
,
0001
0000
0000
0010
0100
0000
0000
0100
1000
0000
0000
1000
0010
0000
0000
0000
,
0110
0000
0001
0100
0010
0100
0001
1000
,
0020
0000
1030
0100
0010
0100
1000
0001
,
0010
0000
0110
0000
0100
1000
1010
0000
,
0100
0001
0011
0000
0110
0000
1001
0000
,
0201
0000
0310
1000
0100
1000
0001
0010
,
1000
0000
0010
0001
0100
0001
0010
0100
,
0110
0000
0000
0001
0000
0001
0100
0000
0100
0010
0000
0010
,
1000
0000
1000
0001
0000
0010
0100
0000
1000
0001
0000
0100
,
0020
0000
1030
0100
0010
0100
1000
0010
,
0001
0000
0001
0010
0100
0001
1000
0010
,
0001
0000
0000
0010
0000
0000
0100
0000
0000
0000
0100
0000
0001
0000
0000
0000
0001
0000
1000
0000
0000
0000
1000
0000
,
0100
0000
0100
0010
0000
0001
0100
0000
0010
1000
0000
0100
,
0010
0000
0000
1001
0000
0000
0001
0100
0001
0100
0000
0010
,
1000
0000
0000
1001
0000
0000
1000
0100
1000
0100
0000
0010
,
0002
0000
0000
0103
0010
1000
0010
0000
0100
0001
0000
0010
,
0001
0000
1000
0010
0100
0001
0100
0000
0010
1000
0001
0010
,
0200
0000
0310
0000
0001
0000
1000
0010
,
0001
0000
0010
0100
0000
0001
1000
0010
,
0001
0000
0010
0000
0110
0000
1000
0010
,
0001
0000
0010
1000
0100
0001
0110
0000
,
1001
0000
0010
0000
1000
0000
0001
0010
,
1000
0000
0010
0100
0000
1000
0001
0100
,
0010
1000
0200
0000
1300
0010
0002
0000
,
1003
0100
0001
0010
0100
1000
0010
0000
,
0110
0000
0000
0000
0001
1000
0000
0000
0100
1000
0000
0000
0001
0000
0010
0000
,
1000
0000
1000
0010
0100
1000
0001
0010
,
1000
0000
0000
0000
0010
0001
0000
0000
0001
0100
0000
0000
0001
0000
0010
0000
,
1000
0000
0010
0100
1000
0010
0110
0000
,
1001
0000
0000
0000
1000
0010
0000
0000
1000
0100
0000
0000
1000
0000
0010
0000
,
0001
0000
0001
0010
0100
0001
1000
0010
,
0001
0000
0010
0000
0110
0000
0000
0100
0001
0000
0010
0000
0110
0000
0000
0100
,
1000
0000
0010
0000
0100
0000
0000
0001
0010
0000
0100
0000
0020
0000
0001
0000
,
0031
0000
0000
0000
1100
0000
0000
0000
1010
0000
0000
0000
0001
0000
0100
0010
,
0100
0000
0000
0000
0001
0000
1000
0000
0100
0000
1000
0000
0001
0000
0100
0010
,
0100
0000
0000
0000
0101
0000
0000
0000
0011
0000
0000
0000
0001
0000
0100
0010
,
0100
0000
0001
0010
0100
1000
1001
0000
,
0110
0000
0000
0000
0101
0000
0000
0000
0011
0000
0000
0000
1000
0000
0100
0010
,
0100
0000
0000
0000
1000
0000
0001
0000
0100
0000
0001
0000
1000
0000
0100
0010
,
0100
0010
0011
0000
0100
0010
1010
0000
,
0001
0000
0010
0001
0010
0000
0100
0000
0001
0000
0100
0000
2000
0000
0010
0000
,
3010
0000
0000
0000
1000
0100
0000
0000
0010
0100
0000
0000
1000
0000
0001
0000
,
0011
0000
1000
0100
0001
0100
1000
0001
,
1001
0000
0000
0000
0001
0100
0000
0000
0001
0010
0000
0000
0100
0000
1000
0000
,
1100
0000
0000
0000
0011
0000
0000
0000
0001
0000
0100
0000
0010
0000
1000
0010
,
1000
0000
0000
0000
0001
0100
0000
0000
0010
0100
0000
0000
0001
0000
1000
0000
,
1010
0000
0001
0100
1000
0100
0001
1000
,
1001
0000
0000
0000
2000
0100
0000
0000
3001
0000
0010
0000
0002
0100
0000
0000
,
1003
0000
0010
0000
1000
0000
0100
0000
0001
0000
0100
0000
0010
0000
0001
0010
,
0001
0000
0000
0000
0002
0100
0000
0000
1003
0000
0010
0000
2000
0100
0000
0000
,
3001
0000
0010
0000
0001
0000
0100
0000
1000
0000
0100
0000
0010
0000
1000
0010
,
1000
0000
0000
0000
0002
0010
0000
0000
1003
0000
0100
0000
2000
0010
0000
0000
,
3001
0000
0100
0000
0001
0010
0001
0000
1000
0010
1000
0000
0100
0000
0010
0000
,
0110
0000
0000
1001
0000
0000
1000
0000
1000
0100
0000
0100
,
0010
0000
0000
1001
0000
0000
0001
0000
0001
0100
0000
0100
,
0020
0000
0000
1030
0100
1000
0100
0010
0100
0010
0001
0010
,
0001
0000
0100
0010
1000
0001
0010
0001
1000
0010
0100
0001
,
0010
0100
1000
0000
0000
0000
0000
0000
0000
0000
0000
0000
,
0000
0000
0000
0010
0200
0000
0000
0000
0000
0000
0000
0000
0000
0000
0000
0000
,
0000
0000
0000
0000
,
0000
0300
0000
0000
;

//--------------- dance-double - forcednature ----------------
#NOTEDATA:;
#STEPSTYPE:dance-double;
#DESCRIPTION:forcednature;
#DIFFICULTY:Easy;
#METER:6;
#RADARVALUES:0,0,0,0,0;
#CREDIT:forcednature;
#NOTES:
00000000
00000000
00000000
00000000
,
00000000
00000000
00000000
00000000
,
00000000
00000000
00000000
00000000
,
00000000
00000000
00000000
00000000
,
00000000
00000000
00000000
00000000
,
00000000
00000000
00001000
00000000
,
00010000
00000000
00000100
00000000
,
00002000
00000000
00000000
00000000
,
00000000
00000000
00000000
00003000
,
00000000
00000010
00000000
00000100
,
00000000
00000001
00000001
00000100
,
00000000
00001000
00000000
00010000
,
00000000
00100000
01000000
01100000
,
00000000
00010000
00000000
10000000
,
00000000
01000000
01000000
00010000
,
00000000
00001000
00000000
00000010
,
00000000
00000100
00000010
00000110
,
00000000
00000002
00000000
00000000
,
00000003
00000100
00000000
00001000
,
00000000
00020000
00000000
00000000
,
00030000
00100000
00000000
10000000
,
00000000
02000000
00000000
00000000
,
03000000
00200000
00000000
00000000
,
00300000
00001000
00000000
00010000
,
00000000
00000100
00000100
00001000
,
00000010
00001001
00000000
00000001
,
00000000
00000100
00000100
00000000
,
00000000
00001000
00000000
00000100
,
00000000
00010000
00000000
00001000
,
00000000
01000000
00000000
00010000
,
00000000
10000000
10000000
00100000
,
00000000
10000000
00000000
01000000
,
00000000
00010000
00000000
00001000
,
00000000
00000010
00000000
00000110
,
00000000
00001000
00000000
00001001
,
00000000
00000001
00000000
00000100
,
00000000
00001000
00010000
00001000
,
00100000
00010000
00000000
00000000
,
00000000
01000000
00000000
00100000
,
00000000
10000000
00000000
00000000
,
00000000
01000000
01000000
00100000
,
00000000
00001000
00000000
00000000
,
00000000
00010000
00000000
00000100
,
00000000
00000010
00000000
00000010
,
00000000
00000001
00000000
00000000
,
00000000
00001001
00000000
00001000
,
00000000
00000010
00000010
00001000
,
00000000
00000100
00000000
00010000
,
00000000
00001000
00100000
00100000
,
00001000
00010000
00000000
00001000
,
00000000
01000000
01000000
00010000
,
00000000
10000000
00100000
01000000
,
00000000
00010000
00100000
00001000
,
00000000
00011000
00000000
00000100
,
00000000
00001000
00001000
00000010
,
00000000
00001001
00000000
00000001
,
00000000
00000100
00000100
00000010
,
00000000
00000110
00000000
00001000
,
00000000
00000100
00000100
00010000
,
00000000
00011000
00000000
00011000
,
00000000
00100000
00100000
00010000
,
00000000
01000000
00100000
01000000
,
00000000
00100000
10000000
00010000
,
00000000
00100000
00010000
00100000
,
00000000
00001000
00010000
00000100
,
00001000
00000010
00001000
00000010
,
00000000
00000100
00000001
00000010
,
00000000
00000100
00001000
00000010
,
00001000
00000100
00010000
00001000
,
00000000
00011000
00000000
00011000
,
00000000
00100000
00010000
10000000
,
00010000
00100000
00000000
00011000
,
00000000
00000010
00001000
00000010
,
00000100
00000001
00000000
00000110
,
00000000
00001000
00000000
00001001
,
00000000
00000001
00000010
00000001
,
00000000
00001000
00000100
00010000
,
00001000
00000000
00000000
00000000
,
00000000
00200000
00000000
00000000
,
00000000
00000000
00000000
00000000
,
00000000
00300000
00000000
00000000
;

//--------------- dance-double - forcednature ----------------
#NOTEDATA:;
#STEPSTYPE:dance-double;
#DESCRIPTION:forcednature;
#DIFFICULTY:Medium;
#METER:9;
#RADARVALUES:0,0,0,0,0;
#CREDIT:forcednature;
#NOTES:
00000000
00000000
00000000
00000000
,
00000000
00000000
00000000
00000000
,
00000000
00000000
00000000
00000000
,
00000000
00000000
00000000
00000000
,
00000000
00000000
00000000
00000000
,
00000000
00000000
00010000
00000100
,
00001000
00000010
00000100
00000000
,
00002002
00000000
00000000
00000000
,
00000000
00000000
00000000
00003003
,
00000000
00000001
00000100
00000001
,
00001001
00001000
00001000
00000100
,
00011000
00100000
00010000
01000000
,
01100000
00000000
00010000
00000000
10000000
00010000
10000000
00000000
,
00100000
01100000
01000000
00010000
,
00200000
00301000
00001000
00010000
,
00000100
00002000
00003010
00002000
,
00003001
00000000
00000100
00000001
00000100
00000000
00000020
00000000
,
00000030
00000000
00002000
00000000
00000000
00003000
00000200
00000000
,
00000000
00000300
00020000
00000000
00000000
00030000
00001000
00000000
,
01000000
00010000
10000000
00200000
,
00000000
00300000
01000000
00000000
00010000
00000000
10000000
00000000
,
00010000
10010000
00001000
00010000
,
00000100
00001000
00000010
00000100
,
00000001
00001001
00000100
00000110
,
00001000
00011000
00100000
10010000
,
02200000
03300000
00010000
00000000
01010000
00000000
10000000
00000000
,
10200000
01300000
01000000
00010000
,
00100000
00002000
01000000
00010000
,
01000000
00023000
00000100
00001000
,
00030100
00010000
00011000
00000010
,
00002000
00000000
00003100
00000000
00000100
00000000
00001000
00000001
,
00001000
00000020
00000100
00002030
,
00000100
00003002
00000010
00002003
,
00003100
00011000
00000000
00101000
,
00000000
01010000
00000000
10100000
,
00000000
10000000
01000000
00010000
,
00001000
00200000
00320000
00032000
,
00003200
00000310
00000010
00000001
,
00000200
00000300
00001000
00010000
,
00020000
00130000
10000000
00100000
,
00020000
00000000
00031000
00000000
00010000
00001000
00010000
00000000
,
00011000
00000100
00001000
00000010
,
00000200
00000000
00000300
00000000
00000001
00000000
00001000
00000001
,
00001000
00000200
00010300
00002000
,
00103000
00020000
02030000
03200000
,
00300000
10010000
10000000
00010000
,
00200000
00301000
00011000
00000100
,
00001000
00000110
00000001
00000010
,
00000200
00000000
00000310
00000000
00000001
00001000
00000001
00000000
,
00000100
00000110
00001000
00000100
,
00020000
00000000
00031000
00000000
00011000
00000000
00100000
00010000
,
00100000
02000000
13000000
02000000
,
03100000
10010000
00010000
02000000
,
03001000
00000000
00011000
00000000
00000100
00000000
00001000
00000100
,
00001000
00000000
00000010
00000000
00000010
00000000
00000100
00000001
,
00000100
00000000
00001000
00000000
00010000
00000000
00001000
01000000
,
00001000
01000000
00010000
00100000
,
01100000
00000000
00010000
00000000
00100000
00000000
00001000
00010000
,
00001000
00000000
00010000
00000000
00010000
00000000
00000100
00001000
,
00000100
00001000
00000010
00000100
,
00000001
00000000
00000010
00000001
00000010
00000000
00000220
00000000
,
00000330
00000000
00001000
00000000
00000100
00000000
00010000
00001000
,
00010000
00000000
00001000
00000000
00001000
00000000
00100000
00010000
,
00100000
01000000
01100000
10000000
,
10010000
00100000
01100000
00010000
,
00011000
00000000
00001000
00000000
00000010
00000000
00000100
00001000
,
00000100
00000000
00010000
00000000
00010000
00000000
00001000
00100000
,
00001000
02000000
03010000
20000000
,
30100000
01100000
00010000
00022000
,
00033000
00000200
00001300
00000020
,
00000130
00000110
00000101
00002020
,
00003030
00010100
00010000
00011000
,
00100000
00000000
00010000
01000000
00100000
01000000
00200000
00000000
,
00300000
10010000
00000000
00110000
,
00000000
00011000
00000000
00001010
,
00000000
00000101
00000001
00001100
,
00001000
00000020
00020030
00032000
,
02003000
03000000
00000000
00000000
,
00000000
00200000
00000000
00000000
,
00000000
00000000
00000000
00000000
,
00000000
00300000
00000000
00000000
;

//--------------- dance-double - forcednature ----------------
#NOTEDATA:;
#STEPSTYPE:dance-double;
#DESCRIPTION:forcednature;
#DIFFICULTY:Hard;
#METER:13;
#RADARVALUES:0,0,0,0,0;
#CREDIT:forcednature;
#NOTES:
00000000
00000000
00000000
00000000
,
00000000
00000000
00000000
00000000
,
00000000
00000000
00000000
00000000
,
00000000
00000000
00000000
00000000
,
00000000
00000000
00000000
00000000
,
00000000
00000000
00000000
00000000
00001000
00000000
00010000
00001000
,
00100000
00010000
01000000
00100000
10000000
00000000
00000000
00000000
,
00110000
00000000
00000000
00000000
00001000
00000000
00000000
00000000
00010000
00000000
00001000
00010000
00001000
00000000
00010000
00001000
,
00010000
00000000
00001000
00000000
00010000
00001000
00010000
00000000
00001000
00010000
00001000
00000000
00011000
00000000
00000000
00000000
,
00000000
00000000
00011000
00000000
00010010
00000000
00000010
00000100
,
00001000
00000000
00001000
00010000
00000100
00001000
00000010
00000100
,
00001000
00000000
00011000
00000000
00010010
00000000
00000010
00000100
,
00001000
00000000
00011000
00000000
00100000
00010000
01000000
00000000
,
01001000
00000000
00011000
00000000
00101000
00000000
00100000
01000000
,
00010000
00000000
00010000
00001000
01000000
00010000
00100000
01000000
,
00010000
00001000
00011000
00000000
00000010
00001000
00001010
00000000
,
00000001
00000100
00000010
00010000
00001000
01000000
00200000
00000000
,
00300000
00000000
20000000
00000000
00000000
31000000
00020000
00000000
,
00000000
00030000
00001000
00010000
00002000
00000000
00000000
00000000
00000000
00000000
00003010
00000000
00000100
00000000
00001000
00000000
,
00000001
00000100
00002000
00000000
00023000
00000000
00130000
10000000
,
01000000
00000000
00000000
01000000
00010000
00000000
00000000
00010000
00001000
00000000
00000000
00001000
00100000
00000000
00000000
00000000
,
01100000
00000000
01000000
10000000
00100000
01000000
00001000
00010000
,
00000020
00000000
00000130
00001000
00000100
00000001
00000010
00000100
,
00010000
00000000
00011000
00000000
00100000
00010000
01010000
00000000
,
00100000
10000000
11000000
00000000
00110000
00000000
00011000
00000000
,
00010020
00000000
00000031
00000010
00001000
00000100
00000010
00001000
,
00010000
00000000
01000000
10000000
00100000
01000000
10000000
01000000
,
00010000
00000000
00000000
00100000
00000000
00100000
00001000
00000000
00001000
00010000
00000000
00010000
,
00000100
00000000
00000100
00001000
00000000
00000010
00000100
00000000
00000001
00001000
00000000
00000100
,
00000020
00000000
00001030
00000010
00000100
00010000
00001000
00100000
,
01000000
00000000
00010000
01000000
10000000
00100000
00010000
00100000
,
10000000
00000000
00000000
01000000
00000000
00000000
00010000
00000000
00000000
00000000
00010000
00000000
00001000
00000000
00000000
00000000
00001000
00000000
00000100
00000000
00000000
00000000
00000100
00000000
,
00000001
00000000
00000001
00000010
00000000
00000100
00010000
00000000
00001000
00100000
00000000
00010000
,
01000000
00000000
00000000
10010000
00000000
00000000
00010000
01000000
00010000
01000000
00000000
00001000
,
00010000
00000000
00000000
00011000
00000000
00000000
00000100
00001000
00000100
00001000
00000000
00000010
,
00000200
00000000
00000000
00000301
00000010
00000001
00001000
00000000
00000100
00010000
00000000
00001000
,
00100000
00000000
00010000
01000000
00100000
10000000
01000000
00000000
00100000
00001000
00010000
00000100
,
00000020
00000000
00000031
00000000
00000100
00000000
00001000
00010000
,
00100000
00000000
10000000
01000000
00000000
00010000
00001000
00010000
,
00100000
00000000
01000000
00000000
01100000
00000000
00001000
00010000
,
00100000
00000000
10100000
00000000
10000000
01000000
00010000
00000000
,
00011000
00000000
00010000
00000000
00001000
00000000
00000010
00000100
,
00010000
00000000
00001000
00000010
00000000
00000001
00000010
00000100
,
00010000
00001000
00200000
00000000
01300000
10000000
00200000
00000000
,
01300000
00001000
00010000
00100000
00010000
00001000
00000010
00000000
,
00000110
00000000
00000000
00000000
00000001
00000100
00000000
00000000
00000010
00010000
00000000
00000000
00001000
00000000
00100000
00000000
,
01000000
00000000
01000000
10000000
00100000
00010000
00001000
00100000
,
01000000
00000000
00000000
00000000
00100000
00010000
00000000
00000000
00010000
01000000
00000000
00000000
00001000
00000000
00100000
00000000
,
01000000
00000000
00100000
00001000
00010000
00000100
00010100
00000000
,
00001010
00000000
00000000
00000000
00010000
00001000
00000000
00000000
00100000
00010000
00000000
00000000
10000000
00000000
00100000
00000000
,
00010000
00000000
00010000
00100000
01000000
00010000
10000000
00100000
,
00010000
00000000
00001000
00000000
00011000
00000000
00000000
00000100
00001000
00000000
00000010
00000000
00000110
00000000
00000000
00000100
,
00000001
00000000
00000010
00000000
00000001
00000000
00000000
00000100
00001000
00000000
00010000
00000000
00011000
00000000
00000000
00000000
,
00100000
00000000
00000000
00000000
00110000
00000000
00000000
00000000
01010000
00000000
00000000
00000000
00001000
00000000
00010000
00000100
,
00001000
00000000
00000000
00000000
00000010
00000000
00000100
00000000
00000001
00000000
00000010
00000000
00001000
00000000
00010000
00000100
,
00001000
00000000
00000000
00000000
00010010
00000000
00000000
00000000
00101000
00000000
00000000
00000000
00001000
00000000
00010000
00000100
,
00001000
00000000
00000001
00000010
00000100
00001000
00001100
00000000
,
00010100
00000000
00000000
00000000
00101000
00000000
00000000
00000000
00110000
00000000
00000000
00000000
00001000
00000000
00010000
00001000
,
01000000
00000000
00000000
00000000
00010000
00000000
10000000
00000000
01000000
00000000
00100000
00000000
00001000
00000000
00010000
00001000
,
01000000
00010000
01010000
00000000
10000000
00100000
10100000
00000000
,
00010000
00000000
00100000
00010000
00100000
00000000
00001000
00000000
00010000
00000000
00000100
00000000
00000020
00000000
00000100
00000000
,
00000130
00000000
00000000
00000000
00000010
00000001
00000000
00000000
00000100
00000010
00000000
00000000
00001000
00000000
00000100
00000000
,
00010100
00000000
00010000
00000010
00000100
00000001
00001000
00000100
,
00010100
00000000
00000000
00000000
00010000
00001000
00000000
00000000
01000000
00010000
00000000
00000000
10000000
00000000
00100000
00000000
,
01100000
00000000
00000000
00000000
01010000
00000000
00000000
00000000
00010000
00000000
00100000
00000000
00001000
00000000
00010000
00001000
,
00010000
00000000
00000000
00000000
00000100
00001000
00000000
00000000
00000010
00001000
00000000
00000000
00000001
00000000
00000010
00000000
,
00000110
00000000
00000100
00010000
00001000
00000010
00000001
00000010
,
00000110
00000000
00000000
00000000
00000002
00000100
00000000
00000000
00001003
00000000
00000010
00000000
00020000
00001000
00000000
00000000
,
00030100
00000000
00001000
00000000
00000010
00000000
00000100
00000000
00001000
00000000
00010000
00000000
00100000
00000000
10000000
00100000
,
10000000
00000000
00000000
00000000
00020000
01000000
00000000
00000000
10030000
00000000
00100000
00000000
20000000
01000000
00000000
00000000
,
30010000
00000000
00100000
00000000
01000000
00000000
00010000
00000000
00001000
00000000
00000010
00000000
00000100
00000000
00001000
00000100
,
00001000
00000000
00000000
00000000
00000020
00001000
00000000
00000000
00010030
00000000
00001000
00000000
00200000
00010000
00000000
00000000
,
00301000
00000000
00010000
00000000
00000100
00001000
00000100
00000000
00000010
00000100
00000010
00000000
00000001
00000000
00000100
00000000
,
00000101
00000000
00000000
00001010
00000000
00000000
00010000
00000000
00010000
00001000
00000000
00001000
,
00100000
00000000
00000000
00110000
00000000
00000000
00010000
00000000
00010000
10000000
00000000
10000000
,
00200000
00000000
00000000
01300000
00010000
01000000
00010000
00000000
00100000
00010000
00100000
00001000
,
00010000
00000000
00000100
00001000
00000010
00000100
00000001
00000010
00000100
00001000
00000100
00010000
,
00001000
00100000
01000000
00000000
00000000
00000000
00000000
00000000
00000000
00000000
00000000
00000000
,
00000000
00000000
00000000
10000000
00020000
00000000
00000000
00000000
00000000
00000000
00000000
00000000
00000000
00000000
00000000
00000000
,
00000000
00000000
00000000
00000000
,
00000000
00030000
00000000
00000000
;
