#VERSION:0.83;
#TITLE:PAPAYAPA BASS;
#SUBTITLE:;
#ARTIST:かめりあ feat. ななひら;
#TITLETRANSLIT:;
#SUBTITLETRANSLIT:;
#ARTISTTRANSLIT:Camellia feat. Nanahira;
#GENRE:MONDO-GROOVE BASSHOUSE;
#CREDIT:;
#MUSIC:PAPAYAPA BASS.ogg;
#BANNER:PAPAYAPA BASS.png;
#BACKGROUND:PAPAYAPA BASS-bg.png;
#CDTITLE:./CDTitles/bm IIDX 24 SINOBUZ.png;
#SAMPLESTART:14.047;
#SAMPLELENGTH:15.000;
#SELECTABLE:YES;
#OFFSET:-0.013;
#BPMS:0.000=147.000;
#STOPS:;
#TIMESIGNATURES:0.000=4=4;
#BGCHANGES:0.000=PAPAYAPA BASS.mp4=1.000=0=0=0=StretchNoLoop====,
99999.000=-nosongbg-=1.000=0=0=0=StretchNoLoop====
;
#FGCHANGES:;

//--------------- dance-single - forcednature ----------------
#NOTEDATA:;
#STEPSTYPE:dance-single;
#DESCRIPTION:forcednature;
#DIFFICULTY:Beginner;
#METER:3;
#RADARVALUES:0,0,0,0,0;
#CREDIT:forcednature;
#NOTES:
0000
0000
0000
0000
,
0000
0000
0000
0000
,
0000
0000
0000
0000
,
0000
0000
0000
0000
,
0000
0000
0000
0000
,
0001
0000
0000
0000
,
1000
0000
0000
0000
,
0010
0000
0010
0000
,
0100
0000
0000
0000
,
0110
0000
0000
0000
,
0000
0000
0001
0000
,
1000
0000
0000
0000
,
0100
0000
0000
0000
,
0110
0000
0000
0000
,
0000
0000
1000
0000
,
0001
0000
0000
0000
,
0100
0100
0000
0000
,
0010
0000
0000
0000
,
0010
0000
0000
0000
,
1000
0000
0000
0000
,
0001
0000
0001
0000
,
0100
0000
0000
0000
,
0001
0000
0000
0000
,
1000
0000
1000
0000
,
0010
0000
0000
0000
,
1001
0000
0000
0000
,
0001
0000
0000
0000
,
0010
0000
0000
0000
,
0100
0000
0100
0000
,
1000
0000
0000
0000
,
0100
0000
0000
0000
,
0010
0000
0010
0000
,
0001
0000
0000
0000
,
1001
0000
0000
0000
,
0000
0000
0000
0000
,
1000
0000
0000
0000
,
0000
0000
0000
0000
,
0010
0000
0000
0000
,
0000
0000
0000
0000
,
0100
0000
0000
0000
,
0001
0000
0000
0000
,
1001
0000
0000
0000
,
0000
0000
0000
0000
,
1000
0000
0000
0000
,
1000
0000
0000
0000
,
0001
0000
0000
0000
,
0001
0000
0000
0000
,
0100
0000
0000
0000
,
0010
0000
0010
0000
,
0110
0000
0000
0000
,
1001
0000
0000
0000
,
0000
0000
0001
0000
,
1000
0000
0000
0000
,
0100
0000
0000
0000
,
0110
0000
0000
0000
,
0000
0000
1000
0000
,
0001
0000
0000
0000
,
0100
0000
0010
0000
,
1001
0000
0000
0000
,
0000
0000
0001
0000
,
1000
0000
0000
0000
,
0100
0000
0000
0000
,
0110
0000
0000
0000
,
0000
0000
1000
0000
,
0001
0000
0000
0000
,
0100
0000
0010
0000
,
0110
0000
0000
0000
,
0001
0000
0001
0000
,
1000
0000
0000
0000
,
0100
0000
1000
0000
,
0100
0000
0000
0000
,
1000
0000
1000
0000
,
0010
0000
0000
0000
,
0100
0000
1001
0000
;

//--------------- dance-single - forcednature ----------------
#NOTEDATA:;
#STEPSTYPE:dance-single;
#DESCRIPTION:forcednature;
#DIFFICULTY:Easy;
#METER:7;
#RADARVALUES:0,0,0,0,0;
#CREDIT:forcednature;
#NOTES:
0000
0000
0000
0000
,
0000
0000
0000
0000
,
0000
0000
0000
0000
,
0000
0000
0000
0000
,
0000
0000
0000
0000
,
1000
1000
0100
1000
,
0001
0001
0100
0001
,
0010
0100
0100
0010
,
0220
0000
0330
0000
,
1001
0001
0100
0010
,
1000
0000
1000
0001
0000
0000
0000
0000
,
1000
0100
1000
0001
,
0100
0000
0100
0020
0000
0000
0030
0000
,
1000
0001
0100
0001
,
0010
0000
0010
0100
0000
0000
1000
0000
,
2002
0000
3003
0000
,
0010
0220
0000
0330
,
0001
1000
1000
0100
,
1000
0001
0010
0000
,
0001
1000
1000
0100
,
2000
3020
0230
0302
,
0003
0001
0001
0100
,
0001
1000
0010
0000
,
0220
0330
0001
1000
,
2002
3003
0100
0010
,
0110
0000
1000
1000
,
0100
1000
0001
0010
,
0100
0000
0010
0010
,
0002
0203
0320
2030
,
3000
0001
0001
1000
,
0100
1000
0001
0000
,
0010
0010
0100
0010
,
0001
0001
1000
0010
,
0000
0100
0100
0000
,
0001
0000
1000
0000
,
0000
0100
0100
0000
,
1000
0000
0001
0000
,
0000
0010
0010
0000
,
0001
0000
1000
0000
,
0010
0010
0100
0010
,
2000
0000
0000
3000
,
1001
0000
0001
0001
,
0100
0001
1000
0001
,
1000
0000
0100
0100
,
1000
1000
0001
0010
,
0100
0000
0010
0010
,
0001
0001
1000
0010
,
0000
1000
0001
0000
0001
0000
0100
0000
,
0000
0001
1000
0000
1000
0000
0100
0000
,
0220
0000
0330
0000
,
0001
0100
0001
1000
,
0001
1000
0001
0000
0010
0000
0000
0000
,
0100
1000
0010
1000
,
0010
0000
0010
0200
0000
0000
0300
0000
,
0001
0000
1000
0000
0100
1000
0100
0000
,
0010
0001
1000
0000
,
0010
0100
0001
0100
,
0110
0000
1000
0001
2000
0000
0000
0000
,
3100
0000
1000
0100
1000
0000
0010
0000
,
0100
0000
0010
0100
0010
0000
0000
0000
,
0100
0000
0001
0100
0001
0000
0010
0000
,
0001
0000
0001
2000
0000
0000
3000
0000
,
0110
0000
0001
1000
,
1001
0000
1000
0001
,
1001
0100
0010
0100
,
0110
2002
0000
3003
,
1001
0001
0100
0001
,
1000
0010
0000
0010
1000
0000
0001
0000
,
1000
0100
1000
0001
,
0020
0230
2300
3002
,
0003
1001
1000
0010
,
1000
0001
0000
0001
1000
0000
0010
0000
,
0110
0000
0000
0000
0001
1000
0001
0000
,
2002
0000
0000
0000
3003
0000
0000
0000
0100
0000
0000
0020
0000
0000
0000
0000
,
0030
0000
0000
0000
;

//--------------- dance-single - forcednature ----------------
#NOTEDATA:;
#STEPSTYPE:dance-single;
#DESCRIPTION:forcednature;
#DIFFICULTY:Medium;
#METER:10;
#RADARVALUES:0,0,0,0,0;
#CREDIT:forcednature;
#NOTES:
0000
0000
0000
0000
,
0000
0000
0000
0000
,
0000
0000
0000
0000
,
0000
0000
0000
0000
,
0000
0000
0000
0000
,
1001
0000
0000
0000
1000
0000
0000
0000
0010
0000
0000
0010
0000
0000
0100
0000
,
0001
0000
0000
0000
1000
0000
0000
0000
0100
0000
0000
0100
0000
0000
1000
0000
,
0001
0000
0010
0001
0010
0000
0100
1000
,
0200
0000
0000
0000
0300
1000
0001
0000
,
1001
0000
1000
0000
0010
0100
0001
0000
,
0010
0100
0000
0100
0000
0010
0001
0000
,
1001
0000
0001
1000
0001
0000
0100
0000
,
0010
0000
0000
0010
0000
0000
2000
0000
0000
0000
3000
0000
0001
0000
1000
0000
,
0001
0000
0000
0000
0001
0000
0010
0000
0100
0000
0000
0100
0000
0000
0010
0000
,
0001
0000
0000
0000
1000
0000
0010
0000
0100
0000
0000
0100
0000
0000
0001
0000
,
2000
0000
0000
0000
3100
0010
0100
0010
,
0001
2002
0000
3003
,
1100
1100
0101
1100
,
0000
0001
0010
0000
0001
1000
0001
0000
,
0101
0101
1100
0101
,
2000
3002
0203
0310
,
1001
1001
1100
1001
,
0001
0010
0100
0000
0010
0001
1000
0000
,
1020
0000
0100
0000
1000
1000
1030
0000
,
0201
0000
0000
0000
0010
0000
0000
0000
0301
0000
0000
1000
0000
0000
0000
0000
,
1100
1100
1010
1100
,
0000
0001
0001
0000
0010
0001
0100
0000
,
0110
0110
0101
1010
,
0002
2003
3200
0310
,
1001
0000
0000
0000
0001
0000
1000
0000
0010
0000
0000
0010
0000
0000
1000
0000
,
0001
0000
1000
0001
0010
0000
0200
0000
,
0310
0001
0010
0000
0100
1000
0100
0000
,
0010
0001
1000
0000
0010
0100
0010
0100
,
0002
0000
1000
1000
,
0010
0010
1003
0000
,
2000
0000
0001
0001
,
0010
0010
3001
0000
,
1000
1000
0100
0000
,
1000
1000
0010
0000
,
0100
0000
0001
0000
0100
0010
0100
0000
,
0020
0000
0000
0030
,
1001
0000
1001
0000
1000
0100
0010
0000
,
0200
2300
3020
0030
,
0100
0000
0100
0000
0001
0100
0010
0000
,
0200
0302
0023
0030
,
1001
0000
1001
0000
0001
0010
0100
0000
,
0020
0032
0203
0300
,
0000
0001
0001
0000
1000
0000
1001
0000
,
0000
1000
1000
0000
0001
0000
1001
0000
,
0220
0000
0330
0000
0000
0010
0100
0000
,
0110
0000
0001
1000
0100
1000
0001
0000
,
0010
0100
0000
0100
0000
0010
0001
0000
,
1001
0000
1000
0001
0100
0001
1000
0000
,
0010
0000
0000
0100
0000
0000
0220
0000
0000
0000
0000
0000
0330
0000
0000
0000
,
1001
0000
1000
0100
1000
0001
0100
0000
,
0010
1000
0000
1000
0000
0100
1000
0000
,
0020
0000
0100
0000
1030
1000
0001
0000
,
0010
0000
0000
0010
0000
0000
0001
0000
0200
0000
0000
0000
0000
0000
0000
0000
,
0310
1000
0010
1000
0001
0100
0010
0000
,
1000
0001
0010
0000
0011
0000
0101
0000
,
0001
1000
0001
1000
0100
0010
0001
0000
,
1000
0000
0000
0010
0000
0000
0200
0000
0000
0000
0001
0000
0301
0000
0000
0000
,
1001
0000
1000
0100
0001
0000
0100
1000
,
0001
0000
1000
0010
0001
0000
0020
0000
,
0230
0000
0001
0000
0010
0010
0310
0000
,
0110
2002
0000
3003
,
1100
0000
0001
0000
0010
0001
0010
0000
,
0100
1000
0000
1000
0001
0000
0100
0000
,
0101
0000
1000
0000
0010
1000
0010
0000
,
0200
0302
2003
3020
,
0030
0000
0000
0000
1001
0000
0000
0000
1000
0000
0000
1000
0000
0000
0100
0000
,
1000
0000
0010
0100
0001
0000
0020
0000
,
0031
1000
0001
1000
0100
0010
0100
0000
,
0110
0000
0000
0000
0001
0000
1000
0000
0010
0000
0000
2002
0000
0000
0000
0000
,
3003
0000
0000
0000
;

//--------------- dance-single - forcednature ----------------
#NOTEDATA:;
#STEPSTYPE:dance-single;
#DESCRIPTION:forcednature;
#DIFFICULTY:Hard;
#METER:15;
#RADARVALUES:0,0,0,0,0;
#CREDIT:forcednature;
#NOTES:
0000
0000
0000
0000
,
0000
0000
0000
0000
,
0000
0000
0000
0000
,
0000
0000
0000
0000
,
0000
0000
0000
0000
,
1001
0000
0000
0000
1001
0000
0000
0000
1000
0000
0000
1100
0000
0000
0001
0000
,
0010
0000
0000
0000
1001
0000
0000
0000
0001
0000
0000
0101
0000
0000
1000
0000
,
0010
0100
0010
0000
1000
0010
1000
0000
0100
1000
0100
0000
0010
0001
0010
0000
,
0001
1000
0001
1000
0001
1000
0001
1000
0020
0000
0000
0000
0030
0000
0000
0000
,
0110
0000
0000
0001
1000
0001
0000
0010
0000
0100
0010
0000
0100
0000
1000
0000
,
0001
0000
0000
0001
0100
0000
1000
0000
0000
0000
0100
0000
0100
0000
0001
0000
,
0010
0000
0000
0001
1000
0001
0000
0010
0000
0100
0010
0000
0100
0000
1000
0000
,
1010
0000
0000
0110
0000
0000
0202
0000
0000
0000
0303
0000
0001
0000
1000
0000
,
1001
0000
0000
1000
0010
1000
0000
0010
0100
0000
0100
0001
0000
0001
0010
0000
,
0001
0000
0000
0001
1000
0000
0100
0000
1100
0000
0000
1010
0000
0000
0010
0000
,
0100
0001
0000
0001
1000
0000
0100
0000
0010
0001
0010
0001
1000
0100
0010
0001
,
1000
2002
0000
3003
,
0201
0000
0000
0000
1300
0000
0100
0000
0001
1000
0000
1000
0000
0010
1000
0010
,
0000
0000
1000
0100
1000
0100
0000
0010
0000
0100
0010
0001
1000
0000
0100
0000
,
1001
0000
0000
0000
0001
0000
0010
0000
0001
0100
0000
0100
0000
0010
1000
0001
,
0200
0000
0310
1000
0200
0000
0310
0001
0200
0000
0300
0000
2002
0000
3003
0000
,
1200
0000
0000
0000
0301
0000
0100
0000
1000
0001
0000
0001
0000
0010
0100
1000
,
0000
0000
0001
0100
0001
0100
0000
0010
0000
0100
0001
1000
0010
0000
0100
0000
,
1001
0000
0000
0001
0010
0000
0001
0000
0100
0010
0100
0010
1000
0000
0100
0000
,
1001
0000
0000
1000
0010
0000
0100
0000
0110
0000
0000
0110
0000
0000
0001
0000
,
1001
0000
0000
1000
0100
0000
0010
0000
0100
1000
0100
0010
0000
0100
1000
0001
,
0000
0000
0010
0001
0010
0001
0000
0100
0000
0010
1000
0001
0100
0000
0010
0000
,
0110
0000
0000
0000
0001
0000
0100
0000
0010
1000
0010
1000
0000
0100
1000
0001
,
0020
0000
0130
1000
0020
0000
0130
0001
0020
0000
0130
0000
0220
0000
0330
0000
,
1002
0000
0000
0000
0103
0000
0001
0000
0010
0100
0010
0001
0000
0100
0010
0100
,
0001
0000
1000
0010
1000
0010
0000
0100
0000
0001
1000
0001
0020
0000
0000
0000
,
0130
0000
0010
0100
0000
0100
0010
0000
0001
1000
0001
0100
0001
0000
0000
0000
,
0100
0000
0010
0100
0000
0100
0010
0000
1000
0001
1000
0100
1000
0001
0010
0001
,
2000
0000
0000
3000
0010
0010
0000
2000
,
3000
0002
0003
0200
0300
0000
0000
0000
,
0000
0000
0001
0000
0010
0010
0000
0002
,
0003
2000
3000
0200
0300
0010
0100
0010
,
0001
0000
0001
0100
0010
0100
0000
0010
,
0000
1000
0001
1000
0000
0100
0010
0000
,
0001
0000
0100
0000
0100
0000
0001
0000
1000
0010
1000
0010
0100
0001
1000
0010
,
0000
0000
0100
0000
0100
0000
0001
0000
0010
0001
0010
0100
1000
0000
0000
0000
,
1020
0100
0001
0100
,
1030
0000
0010
0100
0001
0000
0010
0100
1000
0000
0001
0010
0100
0000
1000
0010
,
0200
1000
0010
0001
,
0310
0000
0100
0001
1000
0000
0100
1000
0001
0000
0010
0001
0100
0000
0010
1000
,
0100
1000
0010
1000
0100
1000
0010
1000
,
0001
0000
0010
0000
0001
0000
0100
0000
0001
0000
0000
1001
0000
0000
0110
0000
,
0000
0000
1000
0100
1000
0100
0000
1000
0000
0010
0100
0001
0010
0000
0011
0000
,
0000
0000
0001
0100
0001
0100
0000
0001
0000
1000
0100
1000
0001
0010
0001
1000
,
0200
0000
0320
0000
0030
0001
0001
1000
,
1001
0000
0000
0001
0010
0100
0010
0001
1000
0100
1000
0001
0100
0000
0010
0000
,
1000
0000
0000
1000
0100
0000
0001
0000
0000
0000
0100
0000
0100
0000
1000
0000
,
0001
0000
0000
0010
0100
1000
0100
0010
0001
1000
0010
1000
0001
0000
0100
0000
,
0110
0000
0000
1010
0000
0000
2200
0000
0000
0000
3300
0000
0001
0000
1000
0000
,
1001
0000
0000
0001
0010
0001
1000
0010
1000
0001
0100
0010
1000
0000
0100
0000
,
1000
0000
0000
1000
0010
0000
0001
0000
0000
0000
0010
0000
0200
0000
0000
0000
,
0301
0000
1000
0001
1000
0000
0010
0100
0001
0000
0010
0100
1000
0000
0010
0000
,
0110
0000
0000
0100
0001
0000
0010
0000
0002
0000
0000
0000
0000
0000
0003
0000
,
1000
0100
1000
0001
0100
0001
1000
0100
1000
0010
0100
0001
0010
0000
0100
0000
,
0010
0000
0000
0010
0001
0000
0100
0000
0000
0000
1000
0000
1000
0000
0100
0000
,
0001
1000
0010
1000
0001
0010
0001
1000
0010
0100
0001
1000
0010
0000
0100
0000
,
0101
0000
0000
0110
0000
0000
2020
0000
0000
0000
3030
0000
0001
0000
1000
0000
,
1001
0000
0001
0100
0010
0000
1000
0100
0010
0000
0001
1000
0010
0000
0100
0000
,
0110
0000
0010
1000
0001
0000
0010
0001
1000
0000
0100
0010
0001
1000
0001
1000
,
0010
0100
0000
0100
0000
0001
1000
0000
0001
0010
0001
0010
0100
1000
0001
0010
,
0100
2002
0000
3003
,
0011
0000
0000
1000
0100
0000
0010
0000
1000
0010
0000
0010
0000
0001
1000
0001
,
0000
0000
0100
0001
0100
0001
0000
1000
0000
0010
0100
0001
0010
0000
0100
0000
,
0110
0000
0000
0001
1000
0000
0010
0000
0001
0010
0000
0010
0000
1000
0001
1000
,
0200
0000
0310
0001
0200
0000
0310
1000
0200
0000
0300
0000
2002
0000
3003
0000
,
0021
0000
0000
0000
1030
0000
0001
0000
0100
1000
0000
1000
0000
0010
0100
0001
,
0010
0000
0100
0010
0100
0010
0000
0100
0000
1000
0001
0100
0020
0000
0000
0000
,
1030
0100
1000
0100
0010
0001
0010
0001
1000
0010
0100
0001
1000
0000
0100
0000
,
0010
0001
0000
0101
0000
0110
0000
0010
1000
0000
0000
2002
0000
0000
0000
0000
,
3003
0000
0000
0000
;

//--------------- dance-double - forcednature ----------------
#NOTEDATA:;
#STEPSTYPE:dance-double;
#DESCRIPTION:forcednature;
#DIFFICULTY:Easy;
#METER:7;
#RADARVALUES:0,0,0,0,0;
#CREDIT:forcednature;
#NOTES:
00000000
00000000
00000000
00000000
,
00000000
00000000
00000000
00000000
,
00000000
00000000
00000000
00000000
,
00000000
00000000
00000000
00000000
,
00000000
00000000
00000000
00000000
,
00001000
00001000
00010000
00000100
,
00010000
00010000
00001000
01000000
,
00010000
10000000
10000000
00010000
,
00200000
00000000
00300000
00000000
,
10010000
10000000
01000000
10000000
,
00010000
00000000
00010000
00100000
00000000
00000000
00000000
00000000
,
00001000
00010000
00000100
00010000
,
00001000
00000000
00001000
00020000
00000000
00000000
00030000
00000000
,
00000010
00001000
00000010
00000100
,
00000001
00000000
00000001
00001000
00000000
00000000
00000100
00000000
,
00002002
00000000
00003003
00000000
,
00001000
00002002
00000000
00003003
,
00001000
00000100
00000100
00010000
,
00001000
00100000
00001000
00000000
,
00010000
00001000
00001000
01000000
,
00020000
00230000
02300000
23000000
,
30000000
00010000
00010000
00100000
,
00010000
00100000
00001000
00000000
,
00022000
00033000
00001000
00010000
,
00022000
00033000
00000100
00001000
,
00001001
00000000
00000001
00000001
,
00000100
00000001
00001000
00000010
,
00000100
00000000
00000010
00000010
,
00002000
00003200
00020300
00032000
,
00003000
00010000
00010000
00001000
,
01000000
00010000
01000000
00000000
,
00100000
00100000
10000000
00010000
,
00100000
00100000
00010000
10000000
,
00000000
01000000
01000000
00000000
,
00100000
00000000
00001000
00000000
,
00000000
00010000
00010000
00000000
,
00001000
00000000
00010000
00000000
,
00000000
00001000
00001000
00000000
,
00010000
00000000
00001000
00000000
,
00010000
00010000
00000100
00001000
,
00000200
00000000
00000000
00000300
,
00001001
00000000
00000001
00000001
,
00000100
00000001
00001000
00000010
,
00001000
00000000
00000100
00000100
,
00001000
00000100
00010000
00001000
,
00010000
00000000
00001000
00001000
,
00010000
00001000
00100000
00010000
,
00000000
10000000
00010000
00000000
00010000
00000000
01000000
00000000
,
00000000
00010000
10000000
00000000
10000000
00000000
01000000
00000000
,
02200000
00000000
03300000
00000000
,
00100000
00010000
00100000
00001000
,
00010000
00001000
00010000
00000000
00001000
00000000
00000000
00000000
,
00010000
00000100
00001000
00000100
,
00001000
00000000
00001000
00000002
00000000
00000000
00000003
00000000
,
00000100
00000000
00000001
00000000
00000100
00000010
00000100
00000000
,
00000010
00001000
00000100
00000000
,
00010000
00001000
00100000
00001000
,
00011000
00000000
00010000
00001000
00020000
00000000
00000000
00030000
,
00001000
00000000
00010000
00001000
00010000
00000000
00000100
00000000
,
00001000
00000000
00000100
00001000
00000100
00000000
00000000
00000000
,
00000010
00000000
00000001
00000010
00000001
00000000
00000100
00000000
,
00000001
00000000
00000001
00002000
00000000
00000000
00003000
00000000
,
00001001
00000000
00000100
00000000
,
00011000
00000000
01000000
00000000
,
10010000
01000000
00100000
01000000
,
01100000
20020000
00000000
30030000
,
10010000
00010000
00100000
00010000
,
00100000
00001000
00000000
00001000
00010000
00000000
00001000
00000000
,
00010000
00000100
00001000
00000100
,
00002000
00003020
00000230
00000302
,
00000003
00001001
00001000
00000100
,
00010000
00001000
00000000
00001000
00010000
00000000
00001000
00000000
,
00011000
00000000
01000000
00010000
,
20020000
00000000
00000000
00000000
30030000
00000000
00000000
00000000
10000000
00000000
00000000
00200000
00000000
00000000
00000000
00000000
,
00300000
00000000
00000000
00000000
;

//--------------- dance-double - forcednature ----------------
#NOTEDATA:;
#STEPSTYPE:dance-double;
#DESCRIPTION:forcednature;
#DIFFICULTY:Medium;
#METER:10;
#RADARVALUES:0,0,0,0,0;
#CREDIT:forcednature;
#NOTES:
00000000
00000000
00000000
00000000
,
00000000
00000000
00000000
00000000
,
00000000
00000000
00000000
00000000
,
00000000
00000000
00000000
00000000
,
00000000
00000000
00000000
00000000
,
00011000
00000000
00000000
00000000
00001000
00000000
00000000
00000000
00000010
00000000
00000000
00000010
00000000
00000000
00000100
00000000
,
00000010
00000000
00000000
00000000
00000001
00000000
00000000
00000000
00001000
00000000
00000000
00001000
00000000
00000000
00000001
00000000
,
00001000
00000000
00000010
00001000
00000010
00000000
00000100
00000010
,
00000200
00000000
00000000
00000000
00000300
00000001
00001000
00000000
,
00001001
00000000
00000001
00000000
00000010
00000100
00001000
00000000
,
00000100
00010000
00000000
00010000
00000000
00001000
00010000
00000000
,
00011000
00000000
00001000
00010000
00001000
00000000
01000000
00000000
,
00100000
00000000
00000000
00100000
00000000
00000000
20000000
00000000
00000000
00000000
30000000
00000000
00010000
00000000
10000000
00000000
,
00010000
00000000
00000000
00000000
00010000
00000000
00100000
00000000
01000000
00000000
00000000
01000000
00000000
00000000
00100000
00000000
,
00010000
00000000
00000000
00000000
01000000
00000000
00001000
00000000
00010000
00000000
00000000
00010000
00000000
00000000
00001000
00000000
,
00020000
00000000
00000000
00030000
00001000
00010000
00001000
00010000
,
00000100
00002200
00000000
00003300
,
00000011
00000011
00000101
00000011
,
00000000
00000010
00000100
00000000
00001000
00000100
00001000
00000000
,
00001100
00001100
00011000
00001100
,
00020000
00032000
02003000
03010000
,
10010000
10010000
11000000
10010000
,
00010000
00100000
01000000
00000000
00100000
00010000
10000000
00000000
,
00020000
00000000
10000000
00000000
00100000
00100000
00130000
00000000
,
00200000
00000000
00000000
00000000
00010000
00000000
00000000
00000000
00301000
00000000
00000000
00001000
00000000
00000000
00000000
00000000
,
00011000
00011000
00010100
00011000
,
00000000
00001000
00001000
00000000
00010000
00000010
00001000
00000000
,
00001010
00001010
00001100
00001010
,
00000020
00000230
00000302
00001003
,
00001001
00000000
00000000
00000000
00001000
00000000
00000100
00000000
00010000
00000000
00000000
00010000
00000000
00000000
00001000
00000000
,
00010000
00000000
00001000
00100000
00010000
00000000
02000000
00000000
,
03100000
10000000
00100000
00000000
10000000
01000000
10000000
00000000
,
01000000
00100000
00001000
00000000
00010000
00001000
00010000
00000000
,
00021000
00000000
00000100
00000100
,
00001000
00001000
00030100
00000000
,
00012000
00000000
01000000
01000000
,
00010000
00010000
01003000
00000000
,
00001000
00010000
00100000
00000000
,
00010000
00001000
00000010
00000000
,
00001000
00000000
00010000
00000000
00001000
00010000
00001000
00000000
,
02000000
00000000
00000000
03000000
,
10010000
00000000
10010000
00000000
10000000
01000000
00100000
00000000
,
02000000
23000000
30020000
00030000
,
00100000
00000000
00100000
00000000
00010000
00100000
00001000
00000000
,
00020000
00030200
00002300
00003000
,
00001001
00000000
00001001
00000000
00000001
00000100
00000010
00000000
,
00002000
00003020
00020030
00030000
,
00000000
00000100
00000100
00000000
00010000
00000000
00011000
00000000
,
00000000
01000000
01000000
00000000
00001000
00000000
00011000
00000000
,
00022000
00000000
00033000
00000000
00000000
00100000
00010000
00000000
,
01100000
00000000
01000000
10000000
00010000
10000000
01000000
00000000
,
00100000
00010000
00000000
00010000
00000000
00100000
00001000
00000000
,
00011000
00000000
00010000
00000100
00001000
00000100
00001000
00000000
,
00000010
00000000
00000000
00000100
00000000
00000000
00000220
00000000
00000000
00000000
00000000
00000000
00000330
00000000
00000000
00000000
,
00001001
00000000
00000001
00000100
00000001
00001000
00000010
00000000
,
00010000
00001000
00000000
00001000
00000000
00100000
00010000
00000000
,
00200000
00000000
01000000
00000000
00310000
00010000
10000000
00000000
,
00100000
00000000
00000000
00100000
00000000
00000000
01000000
00000000
00020000
00000000
00000000
00000000
00000000
00000000
00030000
00000000
,
00100000
00010000
00100000
00001000
00010000
00000100
00010000
00000000
,
00001000
00010000
00000010
00000000
00001010
00000000
00001100
00000000
,
00000100
00000010
00000100
00000010
00000001
00001000
00000010
00000000
,
00001000
00000000
00000000
00000100
00000000
00000000
00020000
00000000
00000000
00000000
00001000
00000000
00031000
00000000
00000000
00000000
,
00011000
00000000
01000000
00010000
00100000
00000000
00100000
00001000
,
00010000
00000000
00000100
00001000
00000010
00000000
00000020
00000000
,
00020030
00000000
00001000
00000000
00000100
00000100
00030100
00000000
,
00011000
00202000
00000000
00303000
,
00110000
00000000
00010000
00000000
01000000
00010000
01000000
00000000
,
00100000
10000000
00000000
10000000
00010000
00000000
00100000
00000000
,
00110000
00000000
00001000
00000000
00010000
00001000
00010000
00000000
,
00000200
00002300
00003002
00000023
,
00000030
00000000
00000000
00000000
00001001
00000000
00000000
00000000
00000001
00000000
00000000
00000001
00000000
00000000
00000100
00000000
,
00000001
00000000
00000100
00000010
00001000
00000000
00000200
00000000
,
00001300
00000100
00001000
00000100
00010000
00001000
00010000
00000000
,
00011000
00000000
00000000
00000000
00001000
00000000
00100000
00000000
00010000
00000000
00000000
20000000
00000000
00000000
00000000
00000000
,
30000000
00000000
00000000
00000000
;

//--------------- dance-double - forcednature ----------------
#NOTEDATA:;
#STEPSTYPE:dance-double;
#DESCRIPTION:forcednature;
#DIFFICULTY:Hard;
#METER:15;
#RADARVALUES:0,0,0,0,0;
#CREDIT:forcednature;
#NOTES:
00000000
00000000
00000000
00000000
,
00000000
00000000
00000000
00000000
,
00000000
00000000
00000000
00000000
,
00000000
00000000
00000000
00000000
,
00000000
00000000
00000000
00000000
,
00011000
00000000
00000000
00000000
00011000
00000000
00000000
00000000
00010000
00000000
00000000
00100000
00000000
00000000
10000000
00000000
,
01000000
00000000
00000000
00000000
10010000
00000000
00000000
00000000
10000000
00000000
00000000
00100000
00000000
00000000
00010000
00000000
,
00001000
00000000
00010000
00001000
00010000
00000000
00000100
00001000
00000100
00000000
00000010
00000001
00000010
00000000
00000001
00000000
,
00001000
00000001
00001000
00000001
00001000
00000001
00001000
00000001
00000200
00000000
00000000
00000000
00000300
00000000
00000000
00000000
,
00000110
00000000
00000000
00000010
00001000
00000010
00000000
00001000
00000000
00000100
00010000
00000000
00001000
00000000
00010000
00000000
,
00001000
00000000
00000000
00001000
00100000
00000000
01000000
00000000
00000000
00000000
00100000
00000000
00100000
00000000
00001000
00000000
,
00010000
00000000
00000000
00001000
00010000
00001000
00000000
01000000
00000000
00010000
01000000
00000000
00100000
00000000
10000000
00000000
,
11000000
00000000
00000000
01100000
00000000
00000000
00220000
00000000
00000000
00000000
00330000
00000000
00001000
00000000
00010000
00000000
,
00011000
00000000
00000000
00000010
00001000
00000010
00000000
00000100
00000001
00000000
00000001
00000010
00000000
00000010
00000100
00000000
,
00010000
00000000
00000000
00010000
00000010
00000000
00000100
00000000
00000110
00000000
00000000
00000001
00000000
00000000
00001000
00000000
,
00000100
00010000
00000000
00010000
00001000
00000000
00100000
00000000
00010000
00100000
00010000
00100000
01000000
10000000
00010000
00100000
,
01000000
20020000
00000000
30030000
,
02010000
00000000
00000000
00000000
13000000
00000000
01000000
00000000
00010000
01000000
00000000
01000000
00000000
00100000
01000000
00100000
,
00000000
00000000
01000000
00010000
01000000
00010000
00000000
00100000
00000000
00010000
00100000
00010000
00100000
00000000
00001000
00000000
,
00011000
00000000
00000000
00000000
00001000
00000000
00000010
00000000
00000001
00000010
00000000
00000010
00000000
00000100
00000010
00000100
,
00000020
00002030
00023000
01030000
,
00012000
00000000
00000000
00000000
00003010
00000000
00001000
00000000
00010000
00001000
00000000
00001000
00000000
00100000
00010000
00100000
,
00000000
00000000
00010000
01000000
00010000
01000000
00000000
00100000
00000000
01000000
00100000
01000000
00100000
00000000
10000000
00000000
,
10010000
00000000
00000000
00010000
00100000
00000000
00010000
00000000
00100000
00001000
00100000
00001000
00010000
00000000
00001000
00000000
,
00011000
00000000
00000000
00010000
00000100
00000000
00001000
00000000
00001100
00000000
00000000
00001100
00000000
00000000
00000000
00000000
,
00001001
00000000
00000000
00000001
00000100
00000000
00000010
00000000
00001000
00000010
00001000
00000010
00000000
00001000
00000100
00001000
,
00000000
00000000
00000100
00010000
00000100
00010000
00000000
00001000
00000000
00010000
00001000
00010000
00001000
00000000
00100000
00000000
,
00110000
00000000
00000000
00000000
00010000
00000000
01000000
00000000
00100000
10000000
00100000
10000000
00000000
01000000
10000000
01000000
,
20000000
30200000
00320000
00031000
,
00012000
00000000
00000000
00000000
00003010
00000000
00000100
00000000
00000010
00000001
00000010
00000001
00000000
00000100
00000001
00000100
,
00000001
00000000
00000100
00000010
00000100
00000010
00000000
00001000
00000000
00000100
00001000
00000100
00002000
00000000
00000000
00000000
,
00003100
00000000
00010000
00001000
00000000
00001000
00010000
00000000
00001000
00100000
00010000
00100000
00010000
00000000
00000000
00000000
,
01000000
00000000
00010000
01000000
00000000
01000000
00010000
00000000
01000000
00100000
01000000
00100000
10000000
00100000
10000000
00000000
,
02000000
00000000
00000000
03000000
00100000
00100000
00000000
00002000
,
00003000
00020000
00030000
00000200
00000300
00000000
00000000
00000000
,
00000000
00000000
00000010
00000000
00000001
00000001
00000000
00000200
,
00000300
00002000
00003000
00020000
00030000
00100000
00100000
01000000
,
00100000
00000000
10000000
00100000
10000000
01000000
00000000
00100000
,
00000000
01000000
00100000
00001000
00000000
00001000
00010000
00000000
,
00000100
00000000
00001000
00000000
00001000
00000000
00000100
00000000
00001000
00000001
00001000
00000001
00000010
00000001
00000010
00000001
,
00000000
00000000
00000100
00000000
00000100
00000000
00000001
00000000
00000100
00000010
00000100
00000010
00001000
00000000
00000000
00000000
,
00002001
00000100
00000001
00000010
,
00023000
01000000
10000000
00100000
,
00032000
00000100
00000001
00000010
,
00023000
01000000
10000000
00100000
,
00031000
00000100
00001000
00000100
00010000
00001000
00000010
00000100
,
00000010
00000000
00000001
00000000
00000010
00000000
00000001
00000000
00000100
00000000
00000000
00000100
00000000
00000000
00001000
00000000
,
00000000
00000000
00010000
00001000
00010000
00001000
00000000
00010000
00000000
00001000
00100000
00010000
00100000
00000000
00110000
00000000
,
00000000
00000000
00010000
01000000
00010000
01000000
00000000
00100000
00000000
10000000
00100000
10000000
00100000
10000000
00010000
10000000
,
00020000
00000000
00230000
00000000
00300000
00001000
00001000
00010000
,
00011000
00000000
00000000
00000010
00001000
00000010
00001000
00000100
00001000
00000100
00000010
00000001
00001000
00000000
00000010
00000000
,
00000100
00000000
00000000
00000100
00000001
00000000
00001000
00000000
00000000
00000000
00000010
00000000
00000010
00000000
00010000
00000000
,
00001000
00000000
00000000
00100000
00010000
00100000
00010000
10000000
01000000
10000000
00010000
00100000
01000000
00000000
00100000
00000000
,
00010000
00000000
00000000
01000000
00000000
00000000
00022000
00000000
00000000
00000000
00033000
00000000
00001000
00000000
00010000
00000000
,
00011000
00000000
00000000
00000100
00001000
00000100
00001000
00000010
00001000
00000010
00000100
00000001
00001000
00000000
00000100
00000000
,
00010000
00000000
00000000
00010000
00001000
00000000
00100000
00000000
00000000
00000000
00010000
00000000
02000000
00000000
00000000
00000000
,
03100000
00000000
10000000
00100000
10000000
00000000
00100000
01000000
00100000
00000000
01000000
00000000
00001000
00000000
00010000
00000000
,
00011000
00000000
00000000
00001000
00010000
00000000
00000100
00000000
00002000
00000000
00000000
00000000
00000000
00000000
00003000
00000000
,
00000001
00000010
00000001
00000010
00000100
00000010
00000001
00001000
00000100
00010000
00001000
00010000
00001000
00000000
01000000
00000000
,
00010000
00000000
00000000
00010000
01000000
00000000
00100000
00000000
00000000
00000000
10000000
00000000
10000000
00000000
01000000
00000000
,
00100000
00010000
00100000
00010000
10000000
01000000
10000000
00010000
00100000
00001000
00010000
00001000
00010000
00000000
00000100
00000000
,
00001100
00000000
00000000
00001010
00000000
00000000
00000220
00000000
00000000
00000000
00000330
00000000
00000001
00000000
00001000
00000000
,
00001001
00000000
00000001
00000010
00000001
00000000
00000010
00000100
00000010
00000000
00000100
00000000
00010000
00000000
00001000
00000000
,
00011000
00000000
00010000
00001000
00010000
00000000
00001000
00100000
00001000
00000000
01000000
00000000
00100000
01000000
00100000
01000000
,
00100000
10000000
00000000
10000000
00000000
00000000
01000000
00000000
00100000
00010000
00100000
00010000
00100000
00001000
00010000
00000100
,
00010000
00022000
00000000
00033000
,
00011000
00000000
00000000
00000000
00001000
00000000
00000010
00000000
00000001
00000010
00000000
00000010
00000000
00000001
00000100
00000001
,
00000000
00000000
00000100
00000010
00000100
00000010
00000000
00001000
00000000
00000100
00001000
00000100
00010000
00000000
00001000
00000000
,
00011000
00000000
00000000
00000000
00010000
00000000
00100000
00000000
10000000
00100000
00000000
00100000
00000000
10000000
01000000
10000000
,
02000000
03020000
00032000
00003010
,
00000110
00000000
00000000
00000000
00000100
00000000
00010000
00000000
00001000
00010000
00000000
00010000
00000000
00001000
00100000
00010000
,
00100000
00000000
01000000
00100000
01000000
00100000
00000000
01000000
00000000
10000000
00010000
01000000
00200000
00000000
00000000
00000000
,
10300000
01000000
10000000
01000000
00100000
00010000
00100000
00000000
00001000
00010000
00001000
00010000
00000100
00000000
00001000
00000000
,
00000010
00000100
00000000
00000001
00000000
00000010
00000000
00001000
00010000
00000000
00000000
00022000
00000000
00000000
00000000
00000000
,
00033000
00000000
00000000
00000000
;
