#VERSION:0.83;
#TITLE:Override;
#SUBTITLE:;
#ARTIST:Nhato;
#TITLETRANSLIT:;
#SUBTITLETRANSLIT:;
#ARTISTTRANSLIT:;
#GENRE:EUPHORIC HARDCORE;
#CREDIT:;
#MUSIC:Override.ogg;
#BANNER:Override.png;
#BACKGROUND:Override-bg.png;
#CDTITLE:./CDTitles/bm IIDX 27 HEROIC VERSE.png;
#SAMPLESTART:83.254;
#SAMPLELENGTH:15.000;
#SELECTABLE:YES;
#OFFSET:0.384;
#BPMS:0.000=175.000
,176.000=87.500
,177.500=175.000
,234.000=43.750
,235.000=87.500
,236.500=175.000
;
#STOPS:177.500=0.171
,236.500=0.171
;
#TIMESIGNATURES:0.000=4=4,
176.000=2=4,
178.000=4=4,
234.000=3=4,
237.000=4=4
;
#DISPLAYBPM:175.000;
#BGCHANGES:0.000=Override.mp4=1.000=0=0=0=StretchNoLoop====,
99999.000=-nosongbg-=1.000=0=0=0=StretchNoLoop====
;
#FGCHANGES:;

//--------------- dance-single - forcednature ----------------
#NOTEDATA:;
#STEPSTYPE:dance-single;
#DESCRIPTION:forcednature;
#DIFFICULTY:Beginner;
#METER:4;
#RADARVALUES:0,0,0,0,0;
#CREDIT:forcednature;
#NOTES:
0000
0000
0000
0000
,
0000
0000
0000
0000
,
0000
0000
0000
0000
,
0000
0000
0000
0000
,
0000
0000
0000
0000
,
0001
0000
0000
0000
,
0100
0000
0000
0000
,
0010
0000
0000
0000
,
1000
0000
0000
0000
,
1001
0000
0000
0000
,
0001
0000
0010
0000
,
0001
0000
0001
0000
,
0200
0000
0300
0000
,
1001
0000
0000
0000
,
1000
0000
1000
0000
,
0010
0000
0000
0000
,
1000
0000
0100
0000
,
0010
0000
0000
0000
,
0001
0000
0001
0000
,
0010
0000
0000
0000
,
0001
0000
0100
0000
,
0010
0000
0010
0000
,
1000
0000
0001
0000
,
0100
0000
0010
0000
,
1000
0000
0000
0000
,
0100
0000
0100
0000
,
0010
0000
0001
0000
,
1000
0000
0010
0000
,
0100
0000
0000
0000
,
0001
0000
0001
0000
,
1000
0000
0100
0000
,
1000
0000
1000
0000
,
0001
0000
0010
0000
,
0100
0000
1000
0000
,
0010
0000
1000
0000
,
0001
0000
0000
0000
,
0010
0000
0100
0000
,
2002
0000
0000
0000
,
0000
0000
0000
0000
,
0000
0000
0000
0000
,
0000
0000
3003
0000
,
1000
0000
0000
0000
,
0010
0000
0000
0000
,
0100
0000
0100
0000
,
0001
0000
1000
1000
,
1000
0000
0001
0001
,
0001
0000
0100
0000
,
0000
0000
0010
0000
,
1000
0000
0001
0001
,
0001
0000
1000
1000
,
1000
0000
0100
0000
,
0000
0000
0010
0000
,
0001
0000
0100
0000
,
0100
0000
0010
0000
,
0010
0000
0100
0000
,
0100
0000
0010
0000
,
0010
0000
1000
0000
,
0000
0000
0001
0000
,
0001
0000
0001
0010
,
0000
1001
0000
0100
,
0000
1000
0000
0010
,
0000
0100
0000
0100
,
0000
0001
0000
0010
,
0000
1001
0000
0100
,
0000
0001
0000
0010
,
0000
0100
0000
0100
,
0000
1000
0000
0001
,
0000
1001
0000
1000
,
0000
0010
0000
0100
,
0000
0001
0000
0100
,
0000
0010
0000
1000
,
0000
1001
0000
0001
,
0000
0010
0000
0001
,
0000
1000
0000
1000
,
0000
0100
0000
0000
,
0000
0010
0010
0010
,
0000
0100
0100
0100
,
0000
1000
0000
0001
,
0000
0100
0000
0001
,
0000
0100
0100
0010
,
0000
0010
0010
0100
,
0000
1000
0000
0100
,
0000
1000
0000
0001
,
0000
0100
0000
0010
,
0000
1001
0000
0000
;

//--------------- dance-single - forcednature ----------------
#NOTEDATA:;
#STEPSTYPE:dance-single;
#DESCRIPTION:forcednature;
#DIFFICULTY:Easy;
#METER:8;
#RADARVALUES:0,0,0,0,0;
#CREDIT:forcednature;
#NOTES:
0000
0000
0000
0000
,
0000
0000
0000
0000
,
0000
0000
0000
0000
,
0000
0000
0000
0000
,
0000
0000
0000
0000
,
1000
0100
0010
0000
,
0001
0100
0010
0000
,
1000
0001
0010
0001
,
0100
0000
0010
0000
,
1001
1000
0100
1000
,
0001
0001
0100
0001
,
0010
0100
1000
0001
,
0010
0000
0100
0110
,
0000
1000
0001
0101
,
0000
0001
0001
1000
,
0000
0001
1000
1100
,
0000
1000
0001
0010
,
0000
0100
1000
1010
,
0000
0001
0001
0100
,
0000
0001
0010
0011
,
0000
1000
0001
0000
,
0100
0010
1000
0010
,
0100
0001
1000
0001
,
0010
0100
1000
0100
,
0010
0001
1000
0000
,
0010
0100
0001
0100
,
0010
1000
0001
1000
,
0100
0010
0001
0010
,
0200
0000
1300
0001
,
1001
1000
0010
1000
,
0001
0010
0001
0100
,
0010
1000
0100
1000
,
0001
0001
0100
0000
,
1001
0001
0010
0001
,
1000
0100
1000
0001
,
0100
0000
0100
0000
0000
0010
0000
0010
,
0100
0000
0001
0010
,
2002
0000
0000
0000
,
0000
0000
0000
0000
,
0000
0000
0000
0000
,
0000
0000
3003
0000
,
1000
1000
0100
0000
,
1000
0010
1000
0000
,
0001
0100
0010
1000
,
0200
0000
0000
0300
0010
0000
0001
0000
,
1001
0000
0010
1000
,
1001
0000
0002
0003
,
0200
0300
0020
0030
,
2000
3000
0100
1000
,
1001
0000
0100
0001
,
1001
0000
2000
3000
,
0020
0030
0200
0300
,
0002
0003
0010
0001
,
0010
0001
0100
0000
,
0010
0000
1000
0100
,
1000
0100
0010
0000
,
0001
0000
1000
1000
,
0010
0100
0001
0001
,
1000
0000
0100
0000
0020
0000
0031
0001
,
2000
3000
0001
0000
0100
0000
0110
0000
,
0000
1000
0100
0110
,
0000
0001
1000
0010
,
1000
0001
0010
0200
,
0300
0010
0001
0101
,
0000
0010
1000
1100
,
0000
0001
0010
0001
,
1000
0100
0100
0020
,
0030
0100
1000
1001
,
0001
0010
0001
1001
,
1000
0010
0100
0001
,
0100
0010
1000
0001
,
0010
0100
1000
1001
,
0001
0100
0001
1001
,
1000
0100
0010
0100
,
1000
0020
0030
0200
,
0300
0000
0000
0000
0001
0000
0000
1000
0000
0000
0001
0000
2000
0000
0000
0000
,
3000
0000
0000
0000
0100
0000
0000
0010
0000
0000
0100
0000
0020
0000
0000
0000
,
0030
0001
0001
0100
,
0001
1000
1000
0100
,
1000
0000
0000
0000
0010
0000
0000
0100
0000
0000
0010
0000
2000
0000
0000
0000
,
3000
0000
0000
0000
0100
0000
0000
0010
0000
0000
0100
0000
2000
0000
0000
0000
,
3000
0001
0100
0001
,
1000
0000
0000
0000
0100
0000
0000
0100
0000
0000
0010
0000
0100
0000
0000
0100
,
0000
0000
1000
0000
0001
0000
0000
0001
0000
0000
0010
0000
0001
0000
0000
1000
,
0000
0020
0000
0000
0000
0000
0000
0000
,
0000
0000
0000
0000
,
0000
0000
0030
0000
;

//--------------- dance-single - forcednature ----------------
#NOTEDATA:;
#STEPSTYPE:dance-single;
#DESCRIPTION:forcednature;
#DIFFICULTY:Medium;
#METER:13;
#RADARVALUES:0,0,0,0,0;
#CREDIT:forcednature;
#NOTES:
0000
0000
0000
0000
,
0000
0000
0000
0000
,
0000
0000
0000
0000
,
0000
0000
0000
0000
,
0000
0000
0000
0000
,
1000
0000
0000
0100
0000
0000
1000
0000
0002
0000
0000
0000
0000
0000
0003
0000
,
0010
0000
0000
0100
0000
0000
0010
0000
0002
0000
0000
0000
0000
0000
0003
0000
,
1000
0000
0000
0010
0000
0000
1000
0000
0001
0000
0000
0010
0000
0000
0001
0000
,
0200
0000
0320
1030
,
1002
0000
0010
0000
1000
0000
0103
0001
,
1000
0100
1000
0100
0010
0001
0010
0001
,
1000
0010
0100
0001
1000
0100
0010
0001
,
0200
0000
0000
0000
0301
1000
1001
0000
,
0011
0000
1000
0100
0001
0100
1000
0000
,
0001
0010
0001
0001
1000
0100
0001
0001
,
0100
0000
0000
0000
1000
0000
0000
1000
0000
0000
0001
0000
0010
0000
0000
0000
,
0001
0100
1000
0000
0100
0001
1000
0000
,
0110
0000
0001
0100
1000
0100
0001
0000
,
1000
0010
1000
1000
0001
0100
1000
1000
,
0100
0000
0000
0000
0001
0000
0000
0001
0000
0000
1000
0000
0010
0000
0000
0000
,
2000
0000
0000
3200
0000
0000
0320
0000
0032
0000
0000
0000
0103
0000
0010
0000
,
0110
0000
0001
1000
0100
1000
0010
1000
,
0100
1000
0001
0010
1000
0010
0001
1000
,
0001
0100
0010
0100
1000
0100
0001
1000
,
0010
0000
1000
0100
0001
0100
1000
0001
,
1001
0000
1000
0001
0100
0001
0010
0001
,
0100
0001
1000
0010
0001
0010
1000
0001
,
1000
0000
0100
0000
0010
0000
0100
0000
0001
0000
0000
0100
0000
0000
1000
0000
,
0002
0000
0000
0203
0000
0000
0320
0000
2030
0000
0000
0000
3100
0000
0010
0000
,
0001
0100
1000
0100
0001
0010
1000
0010
,
0001
0100
0010
1000
0100
0001
0100
1000
,
0010
0100
0001
0100
0010
1000
0001
0010
,
1000
0010
0001
1000
0200
0000
0310
0010
,
0001
1000
0010
0001
0010
1000
0001
0100
,
0001
0010
1000
0010
0001
1000
0100
0001
,
0100
0000
0000
1000
0000
0000
1100
0000
0000
0000
0011
0000
0000
0000
0001
0000
,
0200
0000
0000
0000
0000
0000
0300
0000
0010
0000
1000
0010
1000
0000
0000
0000
,
2002
0000
0000
0000
,
0000
0000
0000
0000
,
0000
0000
0000
0000
,
0000
0000
3003
0000
,
0001
0000
0000
0001
0000
0000
0010
0000
0200
0000
0000
0000
1300
0000
0001
0000
,
0100
0000
0000
0100
0000
0000
0010
0000
2000
0000
0000
0000
3001
0000
0010
0000
,
0100
0000
0000
1000
0000
0000
0001
0000
0100
0000
0000
0001
0000
0000
1000
0000
,
0020
0000
0000
0000
0000
0000
0030
0000
0100
0000
0000
0101
0000
0000
1000
0000
,
0020
0000
0000
0000
1030
0000
0001
0000
0010
0000
0000
0011
0000
0000
1000
0000
,
0200
0000
0000
0000
0310
0000
0001
0000
0100
0000
0000
0100
0000
0000
0010
0000
,
1000
0000
0000
0001
0000
0000
0010
0000
0100
0000
0000
1000
0000
0000
0001
0000
,
0200
0000
0000
0000
0310
1000
0010
0000
1000
0000
0000
1100
0000
0000
0001
0000
,
0011
0000
0000
0000
1000
0000
0001
0000
0100
0000
0000
0101
0000
0000
1000
0000
,
1010
0000
0000
0000
0001
0000
0010
0000
0100
0000
0000
0100
0000
0000
1000
0000
,
0001
0000
0000
0100
0000
0000
0010
0000
1000
0000
0000
0100
0000
0000
0010
0000
,
0001
0000
0000
0000
0100
0000
0010
0000
1000
0000
0000
1000
0100
0000
0000
0000
,
0010
0000
0000
0010
0001
0000
0000
0000
1000
0000
0000
1000
0010
0000
0000
0000
,
0100
0000
0000
0100
0001
0000
0000
0000
0010
0000
0000
0100
0010
0000
0000
0000
,
0001
0000
0000
1000
0001
0000
0000
0000
0100
0000
0000
0010
0100
0000
0000
0000
,
0001
0000
0000
1000
0001
0000
0000
0000
0010
0000
0001
0000
0100
0000
0001
0000
,
1000
0001
0100
0001
0010
0100
1000
0100
,
0010
0000
0000
0000
0001
0000
0000
0000
0100
0000
0000
0000
0010
0000
0000
0000
2000
0000
0000
0000
0000
0000
0000
0000
3001
0000
0000
0010
0000
0000
0100
0000
,
2000
0000
3010
0000
1001
0000
0000
0001
0100
0000
0010
0000
2000
0000
0000
0000
,
3001
0000
0010
0000
0100
0000
0000
0010
0001
0000
1000
0000
0020
0000
0000
0000
,
0130
0000
0001
0000
1000
0000
0000
0100
1000
0000
0010
0000
0100
0000
0000
0001
,
0100
0000
0010
0000
1000
0000
0000
0001
0010
0000
0100
0000
0020
0000
0000
0000
,
0031
1000
0001
0000
1000
0000
0000
0010
0100
0000
0001
0000
0020
0000
0000
0000
,
0130
0000
1000
0000
0001
0000
0000
0100
0010
0000
1000
0000
0200
0000
0000
0000
,
0310
0000
0001
0000
1000
0000
0000
0010
1000
0000
0001
0000
0010
0000
0000
0001
,
0010
0000
0001
0000
0100
0000
0000
0110
0000
0000
1000
0000
0002
0000
0000
0000
,
0013
0000
0100
0000
0110
0000
0000
0010
0001
0000
0100
0000
0020
0000
0000
0000
,
1030
0000
0001
0000
0100
0000
0000
0010
1000
0000
0100
0000
0020
0000
0000
0000
,
0130
0000
1000
0000
0001
0000
0000
0100
0001
0000
1000
0000
0100
0000
0000
1000
,
0100
0000
0010
0000
0001
0000
0000
0100
0001
0000
1000
0000
0020
0000
0000
0000
,
1030
0001
1000
0000
0001
0000
0000
0010
0001
0000
0100
0000
0020
0000
0000
0000
,
1030
0000
0100
0000
0010
0000
0000
0100
1000
0000
0001
0000
0020
0000
0000
0000
,
0031
1000
0010
0010
0100
0000
0001
0001
,
1000
0000
0000
0000
0100
0000
0000
1100
0000
0000
0001
0000
0010
0000
0000
0011
,
0000
0000
1000
0000
1010
0000
0000
1010
0000
0000
0001
0000
0202
0000
0000
0000
,
0303
0000
0000
0000
0011
0000
0000
0011
0000
0000
1000
0000
2200
0000
0000
0000
,
3300
0000
0000
0000
0001
0000
0000
0100
0000
0000
0001
0000
1000
0000
0000
0100
,
0000
0000
1000
0000
0010
0000
0000
0100
0000
0000
0001
0000
1000
0000
0000
0000
,
0001
0000
0010
0000
0011
0000
0000
0011
0000
0000
0110
0000
2002
0000
0000
0000
,
3003
0000
0000
0000
1010
0000
0000
1010
0000
0000
0110
0000
0202
0000
0000
0000
,
0303
0000
0000
0000
0001
0000
0000
0010
0001
0000
0100
0000
0010
0000
0000
1000
,
0010
0000
1000
0000
0100
0000
0000
1100
0000
0000
0001
0000
0010
0000
0000
0011
,
0000
0000
0001
0000
1000
0000
0000
0010
0100
0000
0001
0000
0010
0001
0000
0001
,
1000
0100
0020
0000
0000
0000
0000
0000
,
0000
0000
0000
0000
,
0000
0000
0030
0000
;

//--------------- dance-single - forcednature ----------------
#NOTEDATA:;
#STEPSTYPE:dance-single;
#DESCRIPTION:forcednature;
#DIFFICULTY:Hard;
#METER:16;
#RADARVALUES:0,0,0,0,0;
#CREDIT:forcednature;
#NOTES:
0000
0000
0000
0000
,
0000
0000
0000
0000
,
0000
0000
0000
0000
,
0000
0000
0000
0000
,
0000
0000
0000
0000
,
0001
0000
0000
0001
0000
0000
0100
0000
0020
0000
0000
0000
1030
0000
0001
0000
,
0010
0000
0000
0010
0000
0000
0100
0000
2000
0000
0000
0000
3001
0000
0100
0000
,
0010
0000
0000
0010
0000
0000
1000
0000
0001
0000
0000
0001
0000
0000
0010
0000
,
0200
0000
0000
1000
0000
0000
1000
0000
0310
0000
0001
0010
0001
0000
0000
0000
,
1001
0000
0000
0000
1000
0000
0010
0000
1000
0000
0100
0000
1000
0000
0010
1000
,
0001
0010
0001
0100
0001
0010
0001
0100
,
0010
1000
0010
1000
0010
0000
0100
0000
0001
1000
0001
1000
0001
0000
0010
0000
,
0100
0000
1000
0000
0100
0000
1000
0000
0001
0100
0010
1000
0100
0000
0000
0000
,
1001
0000
0000
0000
0011
0000
0000
0001
0100
0000
0010
0000
1000
0000
0100
0000
,
0010
0000
0100
0000
1000
0001
0010
0000
0010
0000
0010
0000
0001
0000
0010
0000
,
0100
0000
0000
0000
1001
0000
0000
0001
0010
0000
0100
0000
0010
0000
0001
0000
,
1000
0000
0010
0000
0100
0010
0100
0000
0001
0000
0010
0000
0100
0000
0000
0000
,
1001
0000
0000
0000
1010
0000
0000
1000
0100
0000
0010
0000
0001
0000
0100
0000
,
0010
0000
0100
0000
0001
1000
0010
0000
0010
0000
0010
0000
1000
0000
0010
0000
,
0100
0000
0000
0000
1001
0000
0000
1000
0010
0000
0100
0000
0010
0000
1000
0000
,
0001
0000
0010
0001
0000
0100
0010
0100
0010
0000
1000
0100
0010
0000
0001
0000
,
0100
0000
0001
0000
0100
0010
0100
0000
0010
0000
1000
0000
0100
1000
0001
0000
,
0010
0000
0001
0000
0100
0010
0100
0000
0010
0000
1000
0000
0100
0000
0001
0000
,
0100
0000
1000
0000
0001
0010
0001
0000
1000
0000
0010
0000
0100
0001
1000
0000
,
0010
0000
0100
0000
0001
1000
0001
1000
0200
0000
0000
0000
0310
0000
0001
0000
,
1001
0000
1000
0000
0010
0100
0010
0000
0100
0000
0001
0000
0010
0001
1000
0000
,
0100
0000
1000
0000
0010
1000
0010
0000
0100
0000
0001
0000
1000
0100
0010
0000
,
0001
0000
0100
0000
0010
0100
0010
0000
1010
0000
0000
1010
0000
0000
1010
0000
,
0001
0000
0010
0001
0000
1000
0001
0000
0100
0010
0100
0010
1000
0000
0100
0000
,
1001
0000
0000
0000
0001
0100
0001
0000
0100
0010
0100
0000
0010
1000
0010
0000
,
1000
0100
1000
0000
0100
0010
0100
0000
0010
0001
1000
0000
0100
1000
0001
0000
,
0100
0001
0100
0000
0010
0100
0010
0000
1000
0010
1000
0000
0001
0010
0001
0000
,
1000
0100
0010
0000
0001
0100
0010
0000
2000
0000
3002
0000
0023
0000
0230
0000
,
1300
0001
0100
0000
0010
0100
0010
0000
1000
0001
0010
0000
0100
0010
0100
0000
,
1000
0010
1000
0000
0001
0010
0001
0000
0100
0010
1000
0000
0100
0010
0001
0000
,
1001
0000
0000
1100
0000
0000
1010
0000
0000
0000
0011
0000
0000
0000
0110
0000
,
0001
0000
1000
0000
0000
0000
0100
0010
0001
0000
0100
0010
1000
0000
0100
0000
,
2002
0000
0000
0000
,
0000
0000
0000
0000
0000
3003
0000
0001
,
0100
0000
0000
0100
0000
0000
0010
0000
1000
0000
0000
0001
0000
0000
0010
0000
,
0100
0000
0000
0010
0000
0000
0001
0000
1000
0000
0010
0000
0100
0000
0001
0000
,
0011
0000
0000
1000
0000
0000
0100
0000
0001
0000
0000
0000
0100
0000
1000
0000
,
1010
0000
0000
0001
0000
0000
0100
0000
1000
0000
0000
0000
0100
0000
0001
0000
,
0011
0000
0000
1000
0000
0000
0010
0000
0100
0000
0000
0001
0000
0000
0010
0000
,
2002
0000
0000
0000
0000
0000
3003
0000
1010
0000
0000
0101
0000
0000
0011
0000
,
1001
0000
0000
0000
0001
1000
0001
0000
0011
0000
0000
1100
0000
0000
1010
0000
,
1001
0000
0000
0000
1000
0001
1000
0000
0200
0000
0000
0010
0000
0000
0010
0000
,
2300
0000
0000
0001
0000
0000
0010
0000
3002
0000
0000
0100
0000
0000
1000
0000
,
0023
0000
0000
0000
0130
1000
0001
0010
0100
0000
0000
1100
0000
0000
0011
0000
,
1001
0000
0000
0000
1000
0010
0100
0000
0110
0000
0000
0101
0000
0000
1010
0000
,
1001
0000
0000
0000
0001
0010
0100
0000
2000
0000
0000
0010
0000
0000
0001
0000
,
3200
0000
0000
0010
0000
0000
1000
0000
0320
0000
0000
0001
0000
0000
0100
0000
,
0032
0000
0000
0000
1003
0000
0001
0000
1001
0000
0000
1000
0010
0000
0100
0000
,
0001
0000
0000
0001
0010
0000
0100
0000
1000
0000
0000
1000
0010
0000
0100
0000
,
0001
0000
0000
0001
0010
0000
0100
0000
0010
0000
0000
0001
1000
0000
0001
0100
,
0001
0000
0000
1000
0010
0000
1000
0100
1000
0000
0000
0001
0010
0000
0100
0010
,
0100
0000
0000
1000
0001
0000
0010
0001
1000
0000
0010
0000
0100
0000
0010
0000
,
1000
0000
0100
0000
0010
0000
0100
0000
1000
0001
0010
0000
0001
1000
0010
0000
,
0100
0000
0010
0000
0100
0000
0010
0000
1000
0000
0001
0000
0100
0000
0010
0000
2000
0000
0000
0000
0000
0000
0000
0000
3001
0000
0010
0001
0000
0010
0100
0000
,
1000
0001
1000
0001
0200
0000
0300
0000
0010
0000
0000
0000
1000
0000
0100
0000
0000
0000
1000
0000
0001
0000
0000
0000
0020
0000
0000
0000
0230
0000
0000
0000
,
0310
0001
1000
0000
0010
0000
0100
0001
0000
0100
0010
0000
2000
0000
3002
0000
,
0013
0100
1000
0000
0001
0000
0001
0100
0000
0100
0010
0000
1000
0000
1000
0100
,
0000
0100
0010
0000
0001
0000
1000
0010
0000
0100
0001
0000
2000
0000
0000
0000
,
3001
0010
0100
1000
0001
0000
0100
0010
0000
1000
0100
0000
0002
0000
0203
0000
,
1300
0001
0010
0000
0001
0000
0010
0100
0000
1000
0010
0000
0002
0000
0023
0000
,
1030
0001
0100
0000
0010
0000
0010
1000
0000
1000
0100
0000
0010
0000
0010
0001
,
0000
0001
0100
0000
0110
0000
0000
1010
0000
0000
1000
0001
0020
0000
0000
0000
,
0031
0000
1000
0000
0010
0000
0100
0010
0000
0100
0001
0100
0002
0000
2003
0000
,
3010
0100
0001
0000
1000
0000
0100
0010
0000
0100
1000
0100
2000
0000
3002
0000
,
0013
0100
1000
0000
0001
0000
0100
0010
0000
1000
0010
1000
0100
0000
0010
0001
,
0000
0010
0100
0010
0100
0000
1000
0001
0000
0100
0010
1000
0020
0000
0000
0000
,
1030
0100
0010
0001
1000
0000
0010
0100
0000
0001
0100
0001
0020
0000
0230
0000
,
0310
0001
1000
0000
0100
0000
1000
0010
0000
0100
0010
0100
0002
0000
2003
0000
,
3100
1000
0001
0000
0010
0000
0100
0010
0100
0000
1000
0000
0010
0000
0100
0010
,
0100
0000
0001
0000
0011
0000
0000
0110
0000
0000
1100
0000
1010
0000
0000
0110
,
0000
0000
0101
0000
1001
0000
0000
0110
0000
0000
0110
0000
2001
0000
0000
0000
,
3001
0010
0100
0000
0110
0000
0000
1001
0000
0000
0110
0000
1002
0000
0000
0000
,
1003
0001
0100
0000
0010
0000
0000
1000
0100
0000
1000
0000
0001
0000
0000
0010
,
0001
0000
0100
0000
0010
0000
0000
1000
0001
0000
0010
0000
0200
0000
0000
0000
,
0310
0001
1000
0100
0010
0000
0000
1001
0000
0000
0110
0000
1002
0000
0000
0000
,
1003
0001
0010
0000
1001
0000
0000
0110
0000
0000
0110
0000
2001
0000
0000
0000
,
3010
0100
0001
0000
0010
0000
0100
0010
0000
0100
1000
0100
1000
0000
0001
0100
,
0000
0010
0100
0010
1000
0000
0000
1001
0000
0000
1100
0000
0011
0000
0000
0101
,
0000
0000
0110
0000
0010
1000
0000
0100
1000
0100
1000
0001
0010
0001
0000
0100
,
0001
1000
0010
0100
0002
0000
0000
0000
0000
0000
0000
0000
0000
0000
0000
0000
,
0000
0000
0000
0000
,
0000
0000
0003
0000
;

//--------------- dance-double - forcednature ----------------
#NOTEDATA:;
#STEPSTYPE:dance-double;
#DESCRIPTION:forcednature;
#DIFFICULTY:Easy;
#METER:9;
#RADARVALUES:0,0,0,0,0;
#CREDIT:forcednature;
#NOTES:
00000000
00000000
00000000
00000000
,
00000000
00000000
00000000
00000000
,
00000000
00000000
00000000
00000000
,
00000000
00000000
00000000
00000000
,
00000000
00000000
00000000
00000000
,
00010000
00001000
00100000
00000000
,
00001000
00010000
00000010
00000000
,
00001000
00000001
00000100
00000001
,
00000010
00000000
00000100
00000000
,
00001001
00001000
00000100
00010000
,
00001000
00001000
00100000
00010000
,
01000000
00100000
10000000
00010000
,
01000000
00000000
00100000
01100000
,
00000000
10000000
00010000
01010000
,
00000000
00001000
00001000
00010000
,
00000000
00000100
00001000
00001010
,
00000000
00000001
00000010
00000100
,
00000000
00010000
00001000
00011000
,
00000000
00100000
00100000
00010000
,
00000000
01000000
00100000
01100000
,
00000000
10000000
00010000
00000000
,
01000000
00100000
10000000
00100000
,
01000000
00010000
00100000
00010000
,
01000000
00001000
00010000
00001000
,
00010000
00000010
00001000
00000000
,
00000001
00000010
00000100
00000010
,
00000001
00001000
00000100
00001000
,
00000100
00010000
00001000
00100000
,
00020000
00000000
01030000
00100000
,
10010000
10000000
00100000
10000000
,
00010000
00100000
00001000
00010000
,
00000010
00001000
00000010
00010000
,
00001000
00001000
00010000
00000000
,
00011000
00000100
00001000
00000100
,
00000010
00000001
00001000
00000001
,
00000010
00000000
00000010
00000000
00000000
00000100
00000000
00000100
,
00000010
00000000
00000001
00001000
,
00002002
00000000
00000000
00000000
,
00000000
00000000
00000000
00000000
,
00000000
00000000
00000000
00000000
,
00000000
00000000
00003003
00000000
,
00010000
00010000
00001000
00000000
,
01000000
00010000
01000000
00000000
,
00100000
10000000
00010000
10000000
,
02000000
00000000
00000000
03000000
00100000
00000000
00010000
00000000
,
10010000
00000000
00100000
10000000
,
10010000
00000000
00020000
00030000
,
02000000
03000000
00002000
00003000
,
00020000
00030000
00000100
00001000
,
00001001
00000000
00000100
00000001
,
00001001
00000000
00002000
00003000
,
00000010
00000000
00020000
00030000
,
00002000
00003000
00100000
00010000
,
00100000
00010000
01000000
00000000
,
00100000
00000000
10000000
01000000
,
10000000
01000000
00100000
00000000
,
00010000
00000000
01000000
01000000
,
00001000
00010000
00000100
00000100
,
00001000
00000000
00000100
00000000
00000020
00000000
00000031
00000001
,
00002000
00003000
00000010
00000000
00000100
00000000
00000110
00000000
,
00000000
00001000
00000001
00001001
,
00000000
00001000
00000100
00010000
,
00001000
00100000
00010000
00200000
,
00300000
01000000
00100000
01100000
,
00000000
00010000
10000000
10010000
,
00000000
00010000
01000000
00001000
,
00010000
00000010
00000010
00002000
,
00003000
00000100
00000010
00000110
,
00000100
00010000
00001000
00011000
,
00010000
00001000
00100000
00010000
,
01000000
00100000
10000000
00010000
,
00100000
00001000
00010000
00011000
,
00001000
00010000
00000100
00010100
,
00010000
00001000
00000010
00000100
,
00000010
00000002
00000003
00002000
,
00003000
00000000
00000000
00000000
00000010
00000000
00000000
00000100
00000000
00000000
00000010
00000000
00000200
00000000
00000000
00000000
,
00000300
00000000
00000000
00000000
00001000
00000000
00000000
00010000
00000000
00000000
00001000
00000000
00020000
00000000
00000000
00000000
,
00030000
00100000
00100000
01000000
,
00100000
10000000
10000000
01000000
,
10000000
00000000
00000000
00000000
00010000
00000000
00000000
00100000
00000000
00000000
00010000
00000000
20000000
00000000
00000000
00000000
,
30000000
00000000
00000000
00000000
01000000
00000000
00000000
00100000
00000000
00000000
01000000
00000000
20000000
00000000
00000000
00000000
,
30000000
00010000
01000000
00001000
,
00010000
00000000
00000000
00000000
00000100
00000000
00000000
00000100
00000000
00000000
00001000
00000000
00000100
00000000
00000000
00000100
,
00000000
00000000
00000010
00000000
00000001
00000000
00000000
00000001
00000000
00000000
00000100
00000000
00000010
00000000
00000000
00010000
,
00000000
00002000
00000000
00000000
00000000
00000000
00000000
00000000
,
00000000
00000000
00000000
00000000
,
00000000
00000000
00003000
00000000
;

//--------------- dance-double - forcednature ----------------
#NOTEDATA:;
#STEPSTYPE:dance-double;
#DESCRIPTION:forcednature;
#DIFFICULTY:Medium;
#METER:13;
#RADARVALUES:0,0,0,0,0;
#CREDIT:forcednature;
#NOTES:
00000000
00000000
00000000
00000000
,
00000000
00000000
00000000
00000000
,
00000000
00000000
00000000
00000000
,
00000000
00000000
00000000
00000000
,
00000000
00000000
00000000
00000000
,
00001000
00000000
00000000
00010000
00000000
00000000
00010000
00000000
00000020
00000000
00000000
00000000
00000000
00000000
00000030
00000000
,
00001000
00000000
00000000
00000001
00000000
00000000
00000100
00000000
00000002
00000000
00000000
00000000
00000000
00000000
00000003
00000000
,
00000010
00000000
00000000
00000100
00000000
00000000
00001000
00000000
00000100
00000000
00000000
00010000
00000000
00000000
00001000
00000000
,
02000000
00000000
03200000
10300000
,
10020000
00000000
00100000
00000000
10000000
00000000
01030000
00010000
,
00100000
00001000
00100000
00001000
00010000
00000100
00010000
00000100
,
00001000
00000010
00000100
00000001
00000010
00000100
00010000
00001000
,
00200000
00000000
00000000
00000000
00310000
10000000
10010000
00000000
,
00110000
00000000
10000000
01000000
00010000
00001000
00010000
00000000
,
00001000
00000010
00000100
00000100
00000010
00000010
00000100
00000100
,
00000010
00000000
00000000
00000000
00000001
00000000
00000000
00000001
00000000
00000000
00000100
00000000
00001000
00000000
00000000
00000000
,
00010000
00100000
00010000
00000000
00001000
00000010
00001000
00000000
,
00011000
00000000
00010000
01000000
10000000
01000000
00010000
00000000
,
00001000
00100000
01000000
01000000
00100000
00100000
01000000
01000000
,
00100000
00000000
00000000
00000000
00010000
00000000
00000000
00010000
00000000
00000000
10000000
00000000
00100000
00000000
00000000
00000000
,
00020000
00000000
00000000
00032000
00000000
00000000
00023000
00000000
00030200
00000000
00000000
00000000
00001300
00000000
00000010
00000000
,
00000110
00000000
00000001
00001000
00000100
00001000
00000001
00001000
,
00000010
00000100
00001000
00010000
00100000
01000000
00100000
10000000
,
01000000
00100000
01000000
00010000
00001000
00100000
00010000
00100000
,
00001000
00000000
00010000
00000100
00001000
00000010
00010000
00000000
,
00011000
00000000
01000000
00010000
00100000
00010000
10000000
00010000
,
00100000
01000000
00010000
00001000
00100000
00001000
00010000
00000100
,
00001000
00000000
00000010
00000000
00000100
00000000
00000010
00000000
00000001
00000000
00000000
00000001
00000000
00000000
00000010
00000000
,
00002000
00000000
00000000
00003200
00000000
00000000
00020300
00000000
00032000
00000000
00000000
00000000
00103000
00000000
00010000
00000000
,
01000000
00100000
10000000
01000000
00100000
00010000
01000000
00100000
,
00010000
00100000
01000000
00001000
00010000
00000010
00001000
00000100
,
00000010
00001000
00000010
00000100
00001000
00000001
00000100
00001000
,
00010000
00001000
00010000
00100000
20000000
00000000
31000000
01000000
,
00100000
10000000
00100000
00010000
01000000
00001000
00010000
00000010
,
00001000
00000100
00000001
00000100
00001000
00000010
00010000
00001000
,
00100000
00000000
00000000
00010000
00000000
00000000
00110000
00000000
00000000
00000000
11000000
00000000
00000000
00000000
10000000
00000000
,
00200000
00000000
00000000
00000000
00000000
00000000
00300000
00000000
00010000
00000000
00001000
00010000
00001000
00000000
00000000
00000000
,
00022000
00000000
00000000
00000000
,
00000000
00000000
00000000
00000000
,
00000000
00000000
00000000
00000000
,
00000000
00000000
00033000
00000000
,
00000010
00000000
00000000
00000010
00000000
00000000
00001000
00000000
00000002
00000000
00000000
00000000
00000103
00000000
00000010
00000000
,
00001000
00000000
00000000
00001000
00000000
00000000
00000100
00000000
00020000
00000000
00000000
00000000
00031000
00000000
00100000
00000000
,
00010000
00000000
00000000
01000000
00000000
00000000
00010000
00000000
10000000
00000000
00000000
01000000
00000000
00000000
10000000
00000000
,
00200000
00000000
00000000
00000000
00000000
00000000
00300000
00000000
01000000
00000000
00000000
01010000
00000000
00000000
10000000
00000000
,
00200000
00000000
00000000
00000000
10300000
00000000
00010000
00000000
00100000
00000000
00000000
00110000
00000000
00000000
00001000
00000000
,
00020000
00000000
00000000
00000000
00030100
00000000
00001000
00000000
00000010
00000000
00000000
00000010
00000000
00000000
00000100
00000000
,
00000001
00000000
00000000
00001000
00000000
00000000
00000100
00000000
00010000
00000000
00000000
00001000
00000000
00000000
00010000
00000000
,
00000020
00000000
00000000
00000000
00001030
00000000
00000001
00000000
00000010
00000000
00000000
00000011
00000000
00000000
00001000
00000000
,
00001100
00000000
00000000
00000000
00010000
00000000
00001000
00000000
01000000
00000000
00000000
01010000
00000000
00000000
10000000
00000000
,
10100000
00000000
00000000
00000000
00010000
00000000
00100000
00000000
00001000
00000000
00000000
00001000
00000000
00000000
00010000
00000000
,
00000100
00000000
00000000
00001000
00000000
00000000
00000010
00000000
00000100
00000000
00000000
00000001
00000000
00000000
00001000
00000000
,
00000100
00000000
00010000
00000010
00002000
00000000
00000100
00000000
,
00000001
00000010
00023000
01000000
,
10000000
00100000
00032000
00000100
,
00000001
00000010
00023000
01000000
,
10000000
00000000
00100000
00000000
00031000
00000100
00001000
00000010
,
00000100
00000001
00000010
00000001
00000100
00001000
00010000
00001000
,
00010000
00000000
00000000
00000000
00100000
00000000
00000000
00000000
10000000
00000000
00000000
00000000
00010000
00000000
00000000
00000000
02000000
00000000
00000000
00000000
00000000
00000000
00000000
00000000
03100000
00000000
00000000
10000000
00000000
00000000
01000000
00000000
,
00020000
00000000
00031000
00000000
00011000
00000000
00000000
00000100
00001000
00000000
00000010
00000000
00000200
00000000
00000000
00000000
,
00000301
00000000
00000010
00000000
00000100
00000000
00000000
00000010
00000001
00000000
00001000
00000000
00000200
00000000
00000000
00000000
,
00010300
00000000
00001000
00000000
00100000
00000000
00000000
00010000
01000000
00000000
00100000
00000000
10000000
00000000
00000000
01000000
,
10000000
00000000
00010000
00000000
00100000
00000000
00000000
00001000
00010000
00000000
00000100
00000000
00002000
00000000
00000000
00000000
,
00003010
00001000
00000010
00000000
00000100
00000000
00000000
00000001
00000010
00000000
00000001
00000000
00002000
00000000
00000000
00000000
,
00003100
00000000
00010000
00000000
00001000
00000000
00000000
01000000
00010000
00000000
10000000
00000000
00200000
00000000
00000000
00000000
,
01300000
00000000
00010000
00000000
10000000
00000000
00000000
01000000
10000000
00000000
00010000
00000000
00100000
00000000
00000000
00010000
,
00100000
00000000
00001000
00000000
00010000
00000000
00000000
00011000
00000000
00000000
00000100
00000000
00002000
00000000
00000000
00000000
,
00003010
00000000
00000100
00000000
00000110
00000000
00000000
00000001
00000010
00000000
00000001
00000000
00002000
00000000
00000000
00000000
,
00003010
00000000
00010000
00000000
00001000
00000000
00000000
00100000
00010000
00000000
01000000
00000000
00200000
00000000
00000000
00000000
,
10300000
00000000
01000000
00000000
10000000
00000000
00000000
00010000
00100000
00000000
00010000
00000000
01000000
00000000
00000000
00001000
,
00010000
00000000
00001000
00000000
00010000
00000000
00000000
00000100
00001000
00000000
00000010
00000000
00000200
00000000
00000000
00000000
,
00000301
00001000
00000001
00000000
00000010
00000000
00000000
00000100
00001000
00000000
00000100
00000000
00020000
00000000
00000000
00000000
,
00031000
00000000
00100000
00000000
00010000
00000000
00000000
01000000
00100000
00000000
10000000
00000000
02000000
00000000
00000000
00000000
,
03100000
00001000
00010000
00010000
00000100
00000000
00010000
00010000
,
00000010
00000000
00000000
00000000
00000100
00000000
00000000
00001000
00000000
00000000
00010000
00000000
01000000
00000000
00000000
00010000
,
00000000
00000000
00001000
00000000
00011000
00000000
00000000
00011000
00000000
00000000
00100000
00000000
00220000
00000000
00000000
00000000
,
00330000
00000000
00000000
00000000
00011000
00000000
00000000
00011000
00000000
00000000
00000010
00000000
00002020
00000000
00000000
00000000
,
00003030
00000000
00000000
00000000
00000001
00000000
00000000
00000100
00000000
00000000
00000001
00000000
00000010
00000000
00000000
00001000
,
00000000
00000000
00010000
00000000
00100000
00000000
00000000
10000000
00000000
00000000
01000000
00000000
00010000
00000000
00000000
00000000
,
00001000
00000000
00100000
00000000
00110000
00000000
00000000
00101000
00000000
00000000
00011000
00000000
00020200
00000000
00000000
00000000
,
00030300
00000000
00000000
00000000
00001010
00000000
00000000
00010010
00000000
00000000
00011000
00000000
02002000
00000000
00000000
00000000
,
03003000
00000000
00000000
00000000
01000000
00000000
00000000
00010000
00100000
00000000
00001000
00000000
00010000
00000000
00000000
00000100
,
00010000
00000000
00001000
00000000
00000010
00000000
00000000
00000010
00000000
00000000
00000001
00000000
00000100
00000000
00000000
00001000
,
00000000
00000000
00010000
00000000
01000000
00000000
00000000
00100000
01000000
00000000
10000000
00000000
00010000
00000000
00000000
00100000
,
00001000
00010000
00022000
00000000
00000000
00000000
00000000
00000000
,
00000000
00000000
00000000
00000000
,
00000000
00000000
00033000
00000000
;

//--------------- dance-double - forcednature ----------------
#NOTEDATA:;
#STEPSTYPE:dance-double;
#DESCRIPTION:forcednature;
#DIFFICULTY:Hard;
#METER:17;
#RADARVALUES:0,0,0,0,0;
#CREDIT:forcednature;
#NOTES:
00000000
00000000
00000000
00000000
,
00000000
00000000
00000000
00000000
,
00000000
00000000
00000000
00000000
,
00000000
00000000
00000000
00000000
,
00000000
00000000
00000000
00000000
,
00010000
00000000
00000000
00010000
00000000
00000000
00001000
00000000
00200000
00000000
00000000
00000000
00310000
00000000
10000000
00000000
,
00100000
00000000
00000000
00100000
00000000
00000000
01000000
00000000
00002000
00000000
00000000
00000000
00013000
00000000
00000010
00000000
,
00001000
00000000
00000000
00001000
00000000
00000000
00000100
00000000
00000010
00000000
00000000
00000010
00000000
00000000
00000001
00000000
,
00000200
00000000
00000000
00000001
00000000
00000000
00000001
00000000
00000310
00000000
00001000
00000010
00001000
00000000
00000000
00000000
,
00001001
00000000
00000001
00000010
00000001
00000100
00001000
00010000
,
01000000
10000000
00100000
10000000
01000000
00010000
00001000
00000100
,
00000001
00001000
00000001
00001000
00000001
00000000
00000010
00000000
00000100
00001000
00000100
00001000
00000100
00000000
00010000
00000000
,
00001000
00000000
00001000
00000000
00100000
00000000
00001000
00000000
00010000
00000100
00001000
00000010
00000100
00000000
00000000
00000000
,
00011000
00000000
00000000
00000000
00100000
00000000
00000000
00100000
00010000
00000000
01000000
00000000
00200000
00000000
00000000
00000000
,
10300000
00000000
01000000
00000000
10000000
00010000
00100000
00000000
00100000
00000000
00100000
00000000
00001000
00000000
00010000
00000000
,
00000100
00000000
00000000
00000000
00011000
00000000
00000000
00000010
00001000
00000000
00000001
00000000
00000200
00000000
00000000
00000000
,
00001300
00000000
00010000
00000000
00001000
00100000
00001000
00000000
00100000
00000000
00010000
00000000
01000000
00000000
00000000
00000000
,
10010000
00000000
00000000
00000000
00100000
00000000
00000000
10000000
01000000
00000000
00010000
00000000
00002000
00000000
00000000
00000000
,
00003010
00000000
00000100
00000000
00001000
00000100
00000010
00000000
00000010
00000000
00000010
00000000
00000001
00000000
00000100
00000000
,
00001000
00000000
00000000
00000000
00011000
00000000
00000000
00100000
00010000
00000000
01000000
00000000
00200000
00000000
00000000
00000000
,
10300000
00000000
01000000
10000000
00000000
00010000
00100000
00010000
00100000
00000000
00010000
01000000
00001000
00000000
00010000
00000000
,
00000100
00000000
00001000
00000000
00000010
00001000
00000010
00000000
00000100
00000000
00000001
00000000
00000010
00000001
00000010
00000000
,
00000100
00000000
00010000
00000000
00001000
00010000
00001000
00000000
00100000
00000000
00010000
00000000
01000000
00000000
00100000
00000000
,
10000000
00000000
01000000
00000000
00100000
00010000
00100000
00000000
00001000
00000000
00010000
00000000
00000010
00001000
00000001
00000000
,
00000100
00000000
00001000
00000000
00010000
00001000
00010000
00001000
02000000
00000000
00000000
00000000
03100000
00000000
10000000
00000000
,
10010000
00000000
00010000
00000000
00100000
01000000
00100000
00000000
01000000
00000000
00010000
00000000
00001000
00010000
00001000
00000000
,
00100000
00000000
00010000
00000000
00100000
00001000
00010000
00000000
00000100
00000000
00001000
00000000
00000010
00000100
00000001
00000000
,
00000010
00000000
00001000
00000000
00000010
00000100
00000010
00000000
00000110
00000000
00000000
00001100
00000000
00000000
00000110
00000000
,
00000001
00000000
00000001
00000100
00000000
00000100
00001000
00000000
00010000
00001000
00010000
00001000
01000000
00000000
00100000
00000000
,
10010000
00000000
00000000
00000000
10000000
01000000
10000000
00000000
01000000
00100000
01000000
00000000
00100000
00010000
00100000
00000000
,
00001000
00010000
00001000
00000000
01000000
00010000
01000000
00000000
00001000
00010000
00000010
00000000
00001000
00000100
00010000
00000000
,
00000010
00001000
00000010
00000000
00000100
00000010
00000100
00000000
00000001
00000100
00000001
00000000
00000010
00000001
00000010
00000000
,
00000100
00010000
00001000
00000000
00100000
00001000
00010000
00000000
02000000
00000000
23000000
00000000
30200000
00000000
00320000
00000000
,
00130000
10000000
00100000
00000000
01000000
00100000
01000000
00000000
00010000
00100000
00001000
00000000
00010000
00001000
00010000
00000000
,
00000100
00001000
00000100
00000000
00001000
00000010
00001000
00000000
00000010
00000100
00000001
00000000
00000010
00000100
00001000
00000000
,
00001100
00000000
00000000
00010100
00000000
00000000
00011000
00000000
00000000
00000000
00101000
00000000
00000000
00000000
01010000
00000000
,
00100000
00000000
10000000
00000000
00000000
00000000
01000000
00100000
00010000
00000000
01000000
00001000
00010000
00000000
00000010
00000000
,
00022000
00000000
00000000
00000000
,
00000000
00000000
00000000
00000000
00000000
00033000
00000000
00001000
,
00000010
00000000
00000000
00000010
00000000
00000000
00000001
00000000
00000100
00000000
00000000
00001000
00000000
00000000
00000100
00000000
,
00000001
00000000
00000000
00000010
00000000
00000000
00001000
00000000
00010000
00000000
01000000
00000000
10000000
00000000
00100000
00000000
,
00010000
00000000
00000000
00100000
00000000
00000000
10000000
00000000
01000000
00000000
00000000
00000000
00010000
00000000
00001000
00000000
,
00000010
00000000
00000000
00000001
00000000
00000000
00000100
00000000
00001000
00000000
00000000
00000000
00000100
00000000
00000001
00000000
,
00000010
00000000
00000000
00001000
00000000
00000000
00010000
00000000
00100000
00000000
00000000
10000000
00000000
00000000
01000000
00000000
,
00020000
00000000
00000000
00000000
00000000
00000000
00031000
00000000
00011000
00000000
00000000
00001100
00000000
00000000
00001010
00000000
,
00000110
00000000
00000000
00000000
00000100
00000001
00000100
00000000
00000110
00000000
00000000
00001010
00000000
00000000
00010100
00000000
,
00011000
00000000
00000000
00000000
00100000
00010000
00100000
00000000
02000000
00000000
00000000
10000000
00000000
00000000
10000000
00000000
,
03200000
00000000
00000000
01000000
00000000
00000000
00010000
00000000
00302000
00000000
00000000
00100000
00000000
00000000
00013000
00000000
,
00000200
00000000
00000000
00000000
00000310
00000001
00001000
00000100
00000010
00000000
00000000
00000110
00000000
00000000
00010100
00000000
,
00011000
00000000
00000000
00000000
00100000
00010000
00100000
00000000
01100000
00000000
00000000
11000000
00000000
00000000
10100000
00000000
,
01010000
00000000
00000000
00000000
00010000
00100000
00010000
00000000
02000000
00000000
00000000
10000000
00000000
00000000
00010000
00000000
,
03002000
00000000
00000000
00010000
00000000
00000000
00100000
00000000
00023000
00000000
00000000
00000100
00000000
00000000
00001000
00000000
,
00030020
00000000
00000000
00000000
00000130
00000000
00000001
00000000
00001001
00000000
00000000
00001000
00000100
00000000
00010000
00000000
,
00001000
00000000
00000000
00001000
00100000
00000000
00010000
00000000
01000000
00000000
00000000
01000000
00100000
00000000
10000000
00000000
,
01000000
00000000
00000000
01000000
00010000
00000000
00001000
00000000
00100000
00000000
00000000
00100000
00001000
00000000
00010000
00001000
,
00010000
00000000
00000000
00000100
00001000
00000000
00000010
00001000
00000010
00000000
00000000
00000100
00000001
00000000
00000010
00000001
,
00000010
00000000
00000000
00000100
00010000
00000000
00001000
00010000
00001000
00000000
00100000
00000000
01000000
00000000
00100000
00000000
,
00001000
00000000
01000000
00000000
00100000
00000000
01000000
00000000
00010000
10000000
00100000
00000000
10000000
00010000
00100000
00000000
,
00001000
00000000
00010000
00000000
00001000
00000000
00010000
00000000
00000100
00000000
00001000
00000000
00000010
00000000
00000100
00000000
00000002
00000000
00000000
00000000
00000000
00000000
00000000
00000000
00000013
00000000
00001000
00000010
00000000
00001000
00010000
00000000
,
00001000
00100000
00010000
00100000
02000000
00000000
03000000
00000000
10000000
00000000
00000000
00000000
00100000
00000000
01000000
00000000
00000000
00000000
00010000
00000000
01000000
00000000
00000000
00000000
00002000
00000000
00000000
00000000
00023000
00000000
00000000
00000000
,
00030010
00001000
00000001
00000000
00000010
00000000
00000100
00000001
00000000
00000100
00001000
00000000
00000200
00000000
00020300
00000000
,
00031000
00100000
00010000
00000000
01000000
00000000
01000000
00100000
00000000
00100000
10000000
00000000
01000000
00000000
01000000
00010000
,
00000000
00010000
00001000
00000000
00010010
00000000
00000100
00001000
00000000
00000001
00000010
00000000
00000200
00000000
00000000
00000000
,
00000310
00000001
00001000
00000010
00000100
00000000
00000010
00001000
00000000
00000100
00010000
00000000
00002000
00000000
00023000
00000000
,
00031000
00100000
00010000
00000000
01000000
00000000
00100000
00010000
00000000
00100000
10000000
00000000
02000000
00000000
23000000
00000000
,
30010000
00100000
00001000
00000000
00010000
00000000
00010000
00000100
00000000
00000100
00001000
00000000
00000010
00000000
00000010
00000100
,
00000000
00000100
00000001
00000000
00000011
00000000
00000000
00001100
00000000
00000000
00010000
00001000
00200000
00000000
00000000
00000000
,
00310000
00000000
01000000
00000000
00100000
10000000
01000000
10000000
00000000
00010000
00100000
00010000
00200000
00000000
00302000
00000000
,
00013000
00000100
00001000
00000000
00000010
00000000
00000100
00000001
00000000
00001000
00000010
00000100
00000020
00000000
00020030
00000000
,
00031000
01000000
00010000
00000000
00100000
00000000
01000000
10000000
00000000
01000000
00100000
00010000
00100000
00000000
00001000
00010000
,
00000000
00000100
00001000
00000010
00001000
00000000
00000001
00000100
00000000
00000010
00001000
00000100
00020000
00000000
00000000
00000000
,
00031000
00100000
00010000
00100000
01000000
00000000
10000000
00100000
00000000
01000000
00010000
01000000
00002000
00000000
00023000
00000000
,
00030010
00001000
00000010
00000000
00000100
00000000
00000001
00000010
00000000
00000100
00001000
00000100
00020000
00000000
00032000
00000000
,
00103000
00010000
00100000
00000000
01000000
00000000
10000000
00000000
00100000
00000000
00010000
00000000
00001000
00000000
00000010
00000000
,
00000001
00000000
00000100
00000000
00000110
00000000
00000000
00010010
00000000
00000000
00011000
00000000
01001000
00000000
00000000
01100000
,
00000000
00000000
10010000
00000000
11000000
00000000
00000000
00110000
00000000
00000000
00101000
00000000
00021000
00000000
00000000
00000000
,
00030100
00001000
00000010
00000000
00000110
00000000
00000000
00000101
00000000
00000000
00000011
00000000
00001200
00000000
00000000
00000000
,
00010300
00001000
00100000
00000000
00010000
00000000
00000000
01000000
10000000
00000000
01000000
00000000
00010000
00000000
00000000
00100000
,
00001000
00000000
00010000
00000000
00000100
00000000
00000000
00001000
00000010
00000000
00000100
00000000
00002000
00000000
00000000
00000000
,
00003100
00000001
00001000
00000010
00000100
00000000
00000000
00000110
00000000
00000000
00010010
00000000
00012000
00000000
00000000
00000000
,
00103000
00010000
00100000
00000000
01100000
00000000
00000000
11000000
00000000
00000000
10100000
00000000
01020000
00000000
00000000
00000000
,
00130000
00001000
00010000
00000000
00000100
00000000
00001000
00000010
00000000
00000100
00000010
00000100
00000001
00000000
00000010
00000001
,
00000000
00000010
00000100
00001000
00000010
00000000
00000000
00001010
00000000
00000000
00011000
00000000
01010000
00000000
00000000
00110000
,
00000000
00000000
01100000
00000000
10000000
00100000
00000000
01000000
00010000
01000000
00001000
00000000
00010000
00000100
00000000
00001000
,
00000010
00000100
00000001
00001000
00000200
00000000
00000000
00000000
00000000
00000000
00000000
00000000
00000000
00000000
00000000
00000000
,
00000000
00000000
00000000
00000000
,
00000000
00000000
00000300
00000000
;
