#VERSION:0.83;
#TITLE:にゃんのパレードマーチ♪;
#SUBTITLE:;
#ARTIST:DJ TOTTO feat.にゃん;
#TITLETRANSLIT:Nyan no parade march;
#SUBTITLETRANSLIT:;
#ARTISTTRANSLIT:DJ TOTTO feat.Nyan;
#GENRE:;
#CREDIT:;
#MUSIC:Nyan no parade march.ogg;
#BANNER:Nyan no parade march.png;
#BACKGROUND:Nyan no parade march-bg.png;
#CDTITLE:./CDTitles/BeatStream AnimTribe.png;
#SAMPLESTART:86.866;
#SAMPLELENGTH:15.000;
#SELECTABLE:YES;
#OFFSET:1.467;
#BPMS:0.000=162.000;
#STOPS:;
#TIMESIGNATURES:0.000=4=4;
#BGCHANGES:-2.000=Nyan no parade march.mp4=1.000=0=0=0=StretchNoLoop====,
99999.000=-nosongbg-=1.000=0=0=0=StretchNoLoop====
;
#FGCHANGES:;

//--------------- dance-single - forcednature ----------------
#NOTEDATA:;
#STEPSTYPE:dance-single;
#DESCRIPTION:forcednature;
#CREDIT:forcednature;
#DIFFICULTY:Beginner;
#METER:3;
#RADARVALUES:0,0,0,0,0;
#NOTES:
0000
0000
0000
0000
,
0000
0000
0000
0000
,
0000
0000
0000
0000
,
0000
0000
0000
0000
,
0000
0000
0000
0000
,
0000
0000
0000
0000
,
0000
0000
0000
0000
,
0000
0000
0000
0000
,
0000
0000
0000
0000
,
0000
0000
0000
0000
,
1001
0000
0000
0000
,
0000
0000
0000
0000
,
0001
0000
0000
0000
,
0010
0000
0000
0000
,
0100
0000
0000
0000
,
0100
0000
0000
0000
,
1000
0000
0000
0000
,
0010
0000
0000
0000
,
1000
0000
0000
0000
,
0001
0000
0000
0000
,
0100
0000
0000
0000
,
0001
0000
0000
0000
,
0010
0000
0000
0000
,
0001
0000
0000
0000
,
0100
0000
0000
0000
,
0010
0000
0000
0000
,
1000
0000
0000
0000
,
0100
0000
0000
0000
,
1000
0000
0000
0000
,
0001
0000
0000
0000
,
0100
0000
0000
0000
,
0010
0000
0000
0000
,
1000
0000
0000
0000
,
0001
0000
0000
0000
,
0010
0000
0000
0000
,
0100
0000
0000
0000
,
1000
0000
0000
0000
,
0001
0000
0001
0000
,
0200
0000
0000
0000
,
0300
0000
0000
0000
,
0020
0000
0000
0000
,
0030
0000
0000
0000
,
2000
0000
0000
0000
,
3000
0000
0000
0000
,
0002
0000
0000
0000
,
0003
0000
0000
0000
,
0020
0000
0000
0000
,
0030
0000
0000
0000
,
0200
0000
0000
0000
,
0300
0000
0000
0000
,
2000
0000
0000
0000
,
3000
0000
0000
0000
,
0002
0000
0000
0000
,
0003
0000
0000
0000
,
0100
0000
0000
0000
,
0100
0000
0100
0000
,
0010
0000
0000
0000
,
0010
0000
0010
0000
,
1000
0000
0000
0000
,
0001
0001
0001
0000
,
0010
0000
0000
0000
,
0001
0000
0000
0000
,
0100
0000
0001
0000
,
0100
0000
0000
0000
,
0010
0000
0000
0000
,
1000
0000
0000
0000
,
0100
0000
1000
0000
,
0100
0000
0000
0000
,
0010
0000
0001
0000
,
0010
0000
0000
0000
,
0100
0000
1000
0000
,
0001
0000
0000
0000
,
0100
0000
0010
0000
,
0100
0000
0000
0000
,
0020
0000
0000
0000
,
0030
0000
1000
0001
;

//--------------- dance-single - forcednature ----------------
#NOTEDATA:;
#STEPSTYPE:dance-single;
#DESCRIPTION:forcednature;
#CREDIT:forcednature;
#DIFFICULTY:Easy;
#METER:6;
#RADARVALUES:0,0,0,0,0;
#NOTES:
0000
0000
0000
0000
,
0000
0000
0000
0000
,
0000
0000
0000
0000
,
0000
0000
0000
0000
,
0000
0000
0000
0000
,
0000
0000
0000
0000
,
0000
0000
0000
0000
,
0000
0000
0000
0000
,
0000
0000
0000
0000
,
0000
0000
0000
0000
,
1001
0000
1000
0000
,
0100
0000
0010
0000
,
0001
0001
0100
0001
,
0010
0010
0010
0000
,
1000
0100
1000
0100
,
0010
0001
1000
0000
,
0010
0100
0001
0100
,
0010
1000
0001
0000
,
0010
0100
1000
0010
,
0100
0001
0010
0000
,
0001
0100
0001
1000
,
0010
0100
0110
0000
,
1000
0100
1000
0001
,
1000
0010
1000
0000
,
0001
0100
0010
1000
,
0001
0100
0010
0000
,
0100
0001
0010
0001
,
1000
0001
0100
0000
,
0010
1000
0001
0010
,
0100
1000
0010
0000
,
0000
0110
0000
0110
,
0000
0101
0000
1010
,
0000
0110
0000
0110
,
0000
1001
0000
1100
,
0000
0011
0000
0011
,
0000
1001
0000
1100
,
0000
0001
1000
0100
,
0010
0010
0010
0000
,
0002
0000
0000
0003
,
0200
0000
0000
0300
,
0020
0000
0000
0030
,
2000
0000
0000
3000
,
0002
0003
0020
0030
,
0200
0300
2000
3000
,
0020
0000
0000
0030
,
0200
0000
0000
0300
,
0001
0000
0010
0000
,
0001
0001
0100
0000
,
0010
0000
1000
0000
,
0100
1000
0100
0000
,
0010
0000
0001
0000
,
1000
0010
1000
0000
,
0001
0000
0100
0000
,
0001
1000
0001
0000
,
1001
0000
1000
0000
,
0100
0100
0010
0000
,
1001
0000
0001
0000
,
0100
0100
0010
0000
,
1000
0100
1000
0010
,
0100
0100
0100
0000
,
0001
0010
0100
0010
,
0001
1000
0100
0000
,
1000
0010
0100
0001
,
0010
0100
1000
0000
,
0001
0100
0010
1000
,
0001
0010
0100
0000
,
0010
0001
1000
0010
,
1000
0001
0010
0000
,
0100
1000
0010
0100
,
0001
0010
0001
0000
,
0100
0010
1000
0001
,
0010
0100
1000
0000
,
0001
0100
0001
1000
,
0010
0100
0001
0000
,
0020
0030
0200
0300
,
1000
0000
0001
0000
0100
0000
2002
3003
;

//--------------- dance-single - forcednature ----------------
#NOTEDATA:;
#STEPSTYPE:dance-single;
#DESCRIPTION:forcednature;
#CREDIT:forcednature;
#DIFFICULTY:Medium;
#METER:10;
#RADARVALUES:0,0,0,0,0;
#NOTES:
0000
0000
0000
0000
,
0000
0000
0000
0000
,
0000
0000
0000
0000
,
0000
0000
0000
0000
,
0000
0000
0000
0000
,
0000
0000
0000
0000
,
0000
0000
0000
0000
,
0000
0000
0000
0000
,
0000
0000
0000
0000
,
0000
0000
0000
0000
,
0001
0000
0000
0100
0010
0000
0000
1000
,
0001
0000
0000
0010
0100
0000
0000
0000
,
1000
0010
0100
0001
,
0010
0100
0000
0010
0100
0000
0000
0000
2002
0000
0000
0000
3003
0000
0000
0000
,
1100
0001
0011
1000
,
0010
0100
0010
0000
0100
0000
0001
0000
,
0011
1000
1100
0001
,
0100
0010
0100
0000
0010
0000
1000
0000
,
0101
1000
1010
0001
,
0010
0100
0010
0000
0100
0000
1000
0000
,
1100
0001
0101
1000
,
0010
0100
0010
0000
0200
0000
0300
0000
,
0001
0011
1000
1010
,
0001
1000
0001
0000
0100
0000
0010
0000
,
1000
1100
0001
0101
,
1000
0001
1000
0000
0010
0000
0100
0000
,
0001
0011
1000
1010
,
0001
0100
0001
0000
2000
0000
3000
0100
,
1000
0000
0010
0000
0100
0010
0100
0000
,
0001
0000
0010
0001
0010
0000
0110
0000
,
0000
0100
1000
0000
0000
1000
0010
0000
,
0000
0010
0100
0000
0000
0001
1000
0000
,
0000
0100
0010
0000
0000
0010
0001
0000
,
0000
0001
0100
0000
0010
0100
0010
0000
,
0000
1000
0100
0000
0000
1000
0010
0000
,
0000
0100
0001
0000
0000
0010
0100
0000
,
1000
0010
1000
0000
0001
0010
0001
0000
,
0100
0010
0000
0100
0010
0000
0000
0000
2002
0000
0000
0000
3003
0000
0000
0000
,
2000
0000
3200
0000
,
0320
0032
2003
0000
,
3020
0000
0230
0000
,
0302
2003
3200
0000
,
0320
0032
0203
0302
,
2003
3020
0230
0302
,
2003
3200
0320
0032
,
0103
0010
0100
0000
2002
0000
3003
0000
,
0002
0000
0023
0000
0230
0000
1300
0001
,
1000
0001
2000
0000
3020
0000
0130
0001
,
0200
0000
0300
0010
2000
0000
3001
0010
,
0002
0000
0023
0000
0230
0000
1300
0001
,
2000
0000
3010
1000
0020
0000
0130
0001
,
0200
0000
0302
0000
0023
0000
0030
0100
,
2000
3020
0230
0302
,
0013
0100
0010
0000
0220
0000
0330
0000
,
1001
0000
0000
1000
0100
0000
0000
0100
,
0010
0001
0100
0010
,
1001
0000
0000
0001
0100
0000
0000
0100
,
0010
1000
0100
0010
,
1001
0000
1000
0100
1000
0000
0001
0000
,
0100
0010
0000
0100
0010
0000
0000
0000
1001
0000
0000
0000
0000
0000
0000
0000
,
0101
1010
0101
1000
,
0010
0100
0010
0000
1000
0000
0001
0010
,
0001
0000
1000
0100
1000
0000
0010
0100
,
0010
1000
0001
0010
,
1100
0011
1100
0001
,
0100
0010
0100
0000
0010
0000
1000
0100
,
1000
0000
0001
0100
0001
0000
0010
0000
,
0001
1000
0001
0000
2002
0000
3003
0000
,
1100
1010
1100
0001
,
0010
0100
0010
0000
0110
0000
1000
0100
,
1000
0000
0001
0100
0001
0000
0010
0100
,
0010
0000
0001
0000
1001
0000
0001
0010
,
0001
0000
1000
0010
1000
0000
0001
0100
,
0001
0000
0010
0000
0110
0000
0000
1000
,
0200
0320
0032
0203
,
0310
1000
0010
0000
0110
0000
2002
3003
;

//--------------- dance-single - forcednature assist by extraordiberry ----------------
#NOTEDATA:;
#STEPSTYPE:dance-single;
#DESCRIPTION:forcednature assist by extraordiberry;
#CREDIT:forcednature assist by extraordiberry;
#DIFFICULTY:Hard;
#METER:13;
#RADARVALUES:0,0,0,0,0;
#NOTES:
0000
0000
0000
0000
,
0000
0000
0000
0000
,
0000
0000
0000
0000
,
0000
0000
0000
0000
,
0000
0000
0000
0000
,
0000
0000
0000
0000
,
0000
0000
0000
0000
,
0000
0000
0000
0000
,
0000
0000
0000
0000
,
0000
0000
0000
0000
,
1100
0000
0000
0000
0000
0000
0001
0010
0001
0000
0000
0000
0000
0000
1000
0010
,
1000
0000
0000
0000
0000
0000
0001
0100
0001
0000
0000
0000
0020
0000
0000
0000
,
0130
1000
0010
1000
0001
1000
0010
1000
,
0100
0010
0000
0010
0100
0000
0010
0000
0110
0000
0000
0000
0000
0000
0000
0000
,
1000
0100
0000
0000
0001
0100
0000
0000
1000
0100
0000
0000
1000
0000
0010
0000
,
0100
0001
0001
0100
0010
0000
1000
0100
,
1000
0010
0000
0000
0001
0000
0100
0000
0001
0010
0000
0000
1000
0000
0100
0000
,
1000
0010
0010
0100
0001
0000
0010
0001
,
1000
0010
0000
0000
0001
0010
0000
0000
1000
0010
0000
0000
0100
0000
0001
0000
,
0010
0100
0100
0010
0001
0000
1000
0010
,
0100
0001
0000
0000
0010
0000
0100
0000
0010
0000
0001
0000
0100
0000
0010
0000
,
1000
0000
0100
1000
0100
0000
1000
0000
0010
0000
0000
0000
0100
0010
0000
0000
,
0101
0000
1010
0000
0101
0000
0001
0010
,
0100
0001
0001
0100
1000
0000
0001
0010
,
0100
0010
0000
0000
0001
0000
0100
0000
0010
0100
0000
0000
0001
0000
1000
0000
,
0010
0000
0100
0000
0100
0000
0001
0000
0010
0000
0000
0000
0100
0010
0000
0000
,
1100
0000
0001
0100
0101
0000
1000
0010
,
0100
0000
1000
0000
1000
0000
0100
0000
0001
0000
0000
0000
0000
0000
0010
0001
,
0010
0100
1000
0100
0001
0100
1000
0010
,
0100
0000
0001
0000
0010
0001
0010
0000
0100
0010
0000
0000
0010
0100
0000
0000
,
0000
1000
0010
0001
0010
1000
0010
0001
,
0010
1000
0100
0001
0100
1000
0001
0100
,
0000
0001
0010
1000
0010
0001
0010
1000
,
0010
0001
0100
1000
0100
0010
0010
0000
,
0000
1000
0100
0001
0100
1000
0100
0001
,
0100
1000
0010
0001
1000
0100
0001
0000
,
0011
0000
1000
0100
1100
0000
0001
0100
,
0001
1000
0000
1000
0001
0000
1000
0000
1001
0000
0000
0000
1000
0000
0001
1000
,
0002
0000
0023
0000
,
0230
2300
3200
0000
,
2300
0000
3020
0000
,
0230
0302
0203
0000
,
0320
2030
3002
2003
,
3200
2300
3020
0000
,
0230
0302
0023
0230
,
1300
0001
0001
0100
0010
0000
1000
0100
,
0020
0000
0230
0000
0320
0000
0031
0100
,
0010
0100
0100
0001
2000
0000
3010
0100
,
0001
0100
0001
0100
0001
0000
0000
0000
0020
0000
0000
0000
0130
0000
1000
0000
,
0001
0010
0010
0001
0200
0000
0310
1000
,
0200
0000
0000
0000
1300
0000
0010
0000
0100
0010
0100
0010
0100
0000
0000
0000
,
0001
0010
0010
0001
0200
0000
0000
0310
,
1000
0100
1000
0010
0100
0001
0001
0010
,
0100
0001
0100
1000
0002
0000
0013
0000
,
1001
0000
0000
0001
1000
0000
0000
0001
,
1000
1010
0110
0101
,
1001
0000
0000
1000
0001
0000
0000
1000
,
0001
0011
0110
1100
,
1000
0010
0100
0010
1000
0001
0100
0001
,
0010
0100
0000
0100
0010
0000
0100
0000
0110
0000
0000
0000
0000
0000
0000
0000
,
0001
0100
0000
0000
0001
0010
0000
0000
0001
0100
0000
0000
0010
0000
0100
0000
,
0010
0000
1000
0010
1000
0000
0001
0000
0010
0000
0000
0000
0001
0000
0100
0000
,
1000
0100
0000
0000
0001
0000
0010
0000
1000
0010
0000
0000
0001
0000
0100
0000
,
0010
0000
1000
0010
1000
0000
0001
0000
0010
0000
0000
0000
0100
0000
1000
0000
,
0010
0100
0000
0000
0001
0010
0000
0000
0100
1000
0000
0000
0010
0000
0100
0000
,
0010
0000
1000
0100
1000
0000
0001
0000
0100
0000
0000
0000
0001
0000
0010
0000
,
0100
0001
0000
0000
0100
0000
1000
0000
0010
0000
0100
0000
0001
0000
0010
0000
,
0001
0000
0100
0010
0100
0000
0010
0000
1000
0000
0000
0000
0001
1000
0001
1000
,
0001
0010
0000
0000
0100
0010
0000
0000
0001
0100
0000
0000
0010
0000
1000
0000
,
0100
0000
0010
0100
0010
0000
0001
0000
0011
0000
0000
0000
1000
0000
0010
0000
,
0001
0010
0000
0000
1000
0000
0100
0000
0001
0100
0000
0000
1000
0000
0010
0000
,
0100
0000
0001
0100
0001
0000
0010
0000
0011
0000
0000
0000
1000
0000
0100
0000
,
1000
0010
0000
0000
0001
0000
0100
0000
0001
0010
0000
0000
1000
0000
0010
0000
,
1000
0000
0100
1000
0100
0000
0010
0100
0010
0000
0001
0010
0002
0000
0000
0000
,
0103
0000
0010
0000
1000
0000
0100
0000
1000
0000
0001
0010
0001
0000
0100
0000
,
0010
1000
0100
0001
0010
0000
2002
3003
;

//--------------- dance-double - forcednature ----------------
#NOTEDATA:;
#STEPSTYPE:dance-double;
#DESCRIPTION:forcednature;
#CREDIT:forcednature;
#DIFFICULTY:Easy;
#METER:6;
#RADARVALUES:0,0,0,0,0;
#NOTES:
00000000
00000000
00000000
00000000
,
00000000
00000000
00000000
00000000
,
00000000
00000000
00000000
00000000
,
00000000
00000000
00000000
00000000
,
00000000
00000000
00000000
00000000
,
00000000
00000000
00000000
00000000
,
00000000
00000000
00000000
00000000
,
00000000
00000000
00000000
00000000
,
00000000
00000000
00000000
00000000
,
00000000
00000000
00000000
00000000
,
00011000
00000000
01000000
00000000
,
00010000
00000000
00100000
00000000
,
01000000
01000000
10000000
00010000
,
00100000
00100000
00100000
00000000
,
00001000
00010000
00001000
00010000
,
00000010
00001000
00000010
00000000
,
00000100
00000001
00001000
00000010
,
00001000
00000100
00010000
00000000
,
00001000
00100000
00010000
01000000
,
00100000
01000000
00010000
00000000
,
10000000
00100000
10000000
00010000
,
00100000
00001000
00010000
00000000
,
00000100
00001000
00000100
00000010
,
00000001
00001000
00000010
00000000
,
00010000
00001000
00100000
00010000
,
10000000
01000000
10000000
00000000
,
00010000
01000000
00001000
00010000
,
00000010
00001000
00000010
00000000
,
00000100
00000001
00000010
00000100
,
00001000
00000010
00000100
00000000
,
00000000
00011000
00000000
00011000
,
00000000
00100000
00000000
00010000
,
00000000
01100000
00000000
01100000
,
00000000
00010000
00000000
01000000
,
00000000
00011000
00000000
00011000
,
00000000
00000100
00000000
00001000
,
00000000
00000010
00000100
00000001
,
00000010
00000010
00000010
00000000
,
00000200
00000000
00000000
00000300
,
00020000
00000000
00000000
00030000
,
00002000
00000000
00000000
00003000
,
00200000
00000000
00000000
00300000
,
00020000
00030000
02000000
03000000
,
00200000
00300000
20000000
30000000
,
02000000
00000000
00000000
03000000
,
00020000
00000000
00000000
00030000
,
00001000
00000000
00000010
00000000
,
00000001
00000001
00000001
00000000
,
00000100
00000000
00001000
00000000
,
00010000
00010000
00010000
00000000
,
00100000
00000000
10000000
00000000
,
01000000
01000000
01000000
00000000
,
00010000
00000000
00001000
00000000
,
00000010
00000010
00000010
00000000
,
00001001
00000000
00001000
00000000
,
00000100
00000100
00010000
00000000
,
00011000
00000000
00001000
00000000
,
01000000
01000000
00010000
00000000
,
00100000
01000000
00100000
01000000
,
10000000
10000000
10000000
00000000
,
00010000
00100000
00001000
00010000
,
00000010
00001000
00000010
00000000
,
00000100
00000001
00001000
00000010
,
00010000
00001000
00010000
00000000
,
00001000
00100000
00010000
01000000
,
00100000
10000000
00100000
00000000
,
10000000
01000000
00100000
00001000
,
00010000
00000100
00010000
00000000
,
00000010
00001000
00000010
00000100
,
00000001
00000010
00000100
00000000
,
00001000
00000100
00010000
00001000
,
00100000
00010000
00100000
00000000
,
01000000
10000000
00010000
01000000
,
00001000
00010000
00001000
00000000
,
00200000
00300000
00002000
00003000
,
00010000
00000000
00000100
00000000
00001000
00000000
00000020
00000030
;

//--------------- dance-double - forcednature ----------------
#NOTEDATA:;
#STEPSTYPE:dance-double;
#DESCRIPTION:forcednature;
#CREDIT:forcednature;
#DIFFICULTY:Medium;
#METER:10;
#RADARVALUES:0,0,0,0,0;
#NOTES:
00000000
00000000
00000000
00000000
,
00000000
00000000
00000000
00000000
,
00000000
00000000
00000000
00000000
,
00000000
00000000
00000000
00000000
,
00000000
00000000
00000000
00000000
,
00000000
00000000
00000000
00000000
,
00000000
00000000
00000000
00000000
,
00000000
00000000
00000000
00000000
,
00000000
00000000
00000000
00000000
,
00000000
00000000
00000000
00000000
,
00002000
00000000
00023000
00000000
,
00230000
00000000
20300000
00000000
,
31000000
00010000
00001000
00000010
,
00000001
00001000
00000000
00000001
00001000
00000000
00000000
00000000
00002002
00000000
00000000
00000000
00003003
00000000
00000000
00000000
,
00001100
00010000
00011000
00100000
,
00010000
01000000
00010000
00000000
10000000
00000000
00100000
00000000
,
01100000
00010000
00110000
00001000
,
00010000
00001000
00010000
00000000
00000100
00000000
00001000
00000000
,
00001010
00000001
00000101
00001000
,
00000100
00001000
00000100
00000000
00010000
00000000
00001000
00000000
,
00011000
00100000
01010000
10000000
,
00100000
01000000
00100000
00000000
02000000
00000000
03000000
00000000
,
00010000
00110000
00001000
00011000
,
00000100
00001000
00000100
00000000
00000010
00000000
00000001
00000000
,
00000100
00000110
00001000
00001100
,
00010000
00001000
00010000
00000000
00001000
00000000
00100000
00000000
,
00010000
01010000
10000000
10100000
,
00010000
00100000
00001000
00000000
00020000
00000000
00030000
00000100
,
00001000
00000000
00000010
00000000
00000100
00000001
00000100
00000000
,
00000010
00000000
00001000
00000100
00001000
00000000
00010100
00000000
,
00000000
00010000
00001000
00000000
00000000
00100000
00010000
00000000
,
00000000
01000000
00100000
00000000
00000000
10000000
01000000
00000000
,
00000000
00100000
00010000
00000000
00000000
01000000
00001000
00000000
,
00000000
00010000
00000100
00000000
00000000
00001000
00000010
00000000
,
00000000
00000100
00001000
00000000
00000000
00010000
00100000
00000000
,
00000000
10000000
01000000
00000000
00000000
00010000
00001000
00000000
,
00000000
00000010
00000001
00000000
00000000
00000100
00001000
00000000
,
00010000
00001000
00000000
00010000
00001000
00000000
00000000
00000000
00022000
00000000
00000000
00000000
00033000
00000000
00000000
00000000
,
02000000
00000000
03020000
00000000
,
00230000
02300000
23000000
00000000
,
30020000
00000000
02030000
00000000
,
03002000
00023000
00030200
00000000
,
00002300
00003020
00000230
00000302
,
00000203
00000320
00002030
00003200
,
00020300
00032000
02003000
03020000
,
00130000
01000000
00100000
00000000
20020000
00000000
30030000
00000000
,
00020000
00000000
00230000
00000000
02300000
00000000
13000000
00010000
,
10000000
00010000
20000000
00000000
30200000
00000000
01300000
00010000
,
02000000
00000000
03000000
00001000
00020000
00000000
00030100
00001000
,
00000200
00000000
00000320
00000000
00000032
00000000
00000103
00000001
,
00000200
00000000
00000310
00001000
00000020
00000000
00010030
00001000
,
00020000
00000000
00032000
00000000
00203000
00000000
00300000
00010000
,
02000000
03200000
20300000
32000000
,
03010000
00001000
00010000
00000000
00022000
00000000
00033000
00000000
,
00011000
00000000
00000000
00000100
00001000
00000000
00000000
00000010
,
00000100
00000001
00000010
00001000
,
00011000
00000000
00000000
00100000
00010000
00000000
00000000
01000000
,
00100000
10000000
01000000
00010000
,
00011000
00000000
00000100
00001000
00000100
00000000
00000010
00000000
,
00000001
00001000
00000000
00000001
00001000
00000000
00000000
00000000
00001001
00000000
00000000
00000000
00000000
00000000
00000000
00000000
,
00010100
00011000
00101000
00100000
,
00010000
10000000
00010000
00000000
01000000
00000000
00100000
10000000
,
00100000
00000000
10000000
01000000
10000000
00000000
01000000
00100000
,
01000000
00100000
00001000
00010000
,
01001000
00011000
00010010
00000010
,
00001000
00000100
00001000
00000000
00000001
00000000
00000010
00000100
,
00000010
00000000
00000100
00001000
00000100
00000000
00010000
00000000
,
00001000
00010000
00001000
00000000
00022000
00000000
00033000
00000000
,
00101000
00011000
00010010
00000010
,
00001000
00000001
00001000
00000000
00000100
00000000
00010000
00001000
,
00010000
00000000
00001000
00100000
00001000
00000000
00100000
00010000
,
00100000
00000000
01000000
00000000
10000000
00000000
00100000
01000000
,
00100000
00000000
01000000
00010000
01000000
00000000
00001000
00010000
,
00001000
00000000
00100000
00000000
00110000
00000000
00000000
10000000
,
02000000
03020000
00032000
00003020
,
00000031
00000000
00001000
00000000
00001001
00000000
00000220
00000330
;

//--------------- dance-double - forcednature assist by extraordiberry ----------------
#NOTEDATA:;
#STEPSTYPE:dance-double;
#DESCRIPTION:forcednature assist by extraordiberry;
#CREDIT:forcednature assist by extraordiberry;
#DIFFICULTY:Hard;
#METER:13;
#RADARVALUES:0,0,0,0,0;
#NOTES:
00000000
00000000
00000000
00000000
,
00000000
00000000
00000000
00000000
,
00000000
00000000
00000000
00000000
,
00000000
00000000
00000000
00000000
,
00000000
00000000
00000000
00000000
,
00000000
00000000
00000000
00000000
,
00000000
00000000
00000000
00000000
,
00000000
00000000
00000000
00000000
,
00000000
00000000
00000000
00000000
,
00000000
00000000
00000000
00000000
,
00021000
00000000
00000000
00130000
20000000
00000000
00000000
31000000
,
00020000
00000000
00000000
00031000
00000020
00000000
00000000
00000000
,
00000031
00000100
00001000
00000100
00000001
00000100
00001000
00000100
,
00001000
00010000
00000000
00010000
00001000
00000000
00010000
00000000
00011000
00000000
00000000
00000000
00000000
00000000
00000000
00000000
,
00100000
00010000
00000000
00000000
01000000
00010000
00000000
00000000
00100000
00010000
00000000
00000000
10000000
00000000
00100000
00000000
,
00010000
00001000
01000000
00010000
00100000
00000000
01000000
10000000
,
10100000
00000000
01000000
00010000
00110000
00000000
00001000
00010000
,
00000010
00001000
00010000
00001000
00000010
00000000
00000100
00000001
,
00001000
00000100
00000000
00000000
00000001
00000100
00000000
00000000
00001000
00000100
00000000
00000000
00000010
00000000
00000001
00000000
,
00000100
00001000
00010000
00000010
00001000
00000000
00010000
01000000
,
01100000
00000000
00100000
10000000
01000000
00010000
00001000
00000100
,
00000001
00000000
00000010
00000001
00000010
00000000
00000100
00000000
00002000
00000000
00000000
00000000
00003010
00000100
00000000
00000000
,
00000101
00000000
00010010
00000000
00000101
00000000
00000001
00000010
,
00001000
00010000
00000010
00001000
00000100
00000000
00010000
00001000
,
00101000
00000000
00100000
00010000
01010000
00000000
10000000
00100000
,
00010000
00000000
00001000
00000000
01000000
00000000
00010000
00000000
00100000
00000000
00000000
00000000
01000000
10000000
00000000
00000000
,
10100000
00000000
00010000
01000000
01010000
00000000
00001000
00010000
,
00000010
00000000
00000100
00000000
00000001
00000000
00000010
00000000
00001000
00000000
00000000
00000000
00000000
00000000
00010000
00001000
,
00010000
00000100
00001000
00000010
00010000
00000100
00000010
00001000
,
00010000
00000000
01000000
00000000
00100000
00000000
00001000
00000000
00010000
00000100
00000000
00000000
00000100
00001000
00000000
00000000
,
00000000
00000001
00000010
00001000
00000000
00010000
00100000
10000000
,
00000000
01000000
00010000
00001000
00000100
00001000
00010000
01000000
,
00000000
10000000
00100000
00010000
00000000
00001000
00000010
00000001
,
00000000
00000100
00001000
00010000
01000000
00010000
00001000
00000100
,
00000000
00000001
00000010
00001000
00000000
00010000
01000000
10000000
,
00000000
00100000
00010000
00001000
00000100
00001000
00010000
00000000
,
00011000
00000000
00000010
00001000
00001010
00000000
00000001
00000100
,
00000001
00001000
00000000
00001000
00000001
00000000
00000010
00000000
00000110
00000000
00000000
00000000
00000100
00000000
00001000
00000100
,
00002000
00000000
00003020
00000000
,
00020030
00032000
00023000
00000000
,
00230000
00000000
20300000
00000000
,
32000000
03200000
02300000
00000000
,
03020000
00032000
00203000
00302000
,
00023000
00030200
00000320
00000000
,
00000032
00000203
00002300
00023000
,
00130000
10000000
10000000
00010000
01000000
00000000
00100000
10000000
,
02000000
00000000
03020000
00000000
00032000
00000000
00003010
00000100
,
00010000
00000010
00000010
00001000
00000002
00000000
00000103
00001000
,
00010000
00001000
00010000
00001000
00010000
00000000
00000000
00000000
00200000
00000000
00000000
00000000
01300000
00000000
00010000
00000000
,
10000000
00100000
00100000
10000000
02000000
00000000
03010000
00001000
,
00000200
00000000
00000000
00000000
00000301
00000000
00001000
00000000
00000010
00000100
00000010
00000100
00000010
00000000
00000000
00000000
,
00000100
00001000
00001000
00010000
00200000
00000000
00000000
01300000
,
00010000
10000000
00100000
10000000
01000000
00010000
00010000
00001000
,
00000010
00000100
00010000
00000010
00002000
00000000
00003001
00000000
,
00000101
00000000
00000000
00010000
00001000
00000000
00000000
00010000
,
00001000
00110000
01100000
11000000
,
10100000
00000000
00000000
00001000
00010000
00000000
00000000
00001000
,
00010000
00010010
00001010
00001100
,
00000001
00000010
00000100
00000010
00000001
00000100
00001000
00010000
,
00100000
01000000
00000000
01000000
00100000
00000000
01000000
00000000
10010000
00000000
00000000
00000000
00000000
00000000
00000000
00000000
,
10000000
01000000
00000000
00000000
10000000
00100000
00000000
00000000
10000000
01000000
00000000
00000000
00010000
00000000
00001000
00000000
,
00100000
00000000
00010000
00100000
00001000
00000000
00010000
00000000
00001000
00000000
00000000
00000000
00000010
00000000
00000100
00000000
,
00001100
00000000
00010000
00001000
00010010
00000000
00000010
00001000
,
00000001
00000000
00000010
00000001
00000010
00000000
00001000
00000000
00010000
00000000
00000000
00000000
00000100
00000000
00001000
00000000
,
00000001
00000100
00000000
00000000
00000001
00000010
00000000
00000000
00000001
00000100
00000000
00000000
00001000
00000000
00010000
00000000
,
00000010
00000000
00001000
00000010
00010000
00000000
00001000
00000000
00010000
00000000
00000000
00000000
00100000
00000000
01000000
00000000
,
01010000
00000000
00000000
00000000
00001000
00000000
00010000
00000000
00100000
00000000
10000000
00100000
10000000
00000000
00010000
00000000
,
00100000
00000000
00001000
00010000
00001000
00000000
00010000
00000000
00000100
00001000
00000100
00001000
00000100
00000000
00000000
00000000
,
00100000
00001000
00000000
00000000
00010000
00000100
00000000
00000000
00100000
00001000
00000000
00000000
00010000
00000000
00000010
00000000
,
00001000
00000000
00000100
00001000
00000100
00000000
00000010
00000000
00000011
00000000
00000000
00000000
00000001
00000000
00000100
00000000
,
00000110
00000000
00001000
00000100
00011000
00000000
00100000
00010000
,
01000000
00000000
00100000
01000000
00100000
00000000
10000000
00000000
11000000
00000000
00000000
00000000
00010000
00000000
00100000
00000000
,
00011000
00000000
00000100
00001000
00001010
00000000
00000001
00000100
,
00000010
00000000
00001000
00000010
00001000
00000000
00000100
00001000
00000100
00000000
00010000
00001000
00020000
00000000
00000000
00000000
,
00030010
00000000
00001000
00000000
00010000
00000000
01000000
00000000
00100000
00000000
10000000
00010000
10000000
00000000
01000000
00000000
,
00010000
00001000
00000100
00000001
00000010
00000000
00002002
00003003
;
