#VERSION:0.83;
#TITLE:Never End;
#SUBTITLE:;
#ARTIST:Rookie.F feat. Sean (from PHOENIX ASH);
#TITLETRANSLIT:;
#SUBTITLETRANSLIT:;
#ARTISTTRANSLIT:;
#GENRE:;
#CREDIT:;
#MUSIC:Never End.ogg;
#BANNER:Never End.png;
#BACKGROUND:Never End-bg.png;
#CDTITLE:./CDTitles/GITADORA EXCHAIN.png;
#SAMPLESTART:65.132;
#SAMPLELENGTH:15.000;
#SELECTABLE:YES;
#OFFSET:0.080;
#BPMS:0.000=195.000;
#STOPS:;
#TIMESIGNATURES:0.000=4=4;
#BGCHANGES:0.000=../BGAs/17te.mp4=1.000=0=0=0=StretchNoLoop====,
99999.000=-nosongbg-=1.000=0=0=0=StretchNoLoop====
;
#FGCHANGES:;

//--------------- dance-single - forcednature ----------------
#NOTEDATA:;
#STEPSTYPE:dance-single;
#DESCRIPTION:forcednature;
#CREDIT:forcednature;
#DIFFICULTY:Beginner;
#METER:3;
#RADARVALUES:0,0,0,0,0;
#NOTES:
0000
0000
0000
0000
,
0000
0000
0000
0000
,
0000
0000
0000
0000
,
0000
0000
0000
0000
,
0000
0000
0000
0000
,
1001
0000
0000
0000
,
0000
0000
0000
0000
,
0000
0000
0000
0000
,
0000
0000
0000
0000
,
0001
0000
0000
0000
,
0000
0000
0000
0000
,
0100
0000
0000
0000
,
0010
0000
0000
0000
,
0100
0000
0000
0000
,
0000
0000
0000
0000
,
0010
0000
0000
0000
,
1000
0000
0000
0000
,
0001
0000
0000
0000
,
0000
0000
0000
0000
,
1000
0000
0000
0000
,
0100
0000
0000
0000
,
0010
0000
0000
0000
,
0000
0000
0000
0000
,
0100
0000
0000
0000
,
0010
0000
0000
0000
,
0001
0000
0000
0000
,
0000
0000
0000
0000
,
0000
0000
0000
0000
,
0000
0000
0001
0000
,
1000
0000
0000
0000
,
0000
0000
0000
0000
,
0000
0000
0000
0000
,
0000
0000
1000
0000
,
0010
0000
0000
0000
,
0010
0000
0000
0000
,
0100
0000
0000
0000
,
0001
0000
0000
0000
,
1001
0000
0000
0000
,
0000
0000
0001
0000
,
0000
0000
0001
0000
,
0000
0000
0001
0000
,
1000
0000
0000
0000
,
0000
0000
1000
0000
,
0000
0000
1000
0000
,
0000
0000
1000
0000
,
0010
0000
0000
0000
,
0000
0000
0000
0000
,
0100
0000
0000
0000
,
0001
0000
0000
0000
,
1000
0000
0000
0000
,
0000
0000
0000
0000
,
0001
0000
0000
0000
,
0000
0000
0000
0000
,
1000
0000
1000
0000
,
0001
0000
0001
0000
,
1000
0000
0001
0000
,
0100
0000
0010
0000
,
1000
0000
0000
1000
,
0000
0000
0000
0000
,
0001
0000
0000
0001
,
0000
0000
0000
0000
,
0001
0000
0001
0000
,
1000
0000
1000
0000
,
0001
0000
1000
0000
,
0010
0000
0100
0000
,
0001
0000
0000
0010
,
0000
0000
0000
0000
,
0001
0000
0000
0100
,
0000
0000
0000
0000
,
1001
0000
0000
0000
,
0000
0000
0000
0000
,
1000
0000
0000
0000
,
0001
0000
0000
0000
,
0100
0000
0000
0000
,
0000
0000
0100
0000
,
0010
0000
0000
0000
,
0000
0000
0010
0000
,
1000
0000
0000
1000
,
0000
0000
0000
0000
,
0001
0000
0000
0001
,
0000
0000
0010
0000
,
0001
0000
0000
0000
,
0000
0000
0000
0000
,
0100
0000
0000
0000
,
0010
0000
0000
0000
,
1000
0000
0000
0001
,
0000
0000
0000
0000
,
0001
0000
0000
1000
,
0000
0000
0000
0000
,
1001
0000
0000
0000
,
0001
0000
0000
0000
,
0010
0000
0000
0000
,
0001
0000
0000
0000
,
0100
0000
0000
0000
,
0010
0000
0000
0000
,
1000
0000
0000
0000
,
0100
0000
0000
0000
,
1001
0000
0000
0000
;

//--------------- dance-single - forcednature ----------------
#NOTEDATA:;
#STEPSTYPE:dance-single;
#DESCRIPTION:forcednature;
#CREDIT:forcednature;
#DIFFICULTY:Easy;
#METER:7;
#RADARVALUES:0,0,0,0,0;
#NOTES:
0000
0000
0000
0000
,
0000
0000
0000
0000
,
0000
0000
0000
0000
,
0000
0000
0000
0000
,
0000
0000
0000
0000
,
0001
0000
0000
0001
0000
0000
1000
0000
,
0000
0000
0000
0000
,
0010
0000
0010
0000
,
0010
0000
0110
0000
,
1000
0000
1000
0001
,
0010
0000
0100
0000
,
0010
0000
0010
0001
,
1000
0000
0001
0000
,
0100
0000
0100
0010
,
1000
0000
0001
0000
,
0010
0000
0010
0100
,
0010
0000
0100
0000
,
0110
0000
1000
0001
,
1000
0000
0010
0000
,
0100
0000
0001
0100
,
0001
0000
0010
0000
,
0001
0000
1000
0001
,
1000
0000
0100
0000
,
0010
0000
0100
0010
,
0001
0000
0100
0000
,
1001
0000
0000
0000
,
1000
0000
1000
0000
,
0010
0000
1000
0000
,
0200
0000
0300
0000
,
1001
0000
0000
0000
,
0001
0000
0001
0000
,
0010
0000
0001
0000
,
0200
0000
0300
0000
,
1001
0000
1000
0000
,
0010
0000
1000
0000
,
0100
0000
1000
0000
,
0001
0000
1000
0000
,
1001
0000
0000
0000
,
0001
0000
0001
0000
,
0010
0000
0001
0000
,
0200
0000
0300
0000
,
1001
0000
0000
0000
,
1000
0000
1000
0000
,
0010
0000
1000
0000
,
0200
0000
0300
0000
,
0110
0000
0001
0000
,
0100
0000
0001
0000
,
0010
0000
0001
0000
,
0010
0000
0001
0000
,
0000
0000
0000
0000
,
2000
0000
0000
0000
,
3000
0000
0002
0000
,
0003
0020
0000
0030
,
0001
1000
0001
1000
,
0010
0100
0010
0100
,
0001
0010
0001
0010
,
0100
1000
0001
0010
,
0100
0000
0000
1000
0000
0000
0002
0000
,
0000
0203
0000
0300
,
0010
0000
0000
1000
0000
0000
0002
0000
,
0000
0023
0000
0030
,
0001
0100
0001
0100
,
0010
1000
0010
1000
,
0001
0010
0001
0010
,
0100
1000
0001
0100
,
0010
0000
0000
1000
0000
0000
0002
0000
,
0000
0023
0000
0030
,
0100
0000
0000
1000
0000
0000
0002
0000
,
0000
0203
0000
0300
,
0120
0000
1000
0000
,
0100
0000
1030
0000
,
0010
0000
1000
0000
,
0100
1000
1000
0001
,
0100
0000
0000
0100
0000
0000
0020
0000
,
0000
1030
0001
0000
,
0010
0000
0000
0010
0000
0000
0020
0000
,
0000
0130
1000
0000
,
0001
0000
0000
0100
0000
0000
0020
0000
,
0000
2030
0000
3000
,
0001
0000
0000
0010
0000
0000
0200
0000
,
0000
2300
0000
3000
,
0001
0100
0010
0100
,
0001
0100
0010
0100
,
0001
1000
0010
1000
,
0001
0010
0100
1000
,
0001
0000
0000
0100
0000
0000
0220
0000
,
0330
2002
0000
3003
,
1000
0000
0000
0100
0000
0000
0220
0000
,
0330
2002
0000
3003
,
0001
0000
0010
0001
,
0000
0001
0100
0010
,
1000
0000
0100
1000
,
0000
1000
0010
0100
,
0001
0000
0010
0001
,
0100
0001
1000
0001
,
0100
0000
0000
0010
0000
0000
1000
0000
,
0000
0001
0000
0000
0010
0000
0000
2002
,
0000
0000
3003
0000
;

//--------------- dance-single - forcednature ----------------
#NOTEDATA:;
#STEPSTYPE:dance-single;
#DESCRIPTION:forcednature;
#CREDIT:forcednature;
#DIFFICULTY:Medium;
#METER:11;
#RADARVALUES:0,0,0,0,0;
#NOTES:
0000
0000
0000
0000
,
0000
0000
0000
0000
,
0000
0000
0000
0000
,
0000
0000
0000
0000
,
0000
0000
0000
0000
,
0001
0000
0000
1000
0000
0000
1001
0000
,
0000
0000
0000
0000
,
1000
0000
1000
0000
,
1000
0000
0010
0100
0020
0000
0030
0000
,
0100
0001
0000
0001
0100
0000
0010
0000
,
2000
0000
3000
0002
0000
0003
0020
0000
,
0130
1000
0000
1000
0100
0000
0010
0000
,
0002
0000
0003
2000
0000
3000
0020
0000
,
0130
0001
0000
0001
0100
0000
0020
0000
,
1000
1030
0001
1000
,
0100
0010
0000
0001
0010
0000
0100
0010
,
0000
0001
1000
0000
0000
1001
0000
0000
,
1010
0000
0000
0001
0100
0000
0010
0000
,
2000
0000
3000
0002
0000
0003
0020
0000
,
0130
1000
0000
1000
0100
0000
0010
0000
,
0002
0000
0003
2000
0000
3000
0020
0000
,
0130
0001
0000
0001
1000
0000
0100
0000
,
0010
0001
0000
0001
1000
0000
0010
0000
,
0100
0001
0000
0100
0001
0000
0100
0010
,
0000
1000
0001
0000
0020
0000
0000
0030
,
0001
1000
0000
1000
0001
0000
0001
1000
,
0000
0000
0010
0100
,
0000
0100
0010
1000
,
0000
0000
1000
0000
0200
0000
0000
0300
,
1000
0001
0000
0001
1000
0000
1000
0001
,
0000
0010
0100
0010
,
0000
0001
0010
0100
,
0000
0000
1000
0000
0002
0000
0000
0003
,
0100
0010
0000
1000
0010
0000
0100
0000
,
0001
2000
0000
3200
,
0000
0320
0000
0032
,
0000
0103
0220
0330
,
0001
1000
0000
1000
0001
0000
0001
1000
,
0000
0010
0100
0001
,
0000
0001
0100
0010
,
0000
0010
1000
0100
,
1000
0001
0000
0001
1000
0000
1000
0001
,
0000
0010
0100
1000
,
0000
0000
1000
0000
0010
0000
0100
0001
,
0000
0001
1000
0000
0010
0000
0100
0000
,
0210
0000
0001
0000
,
0310
1000
0001
0010
,
0100
0010
0000
0100
1000
0000
0001
0010
,
0000
0100
0010
0000
0001
1000
0001
0000
,
0000
0000
0000
0000
,
0100
0000
0000
0010
0000
0000
1000
0000
,
0000
0000
0100
0010
,
0000
2002
0000
3003
,
1000
0100
0010
0000
0001
0100
0010
0000
,
1000
0001
0010
0000
0001
1000
0010
0000
,
0100
0001
0010
0000
0100
1000
0010
0000
,
1000
0001
1000
0000
0010
0100
0001
0100
,
0002
0000
0003
2000
0000
3000
2002
0000
,
3003
0000
0220
0000
0000
0330
0000
0000
,
2000
0000
3000
0002
0000
0003
2002
0000
,
3003
0000
0220
0000
0000
0330
0000
0000
,
0001
1000
0100
0000
1000
0001
0100
0000
,
0010
1000
0100
0000
0010
0001
0100
0000
,
0001
0010
0100
0000
1000
0010
0100
0000
,
0001
1000
0001
0000
1000
0100
1000
0100
,
0020
0000
0030
0002
0000
0003
0220
0000
,
0330
0000
2002
0000
0000
3003
0000
0000
,
2000
0000
3000
0020
0000
0030
0220
0000
,
0330
0000
2002
0000
0000
3003
0000
0000
,
0002
0000
0010
0000
,
1000
0000
0100
0000
,
1000
0000
0010
0000
,
1003
0001
1000
1000
,
0010
0100
0000
0010
0100
0000
0001
0100
,
0000
0010
1000
0001
,
0010
0100
0000
0010
0100
0000
1000
0100
,
0000
0100
0000
0010
0001
0000
1000
0000
,
2002
0000
3003
0220
0000
0330
2002
0000
,
3003
0220
0000
0330
1000
0000
0001
0000
,
0202
0000
0303
2200
0000
3300
0202
0000
,
0303
2200
0000
3300
0001
1000
0001
0000
,
0010
0100
0010
0001
,
0010
0100
0010
0000
0100
0000
1000
0000
,
0010
0100
0010
1000
,
0010
0100
0010
0000
0100
0000
0001
0000
,
1000
0010
0000
0010
0100
0000
0100
0001
,
0000
0001
1000
0000
0010
0000
0110
0000
,
0001
0010
0000
0010
0100
0000
0100
1000
,
0000
1000
0001
0000
0100
0000
0110
0000
,
1001
0000
0000
1000
0000
1000
0100
1000
,
0000
0001
0000
0010
0100
0000
0010
0000
,
0001
0000
0000
0001
0000
0100
0001
1000
,
0000
0010
0000
0100
0010
0100
0001
0000
,
1000
1100
0001
0101
,
1000
1010
0001
0011
,
1000
0010
0000
0100
0010
0000
0100
0001
,
0000
1000
0100
0000
1000
0001
0000
0022
,
0000
0000
0033
0000
;

//--------------- dance-single - forcednature ----------------
#NOTEDATA:;
#STEPSTYPE:dance-single;
#DESCRIPTION:forcednature;
#CREDIT:forcednature;
#DIFFICULTY:Hard;
#METER:15;
#RADARVALUES:0,0,0,0,0;
#NOTES:
0000
0000
0000
0000
,
0000
0000
0000
0000
,
0000
0000
0000
0000
,
0000
0000
0000
0000
,
0000
0000
0000
0000
,
1100
0000
0000
0011
0000
0000
1001
0000
,
0000
0000
0000
0000
,
0001
0000
0001
0000
,
0001
0000
0000
0000
0100
0000
0010
0100
0020
0000
0000
0000
1030
0000
0000
0000
,
1001
0000
0001
0010
0100
0010
0001
0000
,
1000
0100
0001
0200
0000
1300
0001
0000
,
1001
0000
1000
0010
0100
0010
1000
0000
,
0001
0100
1000
0200
0000
0301
1000
0000
,
1001
0000
0001
0100
0010
0100
0001
0000
,
1000
0010
0100
0001
0010
0100
2000
0000
,
3001
0100
0100
0010
1000
1000
0001
0000
,
0010
0100
1000
0010
0000
2002
0000
3003
,
1000
0100
0010
0100
1000
0001
0010
0000
,
1000
0001
0100
2000
0000
3001
0010
0000
,
0001
0100
0010
0100
0001
1000
0010
0000
,
0001
1000
0100
0002
0000
1003
0010
0000
,
0100
0001
0010
0001
1000
0100
0002
0000
,
0103
1000
0010
1000
0001
0100
2000
0000
,
3100
0001
0001
0010
0001
0001
1000
0000
,
0010
0100
0100
0001
0020
0000
0000
0030
,
0001
1000
0001
0000
0000
0000
1000
0001
1000
0000
0000
0000
0001
1000
0001
0000
,
0000
0000
0010
0100
1000
0010
0000
0010
,
0000
0000
0100
0001
0100
0001
0000
0001
,
0000
0010
0001
1000
0100
0001
0200
0000
,
1300
0001
1000
0000
0000
0000
0001
1000
0001
0000
0000
0000
1000
0001
1000
0000
,
0000
0000
0010
0100
0001
0010
0000
0001
,
0000
0001
1000
0100
1000
0001
0000
0010
,
0000
0100
1000
1000
0001
0010
0200
0000
,
0310
0001
0100
0001
0010
0100
0010
0001
,
0100
0010
1000
0100
0001
0100
2000
0000
,
3010
1000
0100
0010
0100
1000
0010
1000
,
0100
0010
0001
0100
1000
0100
0002
0000
,
0013
0100
0010
0000
0000
0000
0100
0010
0100
0000
0000
0000
0010
0100
0010
0000
,
0000
0000
0001
1000
0001
0100
0000
0100
,
0000
0000
0010
1000
0001
0010
0000
0100
,
0000
0010
0001
0001
0100
0010
2000
0000
,
3100
0010
0100
0000
0000
0000
0010
0100
0010
0000
0000
0000
0100
0010
0100
0000
,
0000
0000
0100
0010
0001
1000
0000
1000
,
0000
0010
0100
0001
0100
0000
0110
0000
,
0010
1000
0001
0010
0100
1000
0020
0000
,
0130
0001
0010
0100
1000
0010
1000
0100
,
0001
0100
1000
0001
0100
0010
1000
0000
,
0100
1000
0010
0100
0001
0010
0001
0100
,
1000
0100
0001
1000
0010
0000
0220
0000
,
0000
0330
0000
0000
,
0002
0000
0000
2003
0000
0000
3200
0000
,
0000
0300
0020
0032
,
0000
0000
0000
0000
0103
0000
0010
0100
0020
0000
0000
0000
0000
0000
0030
0000
,
1000
0100
1100
0000
0001
0010
0011
0000
,
1000
0010
1010
0000
0001
0100
0101
0000
,
1000
0100
0110
0000
0001
0010
0110
0000
,
1000
0001
0101
0000
1000
0100
0010
0001
,
2000
0010
3010
0200
0001
0301
0020
0100
,
0130
1000
0001
0100
0001
1000
0100
0000
,
2000
0010
3010
0002
0010
0013
0200
0010
,
0310
0001
1000
0100
0001
0100
2000
0000
,
3001
0010
0110
0000
1000
0010
0110
0000
,
0001
1000
1100
0000
1000
0001
0101
0000
,
0001
0010
1100
0000
1000
0010
0101
0000
,
0001
1000
0110
0000
0001
0010
0100
1000
,
0002
0100
0103
0020
1000
1030
0200
0010
,
0310
0001
1000
0100
1000
0001
0100
0000
,
0002
0010
0013
2000
0010
3010
0200
1000
,
1300
0001
0010
0100
0000
0110
0000
0100
,
2000
0000
0000
0001
0001
0000
0000
0000
,
0010
0000
0000
0001
0001
0000
0000
0000
,
0100
0000
0000
0001
0001
0000
0000
3000
,
0010
0000
0010
0000
1000
0000
0010
0000
0100
0000
0001
0000
0100
0010
0100
0010
,
1000
0002
0000
0103
1000
0100
0001
1000
,
0010
0100
0001
0010
0100
1000
0010
0100
,
0001
2000
0000
3100
0001
0100
1000
0001
,
0010
0100
1000
0010
0100
0001
0010
0000
,
0001
0100
0001
0000
0100
0000
0010
1000
0010
0000
1000
0000
0001
0010
0001
0000
,
0010
0100
1000
0001
0100
0010
1000
0000
,
0100
0010
0100
0000
0010
0000
0001
0100
0001
0000
0100
0000
0010
1000
0010
0000
,
1000
0001
0010
0100
1000
0010
0110
0000
,
0001
1000
0001
1000
0001
0000
0010
0000
0100
0000
1000
0000
0100
0000
0000
0000
,
0010
0001
0100
0010
1000
0100
0010
0001
,
1000
0001
1000
0001
1000
0000
0010
0000
0100
0000
0001
0000
0010
0000
0000
0000
,
0100
0000
0010
0100
0010
0000
0100
1000
0001
0000
0100
0000
0010
0000
1000
0000
,
0001
0010
0001
0000
0010
0000
0100
1000
0100
0000
1000
0000
0010
0100
0010
0000
,
0100
0001
1000
0100
1000
0001
0010
0000
,
0100
0010
0100
0000
0010
0000
0001
0100
0001
0000
0100
0000
0010
1000
0010
0000
,
1000
0001
0010
0100
0000
0110
0000
1000
,
0001
0100
0001
0000
0100
0000
0010
0100
0010
0000
1000
0000
0001
0000
0000
0000
,
0010
0001
0010
0000
0100
0000
0010
0100
0010
0000
0100
0000
1000
0000
0001
0000
,
0100
0001
0100
0000
0010
0000
1000
0001
1000
0000
0100
0000
1000
0000
0000
0000
,
0001
0010
0001
0000
0010
0000
0100
1000
0100
0000
1000
0000
0002
0000
0000
0000
,
0103
0000
0010
0100
0010
0000
0100
0010
1000
0000
0001
0000
0010
0000
0100
0000
,
1000
0000
0100
0010
0100
0000
0010
0001
1000
0000
0010
0000
0100
0000
0001
0000
,
0010
0000
0001
0010
0001
0010
0001
0000
1000
0100
1000
0000
0001
0000
0100
0000
,
0010
0000
1000
0010
1000
0010
1000
0000
0001
0100
0001
0000
0010
0000
2002
0000
,
0000
0000
3003
0000
;

//--------------- dance-double - forcednature ----------------
#NOTEDATA:;
#STEPSTYPE:dance-double;
#DESCRIPTION:forcednature;
#CREDIT:forcednature;
#DIFFICULTY:Easy;
#METER:7;
#RADARVALUES:0,0,0,0,0;
#NOTES:
00000000
00000000
00000000
00000000
,
00000000
00000000
00000000
00000000
,
00000000
00000000
00000000
00000000
,
00000000
00000000
00000000
00000000
,
00000000
00000000
00000000
00000000
,
00010000
00000000
00000000
00010000
00000000
00000000
00001000
00000000
,
00000000
00000000
00000000
00000000
,
00100000
00000000
00100000
00000000
,
00100000
00000000
10010000
00000000
,
10000000
00000000
10000000
00010000
,
00100000
00000000
00001000
00000000
,
00010000
00000000
00010000
00000100
,
00001000
00000000
00000001
00000000
,
00000100
00000000
00000100
00000010
,
00001000
00000000
00000100
00000000
,
00010000
00000000
00010000
00001000
,
00010000
00000000
00001000
00000000
,
00011000
00000000
01000000
00010000
,
01000000
00000000
00100000
00000000
,
10000000
00000000
01000000
10000000
,
01000000
00000000
00100000
00000000
,
01000000
00000000
00100000
00010000
,
00100000
00000000
00001000
00000000
,
00010000
00000000
00001000
00010000
,
00000100
00000000
00001000
00000000
,
00001001
00000000
00000000
00000000
,
00000001
00000000
00000001
00000000
,
00000100
00000000
00000001
00000000
,
00000020
00000000
00000030
00000000
,
00001001
00000000
00000000
00000000
,
00001000
00000000
00001000
00000000
,
00000100
00000000
00010000
00000000
,
00002000
00000000
00003000
00000000
,
00011000
00000000
00010000
00000000
,
00001000
00000000
01000000
00000000
,
00010000
00000000
01000000
00000000
,
00100000
00000000
10000000
00000000
,
10010000
00000000
00000000
00000000
,
00010000
00000000
00010000
00000000
,
00100000
00000000
00001000
00000000
,
00020000
00000000
00030000
00000000
,
00011000
00000000
00000000
00000000
,
00001000
00000000
00001000
00000000
,
00010000
00000000
00000100
00000000
,
00002000
00000000
00003000
00000000
,
00001001
00000000
00000001
00000000
,
00000100
00000000
00000001
00000000
,
00000010
00000000
00000001
00000000
,
00001000
00000000
00000010
00000000
,
00000000
00000000
00000000
00000000
,
00002000
00000000
00000000
00000000
,
00003000
00000000
00000200
00000000
,
00000300
00020000
00000000
00030000
,
00001000
00010000
00001000
00010000
,
00000100
00001000
00000100
00001000
,
00000010
00000100
00000010
00000100
,
00000001
00000010
00000100
00001000
,
00000100
00000000
00000000
00010000
00000000
00000000
00002000
00000000
,
00000000
00023000
00000000
00030000
,
00001000
00000000
00000000
00100000
00000000
00000000
00020000
00000000
,
00000000
20030000
00000000
30000000
,
01000000
10000000
01000000
10000000
,
00100000
01000000
00100000
01000000
,
00010000
00100000
00010000
00100000
,
00001000
00010000
00000010
00001000
,
00000100
00000000
00000000
00001000
00000000
00000000
00000002
00000000
,
00000000
00000203
00000000
00000300
,
00000010
00000000
00000000
00001000
00000000
00000000
00000200
00000000
,
00000000
00020300
00000000
00030000
,
00002000
00000000
00010000
00000000
,
01000000
00000000
00010000
00000000
,
01000000
00000000
00010000
00003000
,
00001000
00001000
00010000
00001000
,
00100000
00000000
00000000
00100000
00000000
00000000
00020000
00000000
,
00000000
01030000
00010000
00000000
,
10000000
00000000
00000000
10000000
00000000
00000000
00200000
00000000
,
00000000
01300000
00010000
00000000
,
00100000
00000000
00000000
00001000
00000000
00000000
00020000
00000000
,
00000000
00030200
00000300
00000000
,
00010000
00000000
00000000
00001000
00000000
00000000
02000000
00000000
,
00000000
03020000
00000000
00030000
,
10000000
00100000
01000000
00100000
,
01000000
00010000
00100000
00010000
,
00100000
00001000
00010000
00001000
,
00010000
00000100
00001000
00000100
,
00000010
00000000
00000000
00000100
00000000
00000000
00000220
00000000
,
00000330
00002002
00000000
00003003
,
00000001
00000000
00000000
00000100
00000000
00000000
00000220
00000000
,
00000330
00002002
00000000
00003003
,
00001000
00000000
00000100
00010000
,
00000000
00010000
00001000
00010000
,
00001000
00000000
01000000
00010000
,
00000000
00010000
01000000
00100000
,
01000000
00000000
01000000
00100000
,
10000000
00100000
10000000
00000000
,
00010000
00000000
00000000
00100000
00000000
00000000
00001000
00000000
,
00000000
00010000
00000000
00000000
00000100
00000000
00000000
00002000
,
00000000
00000000
00003000
00000000
;

//--------------- dance-double - forcednature ----------------
#NOTEDATA:;
#STEPSTYPE:dance-double;
#DESCRIPTION:forcednature;
#CREDIT:forcednature;
#DIFFICULTY:Medium;
#METER:11;
#RADARVALUES:0,0,0,0,0;
#NOTES:
00000000
00000000
00000000
00000000
,
00000000
00000000
00000000
00000000
,
00000000
00000000
00000000
00000000
,
00000000
00000000
00000000
00000000
,
00000000
00000000
00000000
00000000
,
00010000
00000000
00000000
00001000
00000000
00000000
00011000
00000000
,
00000000
00000000
00000000
00000000
,
00100000
00000000
00100000
00000000
,
00100000
00000000
00010000
00100000
00020000
00000000
00030000
00000000
,
01000000
00010000
00000000
00010000
01000000
00000000
00100000
00000000
,
20000000
00000000
30000000
00020000
00000000
00030000
00200000
00000000
,
00301000
00010000
00000000
00010000
00001000
00000000
00010000
00000000
,
00000200
00000000
00000300
00002000
00000000
00003000
00000020
00000000
,
00001030
00000001
00000000
00000001
00001000
00000000
00000200
00000000
,
00000010
00000310
00000100
00010000
,
00001000
00010000
00000000
00001000
00100000
00000000
00001000
00010000
,
00000000
00001000
00100000
00000000
00000000
00110000
00000000
00000000
,
00011000
00000000
00000000
00000100
00001000
00000000
00000100
00000000
,
00000020
00000000
00000030
00000002
00000000
00000003
00000200
00000000
,
00000310
00001000
00000000
00001000
00000010
00000000
00010000
00000000
,
00002000
00000000
00003000
02000000
00000000
03000000
00020000
00000000
,
10030000
00010000
00000000
00010000
10000000
00000000
01000000
00000000
,
00100000
00010000
00000000
00010000
01000000
00000000
00001000
00000000
,
00010000
00001000
00000000
00001000
00010000
00000000
00010000
00001000
,
00000000
00001000
00010000
00000000
00000200
00000000
00000000
00000300
,
00001000
00000001
00000000
00000001
00001000
00000000
00001000
00000001
,
00000000
00000000
00000100
00000010
,
00000000
00000010
00001000
00000100
,
00000000
00000100
00020000
00030000
,
00001000
00010000
00000000
00010000
00001000
00000000
00001000
00010000
,
00000000
00001000
00100000
00010000
,
00000000
00100000
01000000
10000000
,
00000000
00000000
00010000
00000000
02000000
00000000
00000000
03000000
,
00100000
10000000
00000000
00100000
01000000
00000000
00010000
00000000
,
00100000
00002000
00000000
00023000
,
00000000
00030200
00000000
00002300
,
00000000
00003010
00000220
00000330
,
00001000
00000001
00000000
00000001
00001000
00000000
00001000
00000001
,
00000000
00000010
00000100
00001000
,
00000000
00000100
00010000
00001000
,
00000000
01000000
00010000
00100000
,
00010000
10000000
00000000
10000000
00010000
00000000
00010000
10000000
,
00000000
00100000
01000000
00010000
,
00000000
00000000
00100000
00000000
00001000
00000000
00010000
00001000
,
00000000
00001000
00010000
00000000
00000100
00000000
00001000
00000000
,
00002001
00000000
00000001
00000000
,
00003100
00010000
00001000
00100000
,
00010000
01000000
00000000
00100000
01000000
00000000
00100000
10000000
,
00000000
01000000
10000000
00000000
00010000
10000000
00010000
00000000
,
00000000
00000000
00000000
00000000
,
01000000
00000000
00000000
00001000
00000000
00000000
00010000
00000000
,
00000000
00000000
00000100
00001000
,
00000000
00002002
00000000
00003003
,
00000001
00000100
00000010
00000000
00000100
00000010
00001000
00000000
,
00000100
00001000
00000100
00000000
00001000
00000100
00010000
00000000
,
00001000
00010000
00001000
00000000
00100000
00010000
01000000
00000000
,
00100000
10000000
00100000
00000000
10000000
01000000
00100000
00010000
,
00200000
00000000
00300000
00002000
00000000
00003000
00020000
00000000
,
00030000
00000000
00022000
00000000
00000000
00033000
00000000
00000000
,
00000200
00000000
00000300
00002000
00000000
00003000
00000020
00000000
,
00000030
00000000
00000220
00000000
00000000
00000330
00000000
00000000
,
00000100
00000001
00001000
00000000
00000100
00001000
00000001
00000000
,
00000010
00000001
00000010
00000000
00000100
00001000
00000100
00000000
,
00010000
00001000
00100000
00000000
00010000
00100000
00010000
00000000
,
01000000
00010000
01000000
00000000
00100000
10000000
00100000
10000000
,
02000000
00000000
03000000
00200000
00000000
00300000
00002000
00000000
,
00003000
00000000
00022000
00000000
00000000
00033000
00000000
00000000
,
00000200
00000000
00000300
00002000
00000000
00003000
00000020
00000000
,
00000030
00000000
00002002
00000000
00000000
00003003
00000000
00000000
,
00020000
00000000
00001000
00000000
,
00000100
00000000
00001000
00000000
,
00000010
00000000
00001000
00000000
,
00030100
00010000
00001000
00001000
,
00100000
00010000
00000000
00100000
00010000
00000000
01000000
00010000
,
00000000
01000000
00100000
10000000
,
01000000
10000000
00000000
01000000
10000000
00000000
00100000
10000000
,
00000000
10000000
00000000
00010000
01000000
00000000
00001000
00000000
,
00022000
00000000
00033000
00022000
00000000
00033000
00022000
00000000
,
00033000
00000100
00001000
00000000
00000010
00000000
00010000
00000000
,
00022000
00000000
00033000
00022000
00000000
00033000
00022000
00000000
,
00033000
01000000
00010000
00000000
00100000
00000000
10010000
00000000
,
10000000
01000000
10000000
00010000
,
00100000
00010000
00100000
00000000
00001000
00000000
00010000
00000000
,
00000010
00001000
00000010
00000100
,
00000001
00000100
00000001
00000000
00000010
00000000
00000001
00000000
,
00001000
00000100
00000000
00000100
00001000
00000000
00001000
00000100
,
00000000
00000100
00010000
00000000
00001000
00000000
00011000
00000000
,
01000000
00010000
00000000
00010000
01000000
00000000
01000000
00010000
,
00000000
00010000
10000000
00000000
01000000
00000000
00100000
00000000
,
10010000
00000000
00000000
00010000
00000000
00010000
01000000
00000000
,
00000000
00010000
00000000
00100000
00010000
00000000
00100000
00000000
,
00001000
00000000
00000000
00001000
00000000
00001000
00010000
00000000
,
00000000
00000100
00000000
00001000
00000000
00000010
00001000
00000000
,
00000001
00000100
00001000
00010000
,
01000000
10000000
00100000
00010000
,
00001000
00010000
00000000
00010000
00001000
00000000
00001000
01000000
,
00000000
01000000
00010000
00000000
00010000
00100000
00000000
20020000
,
00000000
00000000
30030000
00000000
;

//--------------- dance-double - forcednature ----------------
#NOTEDATA:;
#STEPSTYPE:dance-double;
#DESCRIPTION:forcednature;
#CREDIT:forcednature;
#DIFFICULTY:Hard;
#METER:15;
#RADARVALUES:0,0,0,0,0;
#NOTES:
00000000
00000000
00000000
00000000
,
00000000
00000000
00000000
00000000
,
00000000
00000000
00000000
00000000
,
00000000
00000000
00000000
00000000
,
00000000
00000000
00000000
00000000
,
00001000
00000000
00000000
00010000
00000000
00000000
00011000
00000000
,
00000000
00000000
00000000
00000000
,
00000010
00000000
00000010
00000000
,
00000010
00000000
00000000
00000000
00001000
00000000
00000001
00001000
00000002
00000000
00000000
00000000
00000103
00000000
00000000
00000000
,
00000110
00000000
00000010
00001000
00000100
00001000
00000100
00000000
,
00010000
00001000
00100000
00020000
00000000
01030000
00100000
00000000
,
10010000
00000000
10000000
00100000
01000000
00100000
01000000
00000000
,
00010000
00100000
00001000
00020000
00000000
00030100
00001000
00000000
,
00001001
00000000
00000001
00000100
00000010
00000100
00000001
00000000
,
00001000
00000100
00010000
00001000
00100000
00010000
00200000
00000000
,
01300000
10000000
10000000
00100000
10000000
10000000
00010000
00000000
,
00100000
00001000
00010000
00000100
00000000
00022000
00000000
00033000
,
00000010
00000000
00001000
00000100
00000010
00000100
00001000
00000000
,
00000001
00000100
00000010
00002000
00000000
00003100
00010000
00000000
,
00001000
00000000
00100000
00010000
00100000
01000000
00100000
00000000
,
00010000
10000000
00100000
02000000
00000000
03010000
00100000
00000000
,
00001000
00010000
00000100
00010000
00001000
00100000
00002000
00000000
,
00013000
00000010
00010000
00001000
01000000
00010000
02000000
00000000
,
03100000
10000000
10000000
01000000
10000000
10000000
00010000
00000000
,
00100000
00001000
00001000
00010000
00000200
00000000
00000000
00000300
,
00010000
00001000
00010000
00000000
00000000
00000000
00001000
00010000
00001000
00000000
00000000
00000000
00010000
00001000
00010000
00000000
,
00000000
00000000
00000100
00001000
00000100
00000010
00000000
00000010
,
00000000
00000000
00000001
00000100
00000001
00000100
00000000
00000100
,
00000000
00000000
00000010
00000000
00001000
00000000
00000100
00000000
00001000
00000000
00000100
00000000
00020000
00000000
00000000
00030000
,
00001000
00010000
00001000
00000000
00000000
00000000
00010000
00001000
00010000
00000000
00000000
00000000
00001000
00010000
00001000
00000000
,
00000000
00000000
00100000
00010000
00100000
01000000
00000000
10000000
,
00000000
10000000
00100000
01000000
00100000
01000000
00000000
00010000
,
00000000
00100000
00001000
00001000
00010000
00000100
00020000
00000000
,
00031000
00000010
00000100
00000010
00001000
00010000
00001000
00000010
,
00000100
00000010
00001000
00010000
00001000
01000000
00002000
00000000
,
00013000
00100000
01000000
00100000
00010000
00001000
00010000
00100000
,
01000000
00000000
00100000
00000000
00010000
00000000
00001000
00000000
00010000
00000000
00100000
00000000
02000000
00000000
00000000
03000000
,
00010000
10000000
00010000
00000000
00000000
00000000
10000000
00010000
10000000
00000000
00000000
00000000
00010000
10000000
00010000
00000000
,
00000000
00000000
10000000
01000000
00100000
01000000
00000000
01000000
,
00000000
00000000
00100000
00001000
00010000
00000100
00000000
00000100
,
00000000
00000000
00001000
00000000
00000010
00000000
00000010
00000000
00000100
00000000
00000001
00000000
00002000
00000000
00000000
00003000
,
00000001
00001000
00000001
00000000
00000000
00000000
00001000
00000001
00001000
00000000
00000000
00000000
00000001
00001000
00000001
00000000
,
00000000
00000000
00001000
00000100
00010000
00001000
00000000
00001000
,
00000000
00100000
00010000
01000000
00010000
00000000
10010000
00000000
,
10000000
00100000
10000000
00010000
01000000
00001000
00020000
00000000
,
00030100
00001000
00000010
00000100
00000001
00000010
00000100
00001000
,
00000010
00000100
00001000
00010000
00001000
00010000
00100000
00000000
,
01000000
00010000
00100000
01000000
10000000
00100000
01000000
00010000
,
00100000
01000000
00010000
00001000
00010000
00000000
00022000
00000000
,
00000000
00033000
00000000
00000000
,
00002000
00000000
00000000
00003020
00000000
00000000
00000032
00000000
,
00000000
00000003
00000200
00002300
,
00000000
00000000
00000000
00000000
00013000
00000000
00001000
00010000
00002000
00000000
00000000
00000000
00000000
00000000
00003000
00000000
,
00010000
00100000
10000000
00000000
10000000
01000000
00010000
00000000
,
00001000
00000010
00000001
00000000
00000001
00000100
00001000
00000000
,
00010000
00001000
00000010
00000000
00001000
00010000
00100000
00000000
,
00010000
00001000
00000100
00000000
00000001
00000010
00001000
00010000
,
00000200
00001000
00001300
00000020
00000100
00000130
00000002
00000010
,
00000013
00000100
00010000
00001000
00100000
00010000
01000000
00000000
,
00200000
10000000
10300000
02000000
00100000
03100000
00020000
01000000
,
01030000
00100000
10000000
01000000
00100000
00001000
00020000
00000000
,
00031000
00000100
00000001
00000000
00000001
00000010
00001000
00000000
,
00010000
01000000
10000000
00000000
10000000
00100000
00010000
00000000
,
00001000
00010000
01000000
00000000
00010000
00001000
00000100
00000000
,
00001000
00010000
00100000
00000000
10000000
01000000
00010000
00001000
,
00200000
00010000
00310000
02000000
00100000
03100000
20000000
01000000
,
31000000
00100000
00001000
00010000
00000100
00001000
00000010
00000000
,
00000200
00000001
00000301
00000020
00000100
00000130
00002000
00000010
,
00003010
00000100
00000001
00000010
00000100
00010000
00000000
00001000
,
00200000
00000000
00000000
00010000
00010000
00000000
00000000
00000000
,
00001000
00000000
00000000
00010000
00010000
00000000
00000000
00000000
,
00000100
00000000
00000000
00010000
00010000
00000000
00300000
00000000
,
00100000
00000000
00010000
00000000
01000000
00000000
00100000
00000000
10000000
00000000
01000000
00000000
10000000
00010000
10000000
00010000
,
10000000
00020000
00000000
00130000
01000000
00100000
00001000
00010000
,
00000100
00010000
00001000
00000010
00000100
00000010
00000001
00001000
,
00000001
00000200
00000000
00000310
00000100
00000010
00010000
00001000
,
00010000
00000010
00000100
00000010
00001000
00000100
00010000
00000000
,
00001000
00010000
00001000
00000000
00100000
00000000
00010000
00100000
00010000
00000000
01000000
00000000
00100000
01000000
00100000
00000000
,
10000000
01000000
10000000
00010000
00100000
01000000
00010000
00000000
,
00001000
00010000
00001000
00000000
00010000
00000000
00000100
00001000
00000100
00000000
00001000
00000000
00000010
00000100
00000010
00000000
,
00000100
00000001
00000010
00000100
00010000
00000000
00011000
00000000
,
00001000
00010000
00001000
00010000
00001000
00000000
00010000
00000000
00100000
00000000
01000000
00000000
00100000
00000000
00000000
00000000
,
10000000
01000000
00010000
00010000
00001000
00010000
00001000
00000000
,
00010000
00001000
00010000
00001000
00010000
00000000
00001000
00000000
00000010
00000000
00000100
00000000
00000010
00000000
00000000
00000000
,
00000001
00000000
00000100
00000001
00000100
00000000
00000010
00000100
00000010
00000000
00001000
00000000
00000100
00000000
00001000
00000000
,
00000100
00010000
00000100
00000000
00010000
00000000
00001000
00010000
00001000
00000000
00100000
00000000
00010000
00100000
00010000
00000000
,
01000000
00100000
10000000
01000000
00100000
00001000
00010000
00000000
,
00000100
00001000
00000100
00000000
00001000
00000000
00000010
00001000
00000010
00000000
00000100
00000000
00000001
00000100
00000001
00000000
,
00000010
00000100
00010000
00001000
00000000
00011000
00000000
00100000
,
00010000
01000000
00010000
00000000
01000000
00000000
00100000
01000000
00100000
00000000
10000000
00000000
01000000
00000000
00000000
00000000
,
00100000
00010000
00100000
00000000
00001000
00000000
00010000
00001000
00010000
00000000
00000100
00000000
00001000
00000000
00000010
00000000
,
00000100
00000010
00000100
00000000
00000001
00000000
00000010
00000001
00000010
00000000
00000100
00000000
00001000
00000000
00000000
00000000
,
00000010
00001000
00000010
00000000
00001000
00000000
00000100
00001000
00000100
00000000
00010000
00000000
00002000
00000000
00000000
00000000
,
01003000
00000000
00010000
01000000
00010000
00000000
01000000
00100000
01000000
00000000
00100000
00000000
10000000
00000000
01000000
00000000
,
10000000
00000000
01000000
00100000
01000000
00000000
00100000
00010000
00100000
00000000
00010000
00000000
01000000
00000000
00001000
00000000
,
00010000
00000000
00001000
00010000
00001000
00010000
00001000
00000000
00010000
00001000
00010000
00000000
00000100
00000000
00001000
00000000
,
00000010
00000000
00000100
00000010
00000100
00000010
00000100
00000000
00000001
00000100
00000001
00000000
00000010
00000000
00002002
00000000
,
00000000
00000000
00003003
00000000
;
