#VERSION:0.83;
#TITLE:ねぇねぇねぇ。;
#SUBTITLE:;
#ARTIST:ピノキオピー;
#TITLETRANSLIT:Nee nee nee.;
#SUBTITLETRANSLIT:;
#ARTISTTRANSLIT:PinocchioP;
#GENRE:;
#CREDIT:video/audio extraordiberry;
#MUSIC:Nee nee nee.ogg;
#BANNER:Nee nee nee.png;
#BACKGROUND:Nee nee nee-bg.png;
#CDTITLE:;
#SAMPLESTART:54.626;
#SAMPLELENGTH:15.001;
#SELECTABLE:YES;
#OFFSET:-0.028;
#BPMS:0.000=144.992;
#STOPS:;
#TIMESIGNATURES:0.000=4=4;
#DISPLAYBPM:145.000;
#BGCHANGES:3.000=Nee nee nee.mp4=1.000=0=0=0=StretchNoLoop====,
99999.000=-nosongbg-=1.000=0=0=0=StretchNoLoop====
;
#FGCHANGES:;

//--------------- dance-single - forcednature ----------------
#NOTEDATA:;
#STEPSTYPE:dance-single;
#DESCRIPTION:forcednature;
#CREDIT:forcednature;
#DIFFICULTY:Beginner;
#METER:1;
#RADARVALUES:0,0,0,0,0;
#NOTES:
0000
0000
0000
0000
,
0000
0000
0000
0000
,
0000
0000
0000
0000
,
0000
0000
0000
0000
,
0000
0000
0000
0000
,
1000
0000
0000
0000
,
0000
0000
0000
0000
,
0001
0000
0000
0000
,
0000
0000
0000
0000
,
0100
0000
0000
0000
,
0000
0000
0000
0000
,
0010
0000
0000
0000
,
0000
0000
0000
0000
,
1000
0000
0000
0000
,
0000
0000
0000
0000
,
0010
0000
0000
0000
,
0000
0000
0000
0000
,
0100
0000
0000
0000
,
0000
0000
0000
0000
,
0001
0000
0000
0000
,
0000
0000
0000
0000
,
0010
0000
0000
0000
,
0000
0000
0000
0000
,
0001
0000
0000
0000
,
1000
0000
0000
0000
,
0100
0000
0000
0000
,
0000
0000
0000
0000
,
1000
0000
0000
0000
,
0010
0000
0000
0000
,
0100
0000
0000
0000
,
0000
0000
0000
0000
,
0001
0000
0000
0000
,
1000
0000
0000
0000
,
0010
0000
0000
0000
,
0010
0000
0000
0000
,
0100
0000
0000
0000
,
0000
0000
0000
0000
,
0001
0000
0000
0000
,
1000
0000
0000
0000
,
0001
0000
0000
0000
,
0000
0000
0000
0000
,
0010
0000
0000
0000
,
0010
0000
0000
0000
,
0001
0000
0000
0000
,
0000
0000
0000
0000
,
1000
0000
0000
0000
,
0001
0000
0000
0000
,
1000
0000
0000
0000
,
0000
0000
0000
0000
,
0100
0000
0000
0000
,
0010
0000
0000
0000
,
0100
0000
0000
0000
,
1000
0000
0000
0000
,
1001
0000
0000
0000
,
0000
0000
0000
0000
,
0001
0000
0000
0000
,
0000
0000
0000
0000
,
0100
0000
0000
0000
,
0000
0000
0000
0000
,
0010
0000
0000
0000
,
1000
0000
0000
0001
;

//--------------- dance-single - forcednature ----------------
#NOTEDATA:;
#STEPSTYPE:dance-single;
#DESCRIPTION:forcednature;
#CREDIT:forcednature;
#DIFFICULTY:Easy;
#METER:5;
#RADARVALUES:0,0,0,0,0;
#NOTES:
0000
0000
0000
0000
,
0000
0000
0000
0000
,
0000
0000
0000
0000
,
0000
0000
0000
0000
,
0000
0000
0000
0000
,
0001
0000
0000
0000
,
0100
0000
0010
0000
,
1000
0000
0100
0000
,
2000
0000
3000
0000
,
1001
0000
0001
0000
,
0010
0001
0010
0000
,
0100
0000
1000
0000
,
0010
0000
0100
0010
,
0100
0000
0001
0000
,
1000
0000
0100
1000
,
0100
0000
0010
0000
,
0001
0001
1000
0000
,
0010
0000
0000
0000
,
0010
0000
0100
0000
,
0001
0000
0000
0000
,
0001
0000
1000
0000
,
0100
0000
0000
0000
,
0100
0000
0010
0000
,
0001
0001
1000
0001
,
2000
0000
3010
0000
,
0110
0000
0001
0001
,
1000
0000
1000
1000
,
0001
0000
0001
0001
,
0100
0000
0010
0000
,
1001
0000
0110
0000
,
1001
0000
0001
0000
,
1000
0000
0100
0000
,
1000
0001
1000
0000
,
1001
1001
1001
0000
,
0001
0010
0100
0000
,
0010
0001
1000
0100
,
2000
0000
3000
0010
,
1000
0001
0100
0000
,
0001
1000
0001
0000
,
0010
0001
0100
0010
,
2000
0000
3100
0000
,
1001
1001
1001
0000
,
1000
0100
1000
0000
,
0010
1000
0001
0100
,
0002
0000
0003
0010
,
0001
1000
0100
0000
,
0010
0100
0010
0000
,
0001
0100
0001
1000
,
0020
0000
0130
0001
,
1000
0100
1000
0001
,
0020
0000
0130
0010
,
0001
0000
1000
0000
,
0010
0100
0110
0000
,
1001
0000
1000
0100
,
1000
0000
0010
0000
,
0100
0000
0001
0100
,
0001
0000
0010
0000
,
0100
0000
0010
0001
,
1000
0000
0010
0000
,
0100
0000
0001
1000
,
0002
0000
0013
0100
;

//--------------- dance-single - forcednature ----------------
#NOTEDATA:;
#STEPSTYPE:dance-single;
#DESCRIPTION:forcednature;
#CREDIT:forcednature;
#DIFFICULTY:Medium;
#METER:8;
#RADARVALUES:0,0,0,0,0;
#NOTES:
0000
0000
0000
0000
,
0000
0000
0000
0000
,
0000
0000
0000
0000
,
0000
0000
0000
0000
,
0000
0000
0000
0000
,
0001
0100
0001
1000
,
0010
0100
0001
0000
,
2000
0000
3002
0000
,
0023
0000
0130
0010
,
1001
1000
0100
1000
,
0010
0000
0100
0000
0001
1000
1000
0000
,
0100
0010
0001
0010
,
0100
0000
1000
0000
0001
0100
0100
0000
,
0010
1000
0001
1000
,
0010
0000
0100
0000
0001
0010
0010
0000
,
0001
1000
0100
1000
,
0010
0000
0000
0010
0000
0000
0010
0000
0000
0000
0100
0000
0001
0000
0000
0000
,
2000
0100
0100
0100
,
3001
0000
1000
0000
0001
1000
0010
0000
,
0200
0010
0010
0010
,
0301
0000
1000
0000
0100
1000
0100
0000
,
0020
0001
0001
0001
,
0130
0000
1000
0000
0010
1000
0001
0000
,
0000
0100
0010
0100
0010
0000
0110
0000
,
2000
3002
0000
0003
,
0100
0000
0001
0000
1000
1000
1000
0000
,
0100
0000
1000
0000
0001
0001
0001
0000
,
0010
0000
0001
0000
0100
0100
0100
0000
,
0010
1000
1001
0000
,
1000
0100
1000
0000
1000
0010
1000
0000
,
1000
0100
1000
0000
0010
0100
0010
0000
,
0110
0000
1001
0000
,
0101
1100
0101
0000
,
0110
1001
0110
0001
,
1000
0100
0010
0100
,
1000
0010
0100
0001
,
0020
0000
0030
0100
,
1000
0010
1000
0001
,
0100
0000
0010
0100
0010
0000
1000
0000
,
1100
0001
0101
1000
,
0020
0000
0100
0000
1030
0001
1000
0000
,
0110
1001
0110
0001
,
0010
0100
1000
0010
,
1000
0000
0001
0000
0100
0001
0100
0000
,
0020
1000
0130
0001
,
1000
0000
0100
0000
0010
0100
0010
0000
,
0001
0000
1000
0001
1000
0000
0010
0000
,
0110
0001
1001
1000
,
0200
0010
1300
0100
,
1000
0001
0100
0001
,
0020
0100
0031
0010
,
0110
0000
1001
0000
,
0001
1000
0001
1000
0010
0000
0000
0000
,
1001
1000
0100
1000
,
0010
0000
0100
0000
0001
1000
1000
0000
,
0100
0010
0100
1000
,
0001
0000
0010
0000
0001
0100
0100
0000
,
0010
1000
0100
1000
,
0001
0000
0100
0000
0001
0010
0010
0000
,
1001
1000
0100
1000
,
0010
0000
0000
0010
0000
0000
0100
0000
0010
0000
0000
0000
1001
0000
0000
0000
;

//--------------- dance-single - forcednature ----------------
#NOTEDATA:;
#STEPSTYPE:dance-single;
#DESCRIPTION:forcednature;
#CREDIT:forcednature;
#DIFFICULTY:Hard;
#METER:12;
#RADARVALUES:0,0,0,0,0;
#NOTES:
0000
0000
0000
0000
,
0000
0000
0000
0000
,
0000
0000
0000
0000
,
0000
0000
0000
0000
,
0000
0000
0000
0000
,
1000
0000
0100
0000
1000
0010
0100
0001
,
0010
0000
0000
0010
0000
0000
0001
0000
0100
0000
0000
0000
0001
0000
1000
0000
,
0100
0000
0000
1000
0000
0000
0001
0000
0100
0000
0000
0001
0000
0000
1000
0000
,
0020
0000
0000
0000
0130
0100
0100
0000
,
0001
0000
0000
0010
0001
0000
1000
0000
0100
0000
0000
0000
0010
0000
0001
0000
,
1000
0000
0000
0010
1000
0000
0001
0000
0100
0000
0010
0000
0010
0000
0100
0000
,
0001
0000
0000
1000
0100
0000
1000
0000
0001
0000
0000
0100
0001
0000
1000
0000
,
0010
0100
0001
0000
0010
0100
0100
0010
,
0001
0000
0000
1000
0100
0000
1000
0000
0001
0000
0000
0000
0100
0000
0010
0000
,
1000
0000
0000
0100
1000
0000
0001
0000
0010
0000
0100
0000
0100
0000
0010
0000
,
0001
0000
0000
1000
0010
0000
0100
0000
0001
0000
0000
0010
0001
0000
1000
0000
,
0100
0000
0000
0110
0000
0000
0010
0000
0001
1000
0001
0000
1000
0000
0000
0000
,
0010
0000
0010
0100
0001
0000
0001
0000
,
0010
0100
1000
0010
0000
0110
0101
0000
,
1000
0000
1000
0100
0010
0000
0010
0000
,
0001
0000
0100
0000
0010
0000
1000
0000
0001
0000
1000
0001
1000
0000
0000
0000
,
0001
0000
0001
0100
0010
0000
0010
0000
,
1000
0100
1000
0001
0000
0011
1001
0000
,
0001
1000
0001
1000
0010
0100
0010
0100
,
0002
0000
0000
0000
1000
0000
0000
0000
0103
0000
0010
0000
1000
0010
1000
0000
,
0001
0000
0000
0001
0000
0000
0010
0000
0100
0000
1000
0000
1100
0000
0000
0000
,
1000
0000
0000
1000
0000
0000
0010
0000
0100
0000
0001
0000
0101
0000
0000
0000
,
0001
0000
0000
0010
0000
0000
1000
0000
0010
0000
0001
0000
0100
0000
0000
0000
,
0001
0000
0001
0000
1000
0000
0001
0000
0100
0000
0000
0010
1000
0000
0000
0000
,
0001
0000
0010
0001
0000
0001
0100
0000
0010
0000
1000
0010
0000
0010
0100
0000
,
0001
0000
0010
0001
0000
0001
0100
0000
0010
0000
1000
0000
1010
0000
0000
0000
,
1002
0000
0103
0010
2000
0000
3100
0010
,
0110
1001
0220
0330
,
1000
0100
0000
0000
0001
0100
0000
0000
1000
0100
0000
0000
0010
0000
0001
0000
,
1000
0000
0010
1000
0010
0000
0100
0000
0001
0000
0000
0000
0010
0000
0100
0000
,
1000
0010
0000
0000
0100
0001
0000
0001
0100
0000
0010
0000
1000
0000
0001
0000
,
0020
0000
1000
0000
0031
0000
1000
0100
,
1000
0010
0000
0000
0100
0001
0000
0000
1000
0000
0100
0010
0100
0000
0010
0000
,
0001
0000
0000
0001
0100
0000
0010
0000
1000
0000
0000
0000
0100
0000
0001
0000
,
0100
0000
0000
0100
1000
0000
0010
0000
0100
0000
0000
0001
0010
0000
0001
0000
,
2000
0000
0010
0000
3001
0100
0101
0000
,
0001
0010
0000
0000
1000
0010
0000
0000
0001
0010
0000
0000
0100
0000
1000
0000
,
0001
0000
0100
0001
0100
0000
0010
0000
1000
0000
0000
0000
0100
0000
0010
0000
,
0001
0100
0000
0100
0010
0000
1000
0000
0010
0000
0100
0000
0001
0000
1000
0000
,
0200
0000
0001
0000
1300
0000
0001
0010
,
0001
1000
0000
1000
0100
0000
0010
0000
0001
0000
0010
0001
0010
0000
0100
0000
,
1000
0000
0000
1000
0010
0000
0100
0000
0001
0000
0000
0000
0010
0000
1000
0000
,
0010
0000
0000
0010
0001
0000
0100
0000
0010
0000
0000
1000
0100
0000
1000
0000
,
0002
0000
0100
0000
1003
0010
1010
0000
,
0001
0000
0000
0001
0100
0000
0010
0000
1000
0000
0000
1000
0100
0000
0010
0000
,
0002
0000
1000
0000
0013
0100
0110
0000
,
1000
0000
0000
0100
1000
0000
0000
0000
0001
0000
0100
0001
0100
0000
0000
0000
,
0010
1000
0100
1000
1001
0000
0001
0010
,
0100
0000
0000
1000
0001
0000
0100
0000
0010
0000
0000
0000
1000
0000
0001
0000
,
0010
0000
0000
0100
1000
0000
0001
0000
0100
0000
0010
0000
0010
0000
0100
0000
,
0001
0000
0000
1000
0100
0000
1000
0000
0001
0000
0000
0010
0100
0000
1000
0000
,
0001
0100
1000
0000
0100
0001
0001
1000
,
0010
0000
0000
0100
0001
0000
0010
0000
0100
0000
0000
0000
1000
0000
0010
0000
,
0001
0000
0000
0010
1000
0000
0001
0000
0100
0000
0010
0000
0010
0000
0100
0000
,
0002
0000
1000
0000
0013
0100
0010
0001
,
0100
0000
0000
0110
0000
0000
1000
0000
0001
0000
0000
0000
1001
0000
0000
0000
;

//--------------- dance-double - forcednature ----------------
#NOTEDATA:;
#STEPSTYPE:dance-double;
#DESCRIPTION:forcednature;
#CREDIT:forcednature;
#DIFFICULTY:Easy;
#METER:5;
#RADARVALUES:0,0,0,0,0;
#NOTES:
00000000
00000000
00000000
00000000
,
00000000
00000000
00000000
00000000
,
00000000
00000000
00000000
00000000
,
00000000
00000000
00000000
00000000
,
00000000
00000000
00000000
00000000
,
00010000
00000000
00000000
00000000
,
00001000
00000000
00100000
00000000
,
00010000
00000000
01000000
00000000
,
00200000
00000000
00300000
00000000
,
10010000
00000000
10000000
00000000
,
01000000
00100000
01000000
00000000
,
00100000
00000000
00001000
00000000
,
00010000
00000000
00001000
00010000
,
00001000
00000000
00010000
00000000
,
00000100
00000000
00001000
00000001
,
00001000
00000000
00000010
00000000
,
00000100
00000100
00000001
00000000
,
00000010
00000000
00000000
00000000
,
00000100
00000000
00001000
00000000
,
00000100
00000000
00000000
00000000
,
00010000
00000000
00001000
00000000
,
01000000
00000000
00000000
00000000
,
00010000
00000000
01000000
00000000
,
00100000
00100000
10000000
00100000
,
20000000
00000000
31000000
00000000
,
01100000
00000000
00100000
00100000
,
00001000
00000000
00010000
00010000
,
00001000
00000000
00010000
00010000
,
00000100
00000000
00001000
00000000
,
00001001
00000000
00000110
00000000
,
00001001
00000000
00000001
00000000
,
00000100
00000000
00001000
00000000
,
00010000
00001000
00010000
00000000
,
00011000
00011000
00011000
00000000
,
00100000
00010000
00100000
00000000
,
01000000
10000000
00010000
01000000
,
00020000
00000000
00030000
00100000
,
00001000
00010000
00000100
00000000
,
00010000
00001000
00010000
00000000
,
00000010
00001000
00000001
00000100
,
00000020
00000000
00001030
00000000
,
00011000
00011000
00011000
00000000
,
00000100
00001000
00000100
00000000
,
00010000
00001000
00100000
00010000
,
00200000
00000000
00300000
01000000
,
10000000
00010000
01000000
00000000
,
00100000
10000000
00100000
00000000
,
01000000
00010000
01000000
00001000
,
00020000
00000000
00030100
00001000
,
00000100
00000010
00000001
00001000
,
00000002
00000000
00000103
00000010
,
00001000
00000000
00000100
00000000
,
00010000
00001000
00011000
00000000
,
00011000
00000000
00100000
00010000
,
00100000
00000000
01000000
00000000
,
10000000
00000000
00010000
01000000
,
00010000
00000000
00100000
00000000
,
00001000
00000000
00010000
00000100
,
00001000
00000000
00000010
00000000
,
00001000
00000000
00000001
00001000
,
00000002
00000000
00000013
00000100
;

//--------------- dance-double - forcednature ----------------
#NOTEDATA:;
#STEPSTYPE:dance-double;
#DESCRIPTION:forcednature;
#CREDIT:forcednature;
#DIFFICULTY:Medium;
#METER:8;
#RADARVALUES:0,0,0,0,0;
#NOTES:
00000000
00000000
00000000
00000000
,
00000000
00000000
00000000
00000000
,
00000000
00000000
00000000
00000000
,
00000000
00000000
00000000
00000000
,
00000000
00000000
00000000
00000000
,
00010000
00001000
00100000
00010000
,
01000000
00100000
10000000
00000000
,
02000000
00000000
03200000
00000000
,
00302000
00000000
00013000
00000100
,
00011000
00010000
00000010
00001000
,
00000001
00000000
00000100
00000000
00000001
00001000
00001000
00000000
,
00000100
00010000
00001000
00100000
,
00001000
00000000
00010000
00000000
00000100
00001000
00001000
00000000
,
00000010
00010000
00001000
01000000
,
00010000
00000000
00100000
00000000
01000000
10000000
10000000
00000000
,
00100000
01000000
00010000
01000000
,
00001000
00000000
00000000
00001000
00000000
00000000
00001000
00000000
00000000
00000000
00010000
00000000
00000100
00000000
00000000
00000000
,
00002000
00000010
00000010
00000010
,
00003001
00000000
00000100
00000000
00000001
00001000
00000010
00000000
,
00020000
00001000
00001000
00001000
,
00030100
00000000
00010000
00000000
00001000
00100000
00001000
00000000
,
00002000
00010000
00010000
00010000
,
01003000
00000000
00010000
00000000
10000000
00100000
01000000
00000000
,
00000000
00010000
10000000
00010000
00100000
00000000
00001000
00000000
,
00020000
00002000
00000000
00033000
,
00000100
00000000
00001000
00000000
00000010
00000010
00000010
00000000
,
00010000
00000000
00001000
00000000
01000000
01000000
01000000
00000000
,
00010000
00000000
00100000
00000000
01000000
01000000
01000000
00000000
,
00010000
00001000
00011000
00000000
,
00010000
00001000
00010000
00000000
00010000
00000100
00010000
00000000
,
00010000
00001000
00010000
00000000
00000010
00001000
00000010
00000000
,
00000110
00000000
00001000
00010000
,
00011000
00011000
00011000
00000000
,
00101000
00010100
00101000
00000000
,
00001000
01000000
00010000
10000000
,
00100000
10000000
01000000
00100000
,
00002000
00000000
00003000
00010000
,
00000100
00001000
00000010
00010000
,
00000100
00000000
00001000
00000100
00001000
00000000
00000001
00000000
,
00000100
00001000
00000100
00000001
,
00002000
00000000
00003010
00000000
00010000
00001000
00010000
00000000
,
00010010
01001000
00010010
00000000
,
00010000
00001000
00010000
00000100
,
00001000
00000000
00000010
00000000
00000100
00000001
00000100
00000000
,
00000020
00001000
00000130
00000001
,
00001000
00000000
00000100
00000000
00010000
00001000
00010000
00000000
,
00001000
00000000
00100000
00010000
00100000
00000000
01000000
00000000
,
10000000
00100000
00010000
00100000
,
20000000
01000000
30010000
00100000
,
00001000
00010000
00000100
00001000
,
00000002
00000100
00001003
00000010
,
00011000
00000000
00011000
00000000
,
00010000
00001000
00010000
00001000
00100000
00000000
00000000
00000000
,
10010000
10000000
01000000
10000000
,
00100000
00000000
01000000
00000000
00001000
00010000
00010000
00000000
,
00000100
00001000
00000010
00001000
,
00000001
00000000
00000100
00000000
00000001
00001000
00001000
00000000
,
00000100
00000010
00000100
00010000
,
00001000
00000000
00100000
00000000
00010000
01000000
01000000
00000000
,
10010000
00010000
00100000
00001000
,
00010000
00000000
00000000
00010000
00000000
00000000
00001000
00000000
00010000
00000000
00000000
00000000
00011000
00000000
00000000
00000000
;

//--------------- dance-double - forcednature ----------------
#NOTEDATA:;
#STEPSTYPE:dance-double;
#DESCRIPTION:forcednature;
#CREDIT:forcednature;
#DIFFICULTY:Hard;
#METER:12;
#RADARVALUES:0,0,0,0,0;
#NOTES:
00000000
00000000
00000000
00000000
,
00000000
00000000
00000000
00000000
,
00000000
00000000
00000000
00000000
,
00000000
00000000
00000000
00000000
,
00000000
00000000
00000000
00000000
,
00001000
00000000
00010000
00000000
00000100
00001000
00000010
00000100
,
00000001
00000000
00000000
00000001
00000000
00000000
00001000
00000000
00000100
00000000
00000000
00000000
00010000
00000000
00001000
00000000
,
00100000
00000000
00000000
00010000
00000000
00000000
01000000
00000000
00100000
00000000
00000000
10000000
00000000
00000000
01000000
00000000
,
00200000
00000000
00000000
00000000
00301000
00001000
00010000
00000000
,
00000100
00000000
00000000
00001000
00000100
00000000
00001000
00000000
00000010
00000000
00000000
00000000
00000100
00000000
00000001
00000000
,
00000010
00000000
00000000
00000100
00000010
00000000
00000100
00000000
00010000
00000000
00001000
00000000
00001000
00000000
00100000
00000000
,
00010000
00000000
00000000
10000000
01000000
00000000
10000000
00000000
00010000
00000000
00000000
01000000
00100000
00000000
10000000
00000000
,
01000000
00010000
00001000
00000000
00000100
00001000
00001000
00010000
,
00001000
00000000
00000000
00100000
00010000
00000000
01000000
00000000
00100000
00000000
00000000
00000000
10000000
00000000
01000000
00000000
,
10000000
00000000
00000000
00010000
00100000
00000000
00001000
00000000
00010000
00000000
00000100
00000000
00000100
00000000
00000010
00000000
,
00000001
00000000
00000000
00000100
00000001
00000000
00001000
00000000
00000010
00000000
00000000
00000100
00000010
00000000
00001000
00000000
,
00000100
00000000
00000000
00001100
00000000
00000000
00010000
00000000
00001000
00010000
00001000
00000000
00100000
00000000
00000000
00000000
,
01000000
00000000
01000000
00010000
00001000
00000000
00001000
00000000
,
00000010
00000001
00000100
00000001
00000000
00000011
00001001
00000000
,
00001000
00000000
00001000
00000100
00010000
00000000
00010000
00000000
,
00001000
00000000
01000000
00000000
00010000
00000000
10000000
00000000
00100000
00000000
10000000
00100000
10000000
00000000
00000000
00000000
,
00010000
00000000
00010000
01000000
00100000
00000000
00100000
00000000
,
00010000
00001000
00010000
00000100
00000000
00001100
00001001
00000000
,
00000001
00000100
00000010
00000100
00001000
00010000
00100000
01000000
,
00200000
00000000
10000000
00000000
01300000
00010000
20000000
00000000
,
30010000
00000000
00000000
00100000
00000000
00000000
01000000
00000000
00010000
00000000
00001000
00000000
00011000
00000000
00000000
00000000
,
00000010
00000000
00000000
00000010
00000000
00000000
00000100
00000000
00001000
00000000
00010000
00000000
00011000
00000000
00000000
00000000
,
00010000
00000000
00000000
00100000
00000000
00000000
10000000
00000000
00100000
00000000
00010000
00000000
00011000
00000000
00000000
00000000
,
00001000
00000000
00001000
00000000
00000010
00000000
00000001
00000000
00000010
00000000
00000000
00000100
00001000
00000000
00000000
00000000
,
00000001
00000100
00001000
00010000
01000000
10000000
01000000
00010000
,
00001000
00000100
00000001
00000100
00001000
00010000
00011000
00000000
,
00201000
00000000
01300000
00000000
00100000
00001000
00010000
00000100
,
00001100
00001010
00002002
00003003
,
00010010
00000000
00101000
00000000
00010010
00000000
00010000
00001000
,
01000000
00000000
00000000
01000000
00100000
00000000
10000000
00000000
01000000
00000000
00000000
00000000
00100000
00000000
00010000
00000000
,
00110000
00000000
00000000
00000000
00011000
00000000
00000000
00000100
00001000
00000000
00000010
00000000
00000100
00000000
00000001
00000000
,
00000020
00000000
00000100
00000000
00000031
00000000
00001000
00000100
,
00001100
00000000
00011000
00000000
00100000
00010000
01000000
00100000
,
10000000
00000000
00000000
10000000
00010000
00000000
00100000
00000000
01000000
00000000
00000000
00000000
00010000
00000000
00001000
00000000
,
00010000
00000000
00000000
00010000
00000100
00000000
00001000
00000000
00000010
00000000
00000000
00000100
00000001
00000000
00000010
00000000
,
00000200
00000000
00001000
00000000
00010300
00001000
00011000
00000000
,
00101000
00000000
00010010
00000000
00101000
00000000
00001000
00010000
,
00000100
00000000
00000000
00000100
00000010
00000000
00000001
00000000
00000100
00000000
00000000
00000000
00000010
00000000
00001000
00000000
,
00001010
00000000
00000000
00000000
00011000
00000000
00000000
01000000
00010000
00000000
00100000
00000000
01000000
00000000
10000000
00000000
,
00200000
00000000
01000000
00000000
10300000
00000000
00010000
01000000
,
01010000
00000000
00011000
00000000
00000010
00001000
00000100
00000010
,
00000001
00000000
00000000
00000001
00001000
00000000
00000010
00000000
00000100
00000000
00000000
00000000
00001000
00000000
00010000
00000000
,
00001000
00000000
00000000
00001000
01000000
00000000
00010000
00000000
00100000
00000000
00000000
01000000
10000000
00000000
00100000
00000000
,
02000000
00000000
00010000
00000000
03001000
00000000
00010000
00000100
,
00001000
00000000
00000000
00000001
00000100
00000000
00000010
00000000
00001000
00000000
00000000
00001000
00000100
00000000
00010000
00000000
,
00002000
00000000
00100000
00000000
01003000
00000000
00010000
10000000
,
01000000
00011000
00000100
00011000
,
00000010
00000100
00001000
00010000
00100000
00000000
10010000
00000000
,
10000000
00000000
00000000
01000000
00100000
00000000
00001000
00000000
00010000
00000000
00000000
00000000
00000100
00000000
00001000
00000000
,
00000010
00000000
00000000
00000100
00000001
00000000
00001000
00000000
00000010
00000000
00000100
00000000
00000100
00000000
00001000
00000000
,
00010000
00000000
00000000
00100000
01000000
00000000
00100000
00000000
10000000
00000000
00000000
01000000
10000000
00000000
00010000
00000000
,
00100000
01000000
00010000
00000000
00001000
00000010
00000010
00000100
,
00010000
00000000
00000000
00000010
00001000
00000000
00000001
00000000
00000100
00000000
00000000
00000000
00001000
00000000
00010000
00000000
,
00100000
00000000
00000000
01000000
00010000
00000000
10000000
00000000
01000000
00000000
00010000
00000000
00010000
00000000
00001000
00000000
,
00020000
00000000
00000010
00000000
00030100
00001000
00000001
00000100
,
00001000
00000000
00000000
00011000
00000000
00000000
00010000
00000000
00100000
00000000
00000000
00000000
01100000
00000000
00000000
00000000
;
