#VERSION:0.83;
#TITLE:NEW GENERATION -もう、お前しか見えない-;
#SUBTITLE:;
#ARTIST:SUPER STAR 満-MITSURU-;
#TITLETRANSLIT:NEW GENERATION -mou, omae shika mienai-;
#SUBTITLETRANSLIT:;
#ARTISTTRANSLIT:SUPER STAR MITSURU;
#GENRE:ONLY ONE EURO BEAT;
#CREDIT:;
#MUSIC:NEW GENERATION -mou, omae shika mienai-.ogg;
#BANNER:NEW GENERATION -mou, omae shika mienai-.png;
#BACKGROUND:NEW GENERATION -mou, omae shika mienai--bg.png;
#CDTITLE:./CDTitles/bm IIDX 15 DJ TROOPERS.png;
#SAMPLESTART:61.057;
#SAMPLELENGTH:15.000;
#SELECTABLE:YES;
#OFFSET:0.011;
#BPMS:0.000=165.000;
#STOPS:287.000=0.364;
#TIMESIGNATURES:0.000=4=4,
284.000=3=4,
287.000=4=4
;
#BGCHANGES:0.000=../BGAs/08pa.mp4=1.000=0=0=0=StretchNoLoop====,
99999.000=-nosongbg-=1.000=0=0=0=StretchNoLoop====
;
#FGCHANGES:;

//--------------- dance-single - forcednature ----------------
#NOTEDATA:;
#STEPSTYPE:dance-single;
#DESCRIPTION:forcednature;
#DIFFICULTY:Beginner;
#METER:4;
#RADARVALUES:0,0,0,0,0;
#CREDIT:forcednature;
#NOTES:
0000
0000
0000
0000
,
0000
0000
0000
0000
,
0000
0000
0000
0000
,
0000
0000
0000
0000
,
0000
0000
0000
0000
,
1001
0000
0000
0000
,
0110
0000
0000
0000
,
1001
0000
0110
0000
,
0001
1000
0000
1000
,
0001
0000
0010
0000
,
0001
0000
0010
0000
,
0100
0000
1000
0000
,
0001
0001
0001
0000
,
1000
0000
0010
0000
,
1000
0000
0010
0000
,
0100
0000
0001
0000
,
0010
0010
0000
0010
,
0001
0000
0100
0000
,
0001
1000
0001
0000
,
0010
0000
0100
0000
,
1000
1000
0000
0001
,
0100
0000
0100
0000
,
0110
0000
1000
0000
,
1001
0000
0110
0000
,
0001
1000
0001
0010
,
0000
0100
0000
0010
,
2002
0000
0000
0000
,
0000
0000
3003
0000
,
0110
0000
0000
0000
,
0000
0000
0000
0000
,
1001
0000
0000
0000
,
0110
0000
1001
0000
,
0001
0000
0000
0001
,
0010
0000
0000
0001
,
0100
0000
0000
0001
,
1000
0000
0000
0001
,
0010
0000
0110
0000
,
0100
0000
0110
0000
,
0001
0001
1000
1000
,
0001
0001
1000
1000
,
0010
0100
0010
0100
,
0001
1000
0001
1000
,
0020
0000
0030
0000
,
2002
0000
3003
0000
,
1000
0000
0000
0001
,
0010
0000
0001
0000
,
0100
0000
0000
0000
,
0001
0000
1000
0000
,
0100
0000
1000
0000
,
0010
0000
0100
0000
,
0001
0001
0001
0000
,
1000
0000
0100
0000
,
1000
0000
0000
1000
,
0020
0000
0000
0030
,
0110
0000
0001
0000
,
0010
0000
0000
0000
,
0110
0000
1000
0000
,
0010
0000
0000
0000
,
1001
0000
0000
1000
,
0100
0000
0000
1000
,
0010
0000
0010
0000
,
1000
0001
0000
0001
,
2000
0000
3000
0000
,
2002
0000
0000
0000
,
0000
0000
3003
0000
,
0220
0000
0330
0000
,
0001
0000
1000
0000
,
1001
0000
0000
0001
,
0100
0000
0000
0001
,
0010
0000
0001
0000
,
0100
0000
0100
0100
,
0010
0000
0010
0010
,
1001
0000
0000
1000
,
0000
0001
0000
0100
,
0000
0000
0000
0001
,
1000
0001
0000
1000
,
0100
0000
0100
1000
,
0000
0010
0000
1001
,
0000
0110
0000
0001
,
0000
1000
0000
2002
,
0000
0000
3003
0000
;

//--------------- dance-single - forcednature ----------------
#NOTEDATA:;
#STEPSTYPE:dance-single;
#DESCRIPTION:forcednature;
#DIFFICULTY:Easy;
#METER:7;
#RADARVALUES:0,0,0,0,0;
#CREDIT:forcednature;
#NOTES:
0000
0000
0000
0000
,
0000
0000
0000
0000
,
0000
0000
0000
0000
,
0000
0000
0000
0000
,
0000
0000
0000
0000
,
0001
0100
0000
0100
,
0001
0010
0000
0010
,
0001
0001
1000
1000
,
0010
0100
0010
0000
0000
0000
0100
0000
,
1001
0000
1000
0100
,
1000
0000
0001
0010
,
0100
0000
0010
0001
,
0100
0000
0100
0000
0001
1000
0001
0000
,
1000
0000
0010
1000
,
0100
0000
1000
0001
,
0010
0000
0100
0010
,
0100
0000
0000
1000
0000
0001
1000
0000
,
0010
0100
0001
0100
,
0010
1000
0010
0000
1000
0000
0000
0000
,
0001
0010
0100
0010
,
0001
1000
0001
0000
1000
0000
0000
0000
,
1001
0100
0000
0100
,
0110
0001
0000
0001
,
1000
1010
0001
0011
,
1000
0000
0000
0001
0000
0000
0100
0010
,
0000
0110
0000
0110
0000
1000
0000
0001
,
0020
0000
0000
0030
,
0100
1100
0010
0011
,
2002
0000
0000
0000
,
3003
0000
0000
0000
0000
0000
0000
0001
,
1000
0000
0000
0000
,
1001
0000
0110
0000
,
1000
0100
0000
0100
,
1000
0010
0000
0010
,
0001
0100
0000
0100
,
0001
0010
0000
0010
,
1000
0100
1000
0010
,
0001
0100
0001
0010
,
1000
1001
0010
1001
,
0001
1001
0100
1001
,
1000
0001
1000
0000
0001
1000
0001
0000
,
0010
0100
0010
0000
0110
0000
0110
0000
,
2002
0000
0000
0000
3003
0000
0010
0100
,
0010
0000
0000
0000
,
1000
0000
0000
1000
0000
0000
0001
0000
0000
0010
0000
0000
0100
0000
0000
0000
,
0110
0000
0001
0000
0100
0001
0100
0000
,
0010
1000
0100
0000
,
1000
0000
0001
0000
0100
0001
0100
0000
,
0010
0000
0010
1000
0000
0001
0100
0000
,
0110
1000
0100
0000
,
0110
0001
0100
0001
,
1000
0100
1000
0000
0001
0100
0001
0000
,
0010
0000
0000
0010
0000
0000
0100
0000
0000
0010
0000
0000
0001
0000
0000
0000
,
2002
0000
0000
3003
,
1000
0100
0000
0100
,
0000
1000
0010
0100
,
0001
0010
0000
0010
,
0000
0001
0100
0010
,
0110
1000
0000
1000
,
1001
0010
0000
0010
,
0110
0001
1001
0100
,
0110
1001
0000
0010
,
0220
0000
0330
0000
,
0001
0000
0000
0000
1000
0000
0000
0000
0200
0000
0000
0300
0000
0000
0000
0000
,
1000
1000
0001
0000
,
0100
0000
0000
0000
0001
0000
0000
0000
2000
0000
0000
3000
0000
0000
0000
0000
,
0220
0330
2002
3003
,
0001
0010
0000
0010
,
0001
0100
0000
0100
,
0010
1000
0100
1000
,
0001
0000
0000
0001
0000
0000
0010
0000
0000
0001
0000
0000
1000
0000
0000
0000
,
0100
0000
0000
0100
0000
0000
0010
0000
0000
0001
0000
0000
2000
3000
0000
0000
,
1001
0000
0000
0000
0001
0000
0100
0001
,
0100
0010
1000
0100
,
1000
0010
0100
0001
,
0001
1000
0000
1000
0010
0000
0110
0000
,
1000
0010
0100
0110
,
0001
0000
0010
0000
0100
0000
0001
1000
,
0001
0000
0000
0000
1000
0000
0100
0000
1000
0000
0000
0000
0010
0000
0000
0010
,
0000
0000
0100
0000
0000
0001
0000
0000
1000
0000
0000
0000
2002
0000
0000
0000
,
0000
0000
3003
0000
;

//--------------- dance-single - forcednature ----------------
#NOTEDATA:;
#STEPSTYPE:dance-single;
#DESCRIPTION:forcednature;
#DIFFICULTY:Medium;
#METER:10;
#RADARVALUES:0,0,0,0,0;
#CREDIT:forcednature;
#NOTES:
0000
0000
0000
0000
,
0000
0000
0000
0000
,
0000
0000
0000
0000
,
0000
0000
0000
0000
,
0000
0000
0000
0000
,
1000
0100
1000
0010
,
0110
0001
0010
0001
,
1000
0100
1000
0000
0001
0100
0001
0000
,
0010
0010
0010
0000
0000
0001
1000
0000
,
1001
0000
0001
0000
0100
0001
0100
0000
,
0010
0000
1000
0000
0100
0010
0001
0000
,
1000
0000
0010
0000
0100
0001
0100
0000
,
0010
1000
0001
0000
0010
0001
1000
0000
,
1001
0000
0001
0000
0100
0010
1000
0000
,
0100
0000
1000
0000
0001
0010
0100
0000
,
0110
0001
0110
1000
,
0001
0000
0000
0100
0000
0000
0010
0000
0000
1000
0000
0000
0001
0000
0000
0000
,
1000
0100
0000
0100
0000
1000
0010
0000
,
0100
0000
0000
0100
0000
0000
0100
0000
0000
0000
0001
0000
1000
0000
0000
0000
,
0100
0010
0000
0010
0000
0001
1000
0000
,
0010
0100
0001
0100
0000
0010
2000
0000
,
3001
0010
0000
0010
0000
0001
0100
0000
,
0010
1000
0000
1000
0000
0100
1000
0000
,
0010
0100
0020
0000
1030
0001
2000
0000
,
3100
0000
0000
0100
0000
0000
0010
0000
0000
0001
0000
0000
1000
0000
0010
0000
,
0000
0110
0000
1001
0000
0001
0010
0000
,
0220
0000
0000
0330
,
0001
0000
0001
1000
0000
1000
0100
0000
0100
0010
0000
0000
,
2002
0000
0000
0000
,
3003
0000
0000
0000
0000
0000
0000
1000
,
0001
0000
0000
0000
,
0110
0000
1001
0000
,
0001
0010
0000
0010
0000
0001
0100
0000
,
0010
1000
0000
1000
0000
0100
1000
0000
,
0001
0010
0000
0010
0000
0001
0100
0000
,
0010
1000
0000
1000
0000
0100
1000
0000
,
0110
0001
0110
1000
,
1001
0010
1001
0100
,
0110
1001
0110
1001
,
0110
1001
0110
1001
,
0001
1000
0001
1000
0001
1000
0001
1000
,
0010
0100
0010
0100
0010
0100
0110
0000
,
2002
0000
0000
0000
3003
0000
0100
0010
,
0220
0000
0330
0000
,
0001
0000
0000
1000
0000
0000
0100
0000
0000
0010
0000
0000
0110
0000
0000
0000
,
0100
1000
0010
0000
0110
0000
0001
0000
,
0010
0001
0010
0200
0000
1300
0001
0000
,
0100
0001
1000
0000
0110
0000
1000
0000
,
0001
0000
0000
0010
0000
0000
0001
0000
0000
1000
0000
0000
0100
0000
0000
0000
,
0010
0001
0100
0000
0110
0000
0001
0000
,
1000
0010
0100
0020
0000
1030
0001
0000
,
0100
0001
0020
0000
0130
1000
0020
0000
,
1030
0000
0000
0001
0000
0000
0010
0000
0000
0001
0000
0000
0100
0000
0000
0000
,
0110
0000
0000
1000
0000
0000
0001
0000
0000
0010
0000
0000
0200
0000
0000
0000
,
0310
0001
0000
0001
0000
0100
0000
0010
,
0000
1000
0000
0001
0000
0010
0100
0000
,
1000
0001
0000
0001
0000
0100
0000
0010
,
0000
1000
0000
0001
0000
0010
0100
0000
,
0110
1000
0000
1000
,
0110
0001
0000
0001
,
1001
0100
1001
0010
,
0001
1000
1001
0000
0000
0000
0110
0000
,
2002
0000
3003
0000
,
1000
0000
0000
0000
0100
0000
0000
0000
0020
0000
0000
0030
0000
0000
0000
0000
,
0001
0001
1000
0000
,
0010
0000
0000
0000
0100
0000
0000
0000
0002
0000
0000
0003
0000
0000
0000
0000
,
0220
0330
2002
3003
,
1000
0100
0000
0100
0000
1000
0010
0000
,
0100
0001
0000
0001
0000
0010
0001
0000
,
0100
0010
2000
0000
3100
0010
0002
0000
,
1003
0000
0000
0010
0000
0000
0100
0000
0000
0100
0001
0000
0010
0000
0000
0000
,
0001
0000
0000
1000
0000
0000
0100
0000
0000
0010
0100
0000
0020
0030
0000
0000
,
1001
0000
0001
0100
1000
0000
0100
0001
,
0100
0002
0000
1003
0010
0000
1000
0100
,
0001
0000
0000
0000
0100
0000
0000
0000
1000
0000
0000
0000
0001
0000
0000
0010
,
0000
0000
0100
0000
0000
1000
0000
0000
0010
0000
0000
0000
0100
0000
0001
0000
,
0100
0001
0010
0000
0110
0000
0100
1000
,
0100
1000
0010
0000
0110
0000
0001
1000
,
0200
0000
0000
0000
0301
0000
0100
0000
2000
0000
0000
0000
3001
0000
0000
0001
,
0000
0000
0010
0000
0000
0100
0010
0000
0100
0000
0000
0000
1000
0000
0000
0010
,
0000
0000
0100
0000
0000
0001
0000
0000
0010
0200
0000
0000
0300
0000
0000
0000
;

//--------------- dance-single - forcednature ----------------
#NOTEDATA:;
#STEPSTYPE:dance-single;
#DESCRIPTION:forcednature;
#DIFFICULTY:Hard;
#METER:13;
#RADARVALUES:0,0,0,0,0;
#CREDIT:forcednature;
#NOTES:
0000
0000
0000
0000
,
0000
0000
0000
0000
,
0000
0000
0000
0000
,
0000
0000
0000
0000
,
0000
0000
0000
0000
,
1001
0000
0001
0100
0010
1000
0100
0000
,
1001
0000
1000
0100
0010
0001
0100
0000
,
0110
0000
1000
0001
0010
0100
0010
0100
,
1000
1000
0002
0000
0000
0103
0020
0000
,
1030
0000
0100
0000
1000
0001
0000
1000
0001
0000
0010
0001
0000
0000
0100
0000
,
0010
0000
1000
0000
0100
1000
0000
0100
1000
0000
0001
0010
0000
0000
0100
0000
,
0010
0000
0100
0000
1000
0001
0000
1000
0001
0000
0100
0001
0000
0000
1000
0000
,
0010
0000
0100
0000
0001
0010
0000
0001
0010
0000
0100
0000
1000
0000
0100
0000
,
0010
0000
0001
0000
1000
0010
0000
1000
0010
0000
0100
0001
0000
0000
1000
0000
,
0100
0000
1000
0000
0001
0010
0000
0001
0010
0000
0100
0010
0000
0000
0100
0000
,
1000
0001
0000
0001
0100
0001
0010
0000
,
1100
0000
0000
1010
0000
0000
0011
0000
0000
0101
0000
0000
1000
0000
0001
0000
,
0000
0000
0010
0000
0100
0010
0000
0100
0010
0000
0100
1000
0000
0000
0001
0000
,
0010
0000
0000
0110
0000
0000
0011
0000
0000
1000
0000
0000
0001
0000
0100
0000
,
0010
0000
1000
0000
0100
1000
0000
0100
1000
0000
0010
0100
0000
0000
0001
0000
,
0010
0000
0010
0000
0001
0000
0010
0000
0000
0100
0010
0000
1001
0000
0000
0000
,
0001
0000
0100
0000
0010
0000
0100
0000
0001
0000
0100
0000
0010
0000
1000
0001
,
1000
0000
0100
0000
0010
0000
0100
0000
1000
0000
0100
0000
0010
0000
0001
1000
,
0001
0010
0200
0000
1300
0010
0200
0000
,
0301
0000
0000
0011
0000
0000
1010
0000
0000
1000
0001
0000
0010
0000
0110
0000
,
0000
1000
0100
0001
0100
1000
0001
0010
,
0220
0000
0000
0330
,
0100
1000
0100
1000
0010
1000
0001
0010
0100
1000
0010
0100
,
0002
0000
0000
0000
,
0003
0000
0000
0000
0000
0000
0000
0010
,
0110
0000
0000
0000
,
1001
0000
0000
0000
0000
0000
0000
0000
0110
0000
0000
0000
1000
0000
0001
1000
,
0001
0010
0000
0010
0000
0010
0000
0010
,
0001
0000
0100
0000
0000
0000
0100
0000
0000
0100
0000
0100
0000
0000
0010
1000
,
0010
1000
0000
1000
0000
1000
0000
1000
,
0100
0000
0010
0000
0000
0000
0010
0000
0000
0010
0000
0010
0100
0000
0100
0000
,
1000
0000
0000
1000
0001
0000
0100
0000
0001
0000
0000
0001
1000
0000
0100
0000
,
1000
0000
0000
1000
0001
0000
0010
0000
0001
0000
0000
0001
1000
0000
0010
0000
,
0100
0000
0000
0001
0010
0000
0000
0100
1000
0000
0000
0001
0010
0000
0000
0100
,
1000
0000
0000
0010
0100
0000
0000
0001
1000
0000
0000
0010
0100
0000
0000
0001
,
0010
0010
0100
0100
0010
0010
0100
0100
,
1000
0010
1000
0000
0001
0010
0001
0000
0100
0010
0100
0010
0100
0000
0000
0000
,
2002
0000
0000
0000
0000
0000
0000
0000
3003
0000
0000
0000
0010
0100
0010
0100
,
0020
0000
0030
0000
,
1100
0000
0000
0101
0000
0000
1001
0000
0000
0010
0100
0000
0110
0000
0000
0000
,
0001
0000
0010
0000
1000
0000
0010
0000
0001
0000
0000
0001
1000
0000
0100
0000
,
1000
0000
1000
0000
0010
0000
0100
0001
0000
0000
0010
0000
0100
0000
0010
0000
,
0001
0000
0100
0000
1000
0000
0100
0000
0001
0000
0000
0001
1000
0000
0010
0000
,
0100
0000
0100
0002
0000
0000
1003
0000
1000
0020
0000
0000
1030
0001
1000
0000
,
0001
0000
0010
0000
1000
0000
0010
0000
0001
0000
0000
0001
1000
0000
0100
0000
,
0010
0000
0100
0000
1000
0000
0010
0200
0000
0000
0301
0000
0010
0000
0001
0000
,
1000
0000
0010
0000
0100
0000
0100
0000
0001
0000
0010
0000
0100
1000
0100
0000
,
0010
0000
0000
0011
0000
0000
1100
0000
0000
0001
0010
0000
0001
0000
1000
0001
,
2000
0000
0000
0010
0000
0000
0001
0000
0000
3100
0000
0000
0001
1000
0000
0000
,
0100
1000
0010
1000
0100
1000
0010
0000
,
0100
0001
0010
0000
0100
1000
0010
0000
,
0100
0001
0010
0001
0100
0001
0010
0000
,
0100
1000
0010
0000
0100
0001
0010
0000
,
0110
1000
0000
1000
0000
1000
0000
0010
,
1001
0100
0000
0100
0000
0100
0000
0001
,
0010
0000
0100
0000
1000
0100
0000
0000
0010
0000
0100
0000
0010
0001
0000
0000
,
0100
0000
0010
0000
0110
0000
0000
0000
0001
0000
1000
0001
1000
0000
0000
0000
,
2002
0000
0000
0000
3003
0000
0001
0010
,
0100
0000
0000
0000
1000
0000
0000
0000
0020
0000
0000
0030
0000
0000
0000
0000
,
0100
0000
0001
0000
0100
0000
0001
0100
0000
0000
0010
0000
1000
0000
0001
0000
,
0010
0000
0000
0000
0100
0000
0000
0000
2000
0000
0000
3000
0000
0000
0000
0000
,
0001
0000
0100
0001
0000
0000
1000
0000
0100
1000
0000
0000
0010
0100
0010
0000
,
1000
0001
0000
0001
0000
0001
0000
0010
,
0110
1000
0000
1000
0000
1000
0000
0010
,
0110
0001
0010
0000
0110
1000
0010
0000
,
1100
0000
0000
1010
0000
0000
0110
0000
0000
0001
0100
0000
0001
0000
0010
0000
,
0011
0000
0000
0110
0000
0000
1100
0000
0000
0001
1000
0000
0020
0030
0000
0000
,
1001
0000
0000
0000
0001
0000
0000
0100
0010
0000
1000
0000
0100
0000
0001
0000
,
0100
0000
1000
0001
0000
0000
0010
0000
0100
0000
0010
0000
0001
0000
0100
0000
,
1000
0000
0100
0000
0001
0000
0000
0001
1000
0000
0010
0000
0100
0000
0001
0200
,
0000
0000
0310
0000
1000
0020
0000
0000
1030
0001
1000
0000
0001
0000
0010
0000
,
1000
0000
0010
0000
0001
0000
0000
0001
0100
0000
0010
0000
1000
0000
0100
0000
,
0010
0000
0100
2000
0000
0000
3001
0000
0010
0000
0100
0010
0100
0000
1000
0000
,
0001
0000
0001
0000
0100
0000
0010
0000
1000
0010
1000
0000
0001
0000
0000
0011
,
0000
0000
1010
0000
0000
1000
0100
0000
1000
0000
0001
1000
0002
0000
0000
0010
,
0000
0000
1000
0000
0000
0103
0000
0000
0001
2000
0000
0000
3000
0000
0000
0000
;

//--------------- dance-single - forcednature ----------------
#NOTEDATA:;
#STEPSTYPE:dance-single;
#DESCRIPTION:forcednature;
#DIFFICULTY:Challenge;
#METER:16;
#RADARVALUES:0,0,0,0,0;
#CREDIT:forcednature;
#NOTES:
0000
0000
0000
0000
,
0000
0000
0000
0000
,
0000
0000
0000
0000
,
0000
0000
0000
0000
,
0000
0000
0000
0000
,
1001
0000
1000
0100
1000
0010
0100
0001
,
1001
0000
0001
0100
0001
0010
0100
1000
,
0001
0100
0001
0100
0001
0000
0010
0000
0100
1000
0100
1000
0001
0010
0001
0010
,
0100
0000
0110
0000
1002
0000
0000
0000
0000
0000
0103
0000
0010
1000
0001
0100
,
0010
0000
1000
0000
0100
1000
0000
0100
0010
0000
0001
0010
0000
0100
1000
0000
,
0001
0000
0100
0000
0010
1000
0000
0010
0100
0000
0001
0010
0000
0001
0100
0000
,
0010
0000
1000
0000
0100
1000
0000
0001
0010
0000
0100
0010
0000
0001
1000
0000
,
0010
0000
0100
0000
0001
0100
0000
0010
1000
0010
1000
0000
0100
0000
1000
0100
,
1000
0000
0001
0000
0100
0001
0000
0100
0010
0000
1000
0010
0000
0100
0001
0000
,
1000
0000
0100
0000
1000
0001
0000
0010
0001
0000
1000
0100
0000
1000
0001
0000
,
0101
0000
0000
1000
0010
0000
1000
0000
1100
0000
0001
0000
0010
0001
0010
0001
,
0100
0000
0000
0110
0000
0000
1010
0000
0000
1000
0100
0000
0110
0000
0010
0001
,
0000
1000
0010
0000
1000
0010
0000
0100
0010
0000
1000
0001
0000
0100
0001
0000
,
0010
0000
0010
0001
0000
0001
0100
0000
0100
0010
0000
0010
1000
0000
0001
1000
,
0001
0000
0010
0000
0001
0100
0000
0010
0100
0000
0010
0000
1000
0100
1000
0000
,
0001
0100
0001
0000
0010
0100
0010
0100
0000
0010
0001
0000
0201
0000
0000
0000
,
0310
0000
1000
0000
0100
0000
1000
0000
0001
0000
1000
0000
0100
0000
0010
0001
,
1000
0000
0001
0000
0100
0000
0001
0010
0100
0000
0100
0000
1000
0000
0001
0100
,
0010
0000
1000
0000
0100
1000
0100
1000
0001
0000
0010
0000
0001
0100
0001
0100
,
0010
0000
0000
1010
0000
0000
1100
0000
0000
0001
0010
0000
0110
0000
0100
1000
,
0000
0000
0001
0100
0010
0000
1000
0100
0010
0000
0100
1000
0001
0010
0001
0000
,
1000
0010
1000
0010
1000
0010
1000
0010
0100
0001
0100
0001
0100
0001
0100
0001
,
1000
0100
1000
0001
0010
0001
1000
0010
0100
0001
0010
0100
,
2002
0000
0000
0000
,
3003
0000
0000
0000
0000
0000
0000
1100
,
0011
0000
0000
0000
,
0101
0000
0000
0000
0000
0000
0000
0000
1010
0000
0000
0000
1000
0000
0100
1000
,
0001
0000
0010
0000
0000
0000
0010
0000
0000
0000
0010
0001
0000
0000
0110
0000
,
1000
0000
0010
0000
0000
0000
0010
0000
0000
1000
0010
1000
0010
0000
0100
0001
,
0010
0000
0100
0000
0000
0000
0100
0000
0000
0000
0100
1000
0000
0000
0110
0000
,
1001
0000
0001
0000
0000
0000
0001
0000
0000
0100
0000
0001
1000
0010
1000
0010
,
0100
0000
0001
0010
0000
0100
0010
0000
0100
0000
1000
0010
0000
0100
0010
0000
,
0100
0000
0001
0010
0000
0100
0010
0000
0100
0000
1000
0010
0000
0100
0010
0000
,
0100
0000
0010
1000
0100
0000
0010
0001
0100
0000
0010
1000
0100
0000
0010
0001
,
0100
0000
0010
1000
0100
0000
0010
0001
0100
0000
0010
1000
0100
0000
0010
0001
,
0100
0010
0100
0010
0100
0010
0100
0010
0100
0010
0100
0010
0100
0010
0100
0010
,
1000
0100
1000
0100
1000
0100
1000
0100
0010
0001
0010
0001
0100
0010
0100
0000
,
2002
0000
0000
0000
0000
0000
0000
0000
3003
0000
0000
0000
0001
0010
0001
1000
,
0200
0000
0300
0000
,
0011
0000
0000
0101
0000
0000
0110
0000
0000
0010
1000
0000
1001
0000
0000
0000
,
1000
0100
1000
0100
0010
0001
0010
0001
1000
0000
0000
0010
0100
0000
0001
0000
,
0010
0000
0100
0010
0100
0000
1000
0002
0000
0000
0013
0000
0100
0000
1000
0000
,
0001
0100
0001
0100
0010
1000
0010
1000
0001
0000
0000
0010
0100
0000
1000
0000
,
0001
0100
0010
0200
0000
0000
0301
1000
0010
2000
0000
0000
3001
0010
0100
0010
,
0001
0000
1000
0000
0100
0010
0100
0010
0001
0000
0000
1000
0010
0000
0100
0000
,
0001
0010
0001
0010
0100
1000
0001
0200
0000
0000
0310
0000
1000
0000
0001
0000
,
0011
0000
0001
0000
1000
0100
1000
0100
0010
0000
0001
0000
0100
0010
1000
0001
,
0100
0000
0000
0110
0000
0000
1010
0000
0000
1000
0100
0000
0110
0000
0010
0001
,
1000
0000
0010
0100
0000
0001
0010
0000
0100
1000
0000
0001
0100
0020
0000
0000
,
1030
0100
1000
0010
1000
0001
1000
0010
,
1000
0100
1000
0001
0010
0110
0000
1000
,
0001
0100
0001
0010
0001
1000
0001
0010
,
0001
0000
0100
0000
0001
0000
1000
0000
0010
0000
0110
0000
0000
0000
0001
1000
,
0001
0000
0010
0000
0000
0000
0010
0000
0000
0000
0010
0100
0000
0000
0011
0000
,
1100
0000
1000
0000
0000
0000
1000
0000
0000
0010
0000
0010
0100
0000
0100
0001
,
1000
0000
1000
0000
0100
0010
0100
0010
0001
0000
0001
0000
0100
0010
0100
0010
,
1000
0000
1100
0000
1001
0000
0000
0000
0000
0000
1000
0010
0100
0001
0010
0100
,
2000
0000
0000
0000
0000
0000
0000
0000
3000
0000
0000
0000
0010
0100
0001
1000
,
0010
0000
0000
0000
0100
0000
0000
0000
0002
0000
0000
1003
0000
0000
0000
0000
,
0001
0000
0001
0000
0010
0000
0001
0200
0000
0000
0310
0000
1000
0000
1100
0000
,
0011
0000
0000
0000
1000
0000
0000
0000
0020
0000
0000
0130
0000
0000
0000
0000
,
2002
0000
0000
0000
3003
0000
0000
0000
0110
0000
0000
0000
1000
0000
0100
1000
,
0001
0000
0010
0000
0000
0000
0010
0000
0000
0000
0010
0001
0000
0000
0100
0000
,
0110
0000
1000
0000
0000
0000
1000
0000
0000
0010
0000
0010
0100
0000
0001
1000
,
0100
0000
0100
0000
1000
0010
1000
0010
0100
0000
0100
0000
0001
0010
0001
0010
,
0100
0000
0000
1100
0000
0000
1010
0000
0000
0010
0100
0000
0101
0000
0001
0000
,
0010
0000
0010
0100
0000
0100
1000
0000
1000
0001
0100
0000
0220
0330
0000
0000
,
1000
0100
0010
0001
1000
0000
0000
0010
0100
0000
0001
0000
0010
0001
0010
0001
,
1000
0100
1000
0002
0000
0000
0013
0000
0100
0000
1000
0000
0001
0100
0001
0100
,
0010
1000
0001
0100
0010
0000
0000
1000
0001
0000
0010
0000
0001
0100
0010
2000
,
0000
0000
3001
0010
0100
2000
0000
0000
3001
0100
0001
1000
0010
0000
0100
0000
,
0001
0010
0001
0010
0100
0000
0000
1000
0001
0000
0100
0000
0010
1000
0010
1000
,
0001
0100
0010
2000
0000
0000
3100
0000
1000
0000
0001
0010
0100
0000
0100
0000
,
0010
0001
1000
0001
0100
0000
0100
0000
0010
1000
0001
1000
0100
0000
0100
0010
,
0000
0010
0001
0000
0001
1000
0000
1000
0010
0000
0010
0100
0001
0000
0010
0100
,
0000
1000
0010
0000
0100
0001
0000
0010
0100
2000
0000
0000
3000
0000
0000
0000
;

//--------------- dance-double - forcednature ----------------
#NOTEDATA:;
#STEPSTYPE:dance-double;
#DESCRIPTION:forcednature;
#DIFFICULTY:Easy;
#METER:7;
#RADARVALUES:0,0,0,0,0;
#CREDIT:forcednature;
#NOTES:
00000000
00000000
00000000
00000000
,
00000000
00000000
00000000
00000000
,
00000000
00000000
00000000
00000000
,
00000000
00000000
00000000
00000000
,
00000000
00000000
00000000
00000000
,
00001000
00010000
00000000
00010000
,
00000100
00001000
00000000
00001000
,
00000010
00000010
00000100
00000100
,
00000001
00001000
00000001
00000000
00000000
00000000
00000010
00000000
,
00001001
00000000
00001000
00000100
,
00010000
00000000
00001000
00010000
,
00001000
00000000
00100000
00010000
,
01000000
00000000
01000000
00000000
00010000
10000000
00010000
00000000
,
10000000
00000000
00100000
10000000
,
01000000
00000000
00100000
00001000
,
00010000
00000000
00000100
00001000
,
00000010
00000000
00000010
00000100
00000000
00000100
00000010
00000000
,
00001000
00000001
00000010
00000001
,
00001000
00000100
00001000
00000000
00000100
00000000
00000000
00000000
,
00010000
00001000
01000000
00010000
,
10000000
00010000
10000000
00000000
00100000
00000000
00000000
00000000
,
10010000
01000000
00000000
00001000
,
00011000
00000100
00000000
00001000
,
00000010
00000110
00000100
00001001
,
00000001
00000000
00000001
00000010
00000000
00000010
00000100
00000000
,
00000000
00000110
00000000
00000110
00000000
00010000
00000000
00001000
,
00200000
00000000
00000000
00300000
,
00010000
01000000
00100000
10000000
,
20020000
00000000
00000000
00000000
,
30030000
00000000
00000000
00000000
00000000
00000000
00000000
00010000
,
10000000
00000000
00000000
00000000
,
00011000
00000000
00100000
00001000
,
00010000
00000100
00000000
00000100
,
00001000
00000010
00000000
00000010
,
00000100
00000001
00000000
00000001
,
00000010
00000100
00000000
00000100
,
00010000
00001000
00100000
00001000
,
00010000
00001000
01000000
00001000
,
00010000
00000010
00010000
00000100
,
00010000
00000010
00010000
00000100
,
00001000
00000001
00001000
00000000
00000001
00001000
00000001
00000000
,
00000010
00001000
00010000
01000000
,
20020000
00000000
00000000
00000000
30030000
00000000
00100000
01000000
,
00100000
00000000
00000000
00000000
,
10000000
00000000
00000000
10000000
00000000
00000000
00010000
00000000
00000000
00100000
00000000
00000000
01000000
00000000
00000000
00000000
,
01100000
00010000
01000000
00001000
,
00010000
00000010
00001000
00000001
,
00000010
00000100
00010000
00001000
,
00100000
00000000
00100000
00010000
00000000
00010000
01000000
00000000
,
01100000
10000000
01000000
00000000
,
01100000
00010000
00100000
00001000
,
00010000
00001000
00010000
00000000
00000010
00000000
00001000
00000000
,
00000100
00000000
00000000
00000100
00000000
00000000
00000010
00000000
00000000
00000001
00000000
00000000
00000100
00000000
00000000
00000000
,
00002002
00000000
00000000
00003003
,
00001000
00000100
00000000
00000100
,
00000000
00010000
00001000
00100000
,
00010000
01000000
00000000
01000000
,
00000000
00001000
00010000
00000010
,
00001000
00000100
00000000
00000100
,
00010000
00001000
00000000
00001000
,
00100000
00010000
01000000
00010000
,
00100000
01100000
00000000
01000000
,
20020000
00000000
30030000
00000000
,
00010000
00000000
00000000
00000000
00100000
00000000
00000000
00000000
00002000
00000000
00000000
00003000
00000000
00000000
00000000
00000000
,
00010000
00010000
00000100
00000000
,
00001000
00000000
00000000
00000000
00000001
00000000
00000000
00000000
00000020
00000000
00000000
00000030
00000000
00000000
00000000
00000000
,
00000220
00000330
00002002
00003003
,
00001000
00000010
00000000
00000010
,
00010000
00001000
00000000
00001000
,
01000000
00010000
00100000
00010000
,
10000000
00000000
00000000
00100000
00000000
00000000
01000000
00000000
00000000
00010000
00000000
00000000
00100000
00000000
00000000
00000000
,
00001000
00000000
00000000
00010000
00000000
00000000
00000100
00000000
00000000
00001000
00000000
00000000
00000020
00000030
00000000
00000000
,
00001001
00000000
00000000
00000000
00000000
00000000
00001000
00000100
,
00001000
00000100
00010000
00001000
,
00100000
00010000
01000000
00100000
,
00100000
10000000
00000000
10000000
00010000
00000000
00100000
00000000
,
00001000
00010000
00000100
00011000
,
00000010
00000000
00001000
00000000
00000100
00000000
00000010
00000001
,
00000010
00000000
00000000
00000000
00000100
00000000
00000010
00000000
00000100
00000000
00000000
00000000
00001000
00000000
00000000
00001000
,
00000000
00000000
00000010
00000000
00000000
00010000
00000000
00000000
00001000
00000000
00000000
00000000
00022000
00000000
00000000
00000000
,
00000000
00000000
00033000
00000000
;

//--------------- dance-double - forcednature ----------------
#NOTEDATA:;
#STEPSTYPE:dance-double;
#DESCRIPTION:forcednature;
#DIFFICULTY:Medium;
#METER:10;
#RADARVALUES:0,0,0,0,0;
#CREDIT:forcednature;
#NOTES:
00000000
00000000
00000000
00000000
,
00000000
00000000
00000000
00000000
,
00000000
00000000
00000000
00000000
,
00000000
00000000
00000000
00000000
,
00000000
00000000
00000000
00000000
,
00001000
00010000
00000100
00001000
,
00001100
00000001
00000010
00000100
,
00010000
00001000
00100000
00000000
00010000
00100000
00001000
00000000
,
00010000
00010000
00010000
00000000
00000000
00001000
01000000
00000000
,
10010000
00000000
00010000
00000000
10000000
00100000
10000000
00000000
,
01000000
00000000
00010000
00000000
00001000
00010000
00001000
00000000
,
00000010
00000000
00000001
00000000
00000100
00000001
00000100
00000000
,
00000010
00010000
00001000
00000000
00100000
00001000
00010000
00000000
,
00011000
00000000
00100000
00000000
00010000
01000000
00010000
00000000
,
10000000
00000000
01000000
00000000
00100000
00010000
00100000
00000000
,
00011000
00000100
00011000
00000010
,
00001000
00000000
00000000
00000001
00000000
00000000
00000100
00000000
00000000
00000010
00000000
00000000
00001000
00000000
00000000
00000000
,
00000100
00010000
00000000
00010000
00000000
00001000
00100000
00000000
,
00010000
00000000
00000000
00010000
00000000
00000000
00010000
00000000
00000000
00000000
01000000
00000000
00100000
00000000
00000000
00000000
,
10000000
01000000
00000000
01000000
00000000
10000000
00010000
00000000
,
00100000
00010000
00100000
00001000
00000000
00010000
00000200
00000000
,
00001300
00000010
00000000
00000010
00000000
00000100
00000001
00000000
,
00000010
00000100
00000000
00000100
00000000
00010000
00001000
00000000
,
00100000
00010000
00200000
00000000
01300000
10000000
02000000
00000000
,
03100000
00000000
00000000
00100000
00000000
00000000
00001000
00000000
00000000
00010000
00000000
00000000
00000100
00000000
00001000
00000000
,
00000000
00001100
00000000
00001010
00000000
00000001
00000100
00000000
,
00000220
00000000
00000000
00000330
,
00001000
00000000
00001000
00000100
00000000
00000100
00010000
00000000
00010000
00001000
00000000
00000000
,
00022000
00000000
00000000
00000000
,
00033000
00000000
00000000
00000000
00000000
00000000
00000000
00100000
,
00010000
00000000
00000000
00000000
,
01100000
00000000
10010000
00000000
,
00010000
00100000
00000000
00100000
00000000
00001000
00010000
00000000
,
00000010
00001000
00000000
00001000
00000000
00000001
00000010
00000000
,
00000100
00001000
00000000
00001000
00000000
00000010
00010000
00000000
,
00001000
01000000
00000000
01000000
00000000
00010000
00100000
00000000
,
01100000
10000000
01100000
00010000
,
00011000
00100000
00011000
01000000
,
00011000
00010100
00011000
00010010
,
00011000
00101000
00011000
01001000
,
00001000
00010000
00001000
00010000
00001000
00010000
00001000
00010000
,
00000100
00001000
00000100
00001000
00000010
00000100
00000001
00000000
,
00002002
00000000
00000000
00000000
00003003
00000000
00000010
00000100
,
00000220
00000000
00000330
00000000
,
00000001
00000000
00000000
00000100
00000000
00000000
00001000
00000000
00000000
00010000
00000000
00000000
00011000
00000000
00000000
00000000
,
00100000
00010000
01000000
00000000
01100000
00000000
00100000
00000000
,
10000000
00010000
00100000
00020000
00000000
01030000
00001000
00000000
,
00010000
00000010
00001000
00000000
00001100
00000000
00000001
00000000
,
00000010
00000000
00000000
00000100
00000000
00000000
00010000
00000000
00000000
00001000
00000000
00000000
00100000
00000000
00000000
00000000
,
00010000
10000000
00100000
00000000
01100000
00000000
00010000
00000000
,
00100000
00001000
00010000
00002000
00000000
00013000
00000100
00000000
,
00001000
00000010
00020000
00000000
00031000
00100000
00020000
00000000
,
01030000
00000000
00000000
00100000
00000000
00000000
10000000
00000000
00000000
01000000
00000000
00000000
00010000
00000000
00000000
00000000
,
00011000
00000000
00000000
00000100
00000000
00000000
00001000
00000000
00000000
00000010
00000000
00000000
00000200
00000000
00000000
00000000
,
00000301
00000010
00000000
00000010
00000000
00000100
00000000
00010000
,
00000000
00001000
00000000
00100000
00000000
00010000
01000000
00000000
,
00100000
10000000
00000000
10000000
00000000
01000000
00000000
00010000
,
00000000
00001000
00000000
00000010
00000000
00000001
00000010
00000000
,
00000110
00001000
00000000
00001000
,
00011000
00010000
00000000
00010000
,
01100000
10000000
01100000
00010000
,
00001000
00010000
00011000
00000000
00000000
00000000
00000110
00000000
,
00002002
00000000
00003003
00000000
,
00001000
00000000
00000000
00000000
00000100
00000000
00000000
00000000
00020000
00000000
00000000
00030000
00000000
00000000
00000000
00000000
,
00001000
00001000
00100000
00000000
,
00010000
00000000
00000000
00000000
01000000
00000000
00000000
00000000
00200000
00000000
00000000
00300000
00000000
00000000
00000000
00000000
,
20020000
30030000
02200000
03300000
,
10000000
00010000
00000000
00010000
00000000
00100000
00001000
00000000
,
00010000
00000100
00000000
00000100
00000000
00001000
00000010
00000000
,
00001000
00000100
00020000
00000000
00031000
01000000
00020000
00000000
,
00130000
00000000
00000000
01000000
00000000
00000000
10000000
00000000
00000000
10000000
00000000
00000000
00100000
00000000
00000000
00000000
,
00010000
00000000
00000000
00001000
00000000
00000000
00000100
00000000
00000000
00000001
00000000
00000000
00000020
00000030
00000000
00000000
,
00001001
00000000
00001000
00000100
00010000
00000000
00001000
00100000
,
00010000
00200000
00000000
01300000
10000000
00000000
00100000
01000000
,
00010000
00000000
00000000
00000000
00100000
00000000
00000000
00000000
00001000
00000000
00000000
00000000
00010000
00000000
00000000
00001000
,
00000000
00000000
00000010
00000000
00000000
00000001
00000000
00000000
00000100
00000000
00000000
00000000
00000010
00000000
00001000
00000000
,
00000010
00001000
00000000
00000100
00010000
00000000
00001000
00100000
,
00001000
00100000
00000000
00010000
01000000
00000000
00010000
00100000
,
00002000
00000000
00000000
00000000
00013000
00000000
00000010
00000000
00002000
00000000
00000000
00000000
00003100
00000000
00000000
00000100
,
00000000
00000000
00000010
00000000
00000000
00000001
00000000
00000000
00000100
00000000
00000000
00000000
00001000
00000000
00000000
00010000
,
00000000
00000000
00100000
00000000
00000000
10000000
00000000
00000000
02000000
00000000
00000000
00000000
03000000
00000000
00000000
00000000
;

//--------------- dance-double - forcednature ----------------
#NOTEDATA:;
#STEPSTYPE:dance-double;
#DESCRIPTION:forcednature;
#DIFFICULTY:Hard;
#METER:14;
#RADARVALUES:0,0,0,0,0;
#CREDIT:forcednature;
#NOTES:
00000000
00000000
00000000
00000000
,
00000000
00000000
00000000
00000000
,
00000000
00000000
00000000
00000000
,
00000000
00000000
00000000
00000000
,
00000000
00000000
00000000
00000000
,
00011000
00000000
00001000
00000010
00000100
00000010
00000001
00000000
,
00001001
00000000
00000001
00000100
00000010
00000100
00001000
00000000
,
00011000
00000000
00010000
00100000
01000000
00100000
10000000
00010000
,
10000000
01000000
00020000
00000000
00000000
00031000
00000020
00000000
,
00000030
00000000
00000001
00000000
00001000
00000100
00000000
00001000
00000100
00000000
00010000
00001000
00000000
00000000
00100000
00000000
,
00010000
00000000
01000000
00000000
00100000
10000000
00000000
00100000
10000000
00000000
00010000
00100000
00000000
00000000
01000000
00000000
,
10000000
00000000
00100000
00000000
01000000
00010000
00000000
01000000
00010000
00000000
00100000
00001000
00000000
00000000
00010000
00000000
,
00000100
00000000
00001000
00000000
00000010
00000100
00000000
00000010
00000100
00000000
00000001
00000000
00000010
00000000
00001000
00000000
,
00000010
00000000
00000001
00000000
00000100
00000001
00000000
00000100
00000001
00000000
00001000
00000010
00000000
00000000
00010000
00000000
,
00001000
00000000
01000000
00000000
00010000
00100000
00000000
00010000
00100000
00000000
01000000
10000000
00000000
00000000
00100000
00000000
,
01000000
10000000
00000000
10000000
01000000
00010000
00100000
00000000
,
00110000
00000000
00000000
00101000
00000000
00000000
00011000
00000000
00000000
00010100
00000000
00000000
00000100
00000000
00000010
00000000
,
00000000
00000000
00000001
00000000
00000100
00000001
00000000
00000100
00000001
00000000
00001000
00000010
00000000
00000000
00010000
00000000
,
00001000
00000000
00000000
00011000
00000000
00000000
00101000
00000000
00000000
00100000
00000000
00000000
00010000
00000000
01000000
00000000
,
00100000
00000000
10000000
00000000
01000000
10000000
00000000
01000000
10000000
00000000
00010000
00100000
00000000
00000000
00001000
00000000
,
00010000
00000000
00010000
00000000
00000100
00000000
00010000
00000000
00000000
00000010
00001000
00000000
00000002
00000000
00000000
00000000
,
00000103
00000000
00001000
00000000
00010000
00000000
00001000
00000000
00000100
00000000
00001000
00000000
00010000
00000000
00000000
00100000
,
10000000
01000000
00100000
01000000
10000000
01000000
00010000
00001000
,
00100000
01000000
00020000
00000000
00031000
00000010
00000200
00000000
,
00001300
00000000
00000000
00001010
00000000
00000000
00000011
00000000
00000000
00000001
00001000
00000000
00000010
00000000
00000110
00000000
,
00000000
00000001
00000100
00001000
00010000
01000000
10000000
00100000
,
02200000
00000000
00000000
03300000
,
01000000
00010000
01000000
00010000
00100000
00010000
00100000
00001000
00010000
00000010
00001000
00000100
,
00000020
00000000
00000000
00000000
,
00000030
00000000
00000000
00000000
00000000
00000000
00000000
00000100
,
00001001
00000000
00000000
00000000
,
00011000
00000000
00000000
00000000
00000000
00000000
00000000
00000000
10010000
00000000
00000000
00000000
10000000
00000000
00010000
10000000
,
00010000
00100000
00000000
00100000
00000000
00100000
00000000
00100000
,
00001000
00000000
00010000
00000000
00000000
00000000
00010000
00000000
00000000
00010000
00000000
00010000
00000000
00000000
00001000
00010000
,
00000100
00001000
00000000
00001000
00000000
00001000
00000000
00001000
,
00000010
00000000
00000100
00000000
00000000
00000000
00000100
00000000
00000000
00000100
00000000
00000100
00000001
00000000
00000001
00000000
,
00000010
00000000
00000000
00000010
00001000
00000000
00000000
00000000
00010000
00000000
00000000
00010000
01000000
00000000
00000000
00000000
,
10000000
00000000
00000000
10000000
00100000
00000000
00000000
00000000
00010000
00000000
00000000
00010000
00001000
00000000
00000000
00000000
,
00000100
00000000
00000000
00000001
00000010
00000000
00000000
00001000
00010000
00000000
00000000
00100000
10000000
00000000
00000000
01000000
,
00010000
00000000
00000000
00001000
00000010
00000000
00000000
00000001
00000100
00000000
00000000
00001000
00010000
00000000
00000000
00100000
,
10000000
01000000
10000000
00100000
10000000
01000000
10000000
00100000
,
00010000
00000000
00001000
00000000
00000010
00000000
00000001
00000000
00000100
00000010
00000100
00000010
00000100
00000000
00000000
00000000
,
00002002
00000000
00000000
00000000
00000000
00000000
00000000
00000000
00003003
00000000
00000000
00000000
00010000
00001000
00010000
00001000
,
00020000
00000000
00030000
00000000
,
00101000
00000000
00000000
01010000
00000000
00000000
01100000
00000000
00000000
10000000
00010000
00000000
10010000
00000000
00000000
00000000
,
10000000
00000000
01000000
00000000
00010000
00000000
00001000
00000000
00100000
00000000
00000000
00100000
00010000
00000000
01000000
00000000
,
00100000
00000000
00100000
00000000
00010000
00000000
00001000
00010000
00000000
00000000
00001000
00000000
00000100
00000000
00000001
00000000
,
00001000
00000000
00000010
00000000
00000100
00000000
00000001
00000000
00000010
00000000
00000000
00000010
00000100
00000000
00010000
00000000
,
00001000
00000000
00001000
00200000
00000000
00000000
00310000
00000000
00010000
02000000
00000000
00000000
03001000
00010000
00001000
00000000
,
00100000
00000000
00010000
00000000
00100000
00000000
10000000
00000000
00100000
00000000
00000000
00100000
00001000
00000000
00010000
00000000
,
00000100
00000000
00001000
00000000
00000010
00000000
00000100
00000002
00000000
00000000
00000013
00000000
00001000
00000000
00000010
00000000
,
00000001
00000000
00000100
00000000
00001000
00000000
00001000
00000000
00010000
00000000
00100000
00000000
10000000
00100000
10000000
00000000
,
01000000
00000000
00000000
11000000
00000000
00000000
00110000
00000000
00000000
00001000
00010000
00000000
00001000
00000000
00010000
00000100
,
00002000
00000000
00000000
00000010
00000000
00000000
00000001
00000000
00000000
00003100
00000000
00000000
00001000
00000001
00000000
00000000
,
00000100
00001000
00010000
00000000
00100000
00010000
00001000
00000000
,
00000010
00001000
00010000
01000000
00010000
00001000
00100000
00000000
,
01000000
00010000
00001000
00000000
00000100
00001000
00010000
00000000
,
00100000
10000000
00100000
00010000
00001000
00000100
00001000
00000000
,
00011000
01000000
00000000
01000000
00000000
01000000
00000000
00100000
,
00011000
00000100
00000000
00000100
00000000
00000100
00000000
00000010
,
00011000
01000000
00100000
00000000
00011000
00000100
00000010
00000000
,
00011000
00000000
00011000
00000000
00011000
00000000
00000000
00000000
00010000
00000000
00001000
00100000
00010000
00100000
00000000
00000000
,
02200000
00000000
00000000
00000000
03300000
00000000
01000000
10000000
,
00100000
00000000
00000000
00000000
00010000
00000000
00000000
00000000
00002000
00000000
00000000
00003000
00000000
00000000
00000000
00000000
,
00000100
00000000
00000001
00000000
00000100
00000000
00000001
00000010
00000000
00000000
00001000
00000000
00010000
00000000
00001000
00000000
,
00100000
00000000
00000000
00000000
00010000
00000000
00000000
00000000
02000000
00000000
00000000
03000000
00000000
00000000
00000000
00000000
,
00100000
00000000
10000000
00100000
00000000
00000000
10000000
00000000
01000000
10000000
00000000
00000000
01000000
00100000
00010000
00000000
,
00100000
00001000
00000000
00001000
00000000
00001000
00000000
00010000
,
00011000
00000010
00000000
00000010
00000000
00000010
00000000
00001000
,
00001100
00010000
00001000
00000000
01010000
00001000
00010000
00000000
,
00011000
00000000
00000000
00010010
00000000
00000000
00001010
00000000
00000000
00000001
00000100
00000000
00000110
00000000
00001000
00000000
,
00001100
00000000
00000000
00011000
00000000
00000000
00110000
00000000
00000000
01000000
01000000
00000000
20020000
30030000
00000000
00000000
,
00011000
00000000
00000000
00000000
00001000
00000000
00000000
00001000
00000010
00000000
00000001
00000000
00000100
00000000
00000100
00000000
,
00000001
00000000
00000010
00000100
00000000
00000000
00010000
00000000
00001000
00000000
00100000
00000000
00010000
00000000
01000000
00000000
,
10000000
00000000
01000000
00000000
00010000
00000000
00000000
00010000
00100000
00000000
00001000
00000000
00010000
00000000
00001000
00020000
,
00000000
00000000
00030010
00000000
00001000
00000020
00000000
00000000
00001030
00000001
00001000
00000000
00000100
00000000
00000001
00000000
,
00000100
00000000
00010000
00000000
00001000
00000000
00000000
00001000
00100000
00000000
00010000
00000000
01000000
00000000
10000000
00000000
,
01000000
00000000
00010000
00200000
00000000
00000000
00301000
00000000
00010000
00000000
00001000
00010000
00000010
00000000
00001000
00000000
,
00000001
00000000
00000001
00000000
00000010
00000000
00001000
00000000
00010000
00001000
00010000
00000000
00011000
00000000
00000000
00101000
,
00000000
00000000
01010000
00000000
00000000
00100000
01000000
00000000
01100000
00000000
00010000
10000000
00020000
00000000
00000000
00100000
,
00000000
00000000
10000000
00000000
00000000
01030000
00000000
00000000
00001000
00020000
00000000
00000000
00030000
00000000
00000000
00000000
;

//--------------- dance-double - forcednature ----------------
#NOTEDATA:;
#STEPSTYPE:dance-double;
#DESCRIPTION:forcednature;
#DIFFICULTY:Challenge;
#METER:16;
#RADARVALUES:0,0,0,0,0;
#CREDIT:forcednature;
#NOTES:
00000000
00000000
00000000
00000000
,
00000000
00000000
00000000
00000000
,
00000000
00000000
00000000
00000000
,
00000000
00000000
00000000
00000000
,
00000000
00000000
00000000
00000000
,
00011000
00000000
00100000
00010000
01000000
00100000
10000000
01000000
,
10010000
00000000
00010000
00100000
00001000
00010000
00000010
00001000
,
00000001
00000010
00000001
00000010
00000100
00000000
00010000
00000000
00001000
00100000
00001000
00100000
00010000
01000000
00010000
01000000
,
00100000
00000000
01100000
00000000
20010000
00000000
00000000
00000000
00000000
00000000
31000000
00000000
00100000
00010000
10000000
01000000
,
00100000
00000000
00001000
00000000
00010000
00000100
00000000
00001000
00000100
00000000
00001000
00000010
00000000
00000100
00000001
00000000
,
00000010
00000000
00001000
00000000
00000010
00000001
00000000
00000100
00000001
00000000
00000100
00000010
00000000
00001000
00000100
00000000
,
00010000
00000000
00001000
00000000
01000000
00010000
00000000
00100000
00010000
00000000
10000000
00100000
00000000
01000000
00010000
00000000
,
00100000
00000000
01000000
00000000
10000000
01000000
00000000
10000000
00010000
00000000
00100000
00000000
00001000
00000000
00010000
00000010
,
00001000
00000000
00000001
00000000
00000100
00000010
00000000
00001000
00000100
00000000
00000010
00000001
00000000
00001000
00000010
00000000
,
00010000
00000000
00001000
00000000
00100000
00010000
00000000
01000000
00010000
00000000
10000000
01000000
00000000
00100000
01000000
00000000
,
10000000
00000000
00000000
10000000
00100000
00000000
00010000
00000000
00001000
00000000
00000010
00000000
00000001
00001000
00000001
00001000
,
00000100
00000000
00000000
00000110
00000000
00000000
00001001
00000000
00000000
00001000
00000100
00000000
00001100
00000000
00010000
00001000
,
00000000
00100000
00010000
00000000
01000000
00010000
00000000
10000000
01000000
00000000
10000000
00010000
00000000
01000000
00100000
00000000
,
10000000
00000000
10000000
01000000
00000000
01000000
00010000
00000000
00010000
00001000
00000000
00001000
00000010
00000000
00000100
00000010
,
00000001
00000000
00000100
00000000
00000010
00001000
00000000
00000001
00000010
00000000
00000100
00000000
00001000
00000100
00001000
00000000
,
00000100
00010000
00001000
00000000
00100000
00010000
00100000
00010000
00000000
01000000
00100000
00000000
10020000
00000000
00000000
00000000
,
00130000
00000000
10000000
00000000
00100000
00000000
00001000
00000000
00010000
00000000
01000000
00000000
10000000
00000000
00010000
00100000
,
00001000
00000000
00010000
00000000
00000100
00000000
00001000
00000010
00000100
00000000
00000100
00000000
00000001
00000000
00001000
00000100
,
00000010
00000000
00000001
00000000
00000100
00000010
00000100
00000010
00001000
00000000
00000100
00000000
00010000
00001000
00010000
00001000
,
00100000
00000000
00000000
00110000
00000000
00000000
01010000
00000000
00000000
10000000
00100000
00000000
01100000
00000000
01000000
00010000
,
00000000
00000000
00100000
00001000
00010000
00000000
00000010
00010000
00001000
00000000
01000000
00001000
00010000
00000000
00000100
00000000
,
00001000
00000010
00001000
00000010
00001000
00000010
00001000
00000010
00000100
00000001
00000100
00000001
00000100
00000001
00000100
00000001
,
00000010
00000001
00000010
00000100
00001000
00000100
00010000
00001000
00100000
01000000
00100000
00010000
,
02000000
00000000
00000000
00000000
,
03000000
00000000
00000000
00000000
00000000
00000000
00000000
10100000
,
11000000
00000000
00000000
00000000
,
00101000
00000000
00000000
00000000
00000000
00000000
00000000
00000000
00010100
00000000
00000000
00000000
00000100
00000000
00001000
00000001
,
00000010
00000000
00000100
00000000
00000000
00000000
00000100
00000000
00000000
00000000
00000100
00001000
00000000
00000000
00000110
00000000
,
00000001
00000000
00000100
00000000
00000000
00000000
00000100
00000000
00000000
00001000
00000100
00001000
00000100
00000000
00001000
00010000
,
00001000
00000000
00010000
00000000
00000000
00000000
00010000
00000000
00000000
00000000
00010000
00100000
00000000
00000000
01100000
00000000
,
10010000
00000000
10000000
00000000
00000000
00000000
10000000
00000000
00000000
01000000
00000000
10000000
00010000
00100000
00010000
00100000
,
00001000
00000000
00000000
00010000
00000000
00000100
00001000
00000000
00000010
00000000
00000000
00000100
00000000
00000001
00000010
00000000
,
00000100
00000000
00000000
00001000
00000000
00000010
00010000
00000000
00001000
00000000
00000000
00100000
00000000
00001000
00010000
00000000
,
00000010
00000000
00010000
00001000
00100000
00000000
00001000
00010000
00000010
00000000
00010000
00001000
00100000
00000000
00001000
00010000
,
00000100
00000000
00010000
00001000
01000000
00000000
00001000
00010000
00000100
00000000
00010000
00001000
01000000
00000000
00001000
00010000
,
00000100
00001000
00000100
00001000
00000100
00001000
00000100
00001000
00000100
00001000
00000100
00001000
00000100
00001000
00000100
00001000
,
00000010
00000100
00000010
00000100
00000010
00000100
00000010
00000100
00001000
00010000
00001000
00010000
00100000
00000000
00000000
00000000
,
20020000
00000000
00000000
00000000
00000000
00000000
00000000
00000000
30030000
00000000
00000000
00000000
10000000
00100000
10000000
00010000
,
02000000
00000000
03000000
00000000
,
00110000
00000000
00000000
00101000
00000000
00000000
00011000
00000000
00000000
00000100
00001000
00000000
00001001
00000000
00000000
00000000
,
00000001
00000010
00000001
00000010
00000100
00001000
00000100
00001000
00000010
00000000
00000000
00010000
00001000
00000000
01000000
00000000
,
00010000
00000000
00100000
00010000
00100000
00000000
01000000
20000000
00000000
00000000
30100000
00000000
01000000
00000000
00010000
00000000
,
00100000
00001000
00100000
00001000
00010000
00000100
00010000
00000100
00001000
00000000
00000000
00000010
00000100
00000000
00000001
00000000
,
00000010
00000100
00001000
00000200
00000000
00000000
00010300
00001000
00100000
00002000
00000000
00000000
01003000
00010000
01000000
00100000
,
10000000
00000000
01000000
00000000
10000000
00010000
10000000
00010000
00100000
00000000
00000000
00001000
00010000
00000000
00000100
00000000
,
00001000
00000010
00001000
00000010
00000100
00000001
00001000
00000020
00000000
00000000
00000130
00000000
00000001
00000000
00000010
00000000
,
00000011
00000000
00001000
00000000
00000100
00010000
00000100
00010000
00001000
00000000
00100000
00000000
00010000
01000000
00100000
10000000
,
00010000
00000000
00000000
01100000
00000000
00000000
10010000
00000000
00000000
10000000
01000000
00000000
01100000
00000000
00100000
00001000
,
00010000
00000000
00000010
00001000
00000000
00000001
00000100
00000000
00000010
00001000
00000000
00000100
00000010
00000002
00000000
00000000
,
00000103
00001000
00010000
00001000
00000100
00001000
00010000
00001000
,
00100000
00010000
01000000
00100000
10000000
11000000
00000000
10000000
,
01000000
00010000
00001000
00010000
01000000
00010000
00001000
00010000
,
00001000
00000000
00000010
00000000
00000100
00000000
00001000
00000000
00000010
00000000
00001001
00000000
00000000
00000000
00000001
00000100
,
00000010
00000000
00001000
00000000
00000000
00000000
00001000
00000000
00000000
00000000
00001000
00000100
00000000
00000000
00010000
00000000
,
00011000
00000000
00100000
00000000
00000000
00000000
00100000
00000000
00000000
00010000
00000000
00010000
01000000
00000000
01000000
00100000
,
10000000
00000000
01000000
00000000
00100000
00010000
00100000
00001000
00010000
00000000
00010000
00000000
00000100
00001000
00000100
00000010
,
00000001
00000000
00000011
00000000
00001001
00000000
00000000
00000000
00000000
00000000
00001000
00000010
00001000
00000010
00010000
00001000
,
02000000
00000000
00000000
00000000
00000000
00000000
00000000
00000000
03000000
00000000
00000000
00000000
00010000
10000000
00100000
01000000
,
00010000
00000000
00000000
00000000
00100000
00000000
00000000
00000000
02000000
00000000
00000000
13000000
00000000
00000000
00000000
00000000
,
00010000
00000000
00010000
00000000
00100000
00000000
00001000
00020000
00000000
00000000
00030010
00000000
00001000
00000000
00000100
00000000
,
00001001
00000000
00000000
00000000
00000001
00000000
00000000
00000000
00000020
00000000
00000000
00000130
00000000
00000000
00000000
00000000
,
00002002
00000000
00000000
00000000
00003003
00000000
00000000
00000000
00010100
00000000
00000000
00000000
00100000
00000000
00010000
10000000
,
00100000
00000000
01000000
00000000
00000000
00000000
01000000
00000000
00000000
00000000
01000000
00010000
00000000
00000000
00100000
00000000
,
00110000
00000000
00001000
00000000
00000000
00000000
00001000
00000000
00000000
00001000
00000000
00001000
00010000
00000000
00000100
00001000
,
00000010
00000000
00000100
00000000
00000001
00000010
00000001
00000010
00000100
00000000
00010000
00000000
00001000
00100000
00001000
00100000
,
00010000
00000000
00000000
01010000
00000000
00000000
10100000
00000000
00000000
10000000
01000000
00000000
01100000
00000000
00100000
00000000
,
00001000
00000000
00001000
00010000
00000000
00010000
00000100
00000000
00001000
00000010
00000100
00000000
00002002
00003003
00000000
00000000
,
00000001
00000010
00000100
00001000
00000010
00000000
00000000
00010000
00001000
00000000
00100000
00000000
00010000
01000000
00010000
01000000
,
00100000
10000000
00010000
02000000
00000000
00000000
03100000
00000000
10000000
00000000
01000000
00000000
00100000
00010000
00100000
00010000
,
10000000
01000000
10000000
00010000
00100000
00000000
00000000
00001000
00010000
00000000
00000010
00000000
00001000
00000100
00010000
00002000
,
00000000
00000000
00103000
00010000
01000000
00002000
00000000
00000000
00013000
00000010
00001000
00000100
00000010
00000000
00000100
00000000
,
00000010
00000001
00001000
00000100
00000010
00000000
00000000
00001000
00010000
00000000
00001000
00000000
00100000
00010000
00100000
00010000
,
01000000
00100000
10000000
02000000
00000000
00000000
13000000
00000000
00100000
00000000
00010000
00100000
10000000
00000000
10000000
00000000
,
00010000
01000000
00010000
00100000
00001000
00000000
00001000
00000000
00010000
00000100
00001000
00000010
00000100
00000000
00000100
00000001
,
00000000
00000001
00000010
00000000
00000010
00001000
00000000
00001000
00010000
00000000
00001000
00100000
00010000
00000000
01000000
00100000
,
00000000
10000000
01000000
00000000
00100000
00001000
00000000
00010000
00000100
00000020
00000000
00000000
00000030
00000000
00000000
00000000
;
