#VERSION:0.83;
#TITLE:Mumbai Rock Festival;
#SUBTITLE:;
#ARTIST:BEMANI Sound Team "Sota Fujimori";
#TITLETRANSLIT:;
#SUBTITLETRANSLIT:;
#ARTISTTRANSLIT:Sota Fujimori;
#GENRE:;
#CREDIT:;
#MUSIC:Mumbai Rock Festival.ogg;
#BANNER:Mumbai Rock Festival.png;
#BACKGROUND:Mumbai Rock Festival-bg.png;
#CDTITLE:./CDTitles/GITADORA FUZZ-UP.png;
#SAMPLESTART:0.003;
#SAMPLELENGTH:15.000;
#SELECTABLE:YES;
#OFFSET:1.588;
#BPMS:0.000=150.000
,184.000=75.000
,185.500=150.000
,282.000=75.000
,283.500=150.000
;
#STOPS:185.500=0.200
,283.500=0.200
;
#TIMESIGNATURES:0.000=4=4,
184.000=2=4,
186.000=4=4,
282.000=2=4,
284.000=4=4
;
#DISPLAYBPM:150.000;
#BGCHANGES:0.000=../BGAs/17te.mp4=1.000=0=0=0=StretchNoLoop====,
99999.000=-nosongbg-=1.000=0=0=0=StretchNoLoop====
;
#FGCHANGES:;

//--------------- dance-single - forcednature ----------------
#NOTEDATA:;
#STEPSTYPE:dance-single;
#DESCRIPTION:forcednature;
#DIFFICULTY:Beginner;
#METER:3;
#RADARVALUES:0,0,0,0,0;
#CREDIT:forcednature;
#NOTES:
0000
0000
0000
0000
,
0000
0000
0000
0000
,
0000
0000
0000
0000
,
0000
0000
0000
0000
,
0000
0000
0000
0000
,
0001
0000
0000
0000
,
1000
0000
0000
0000
,
0001
0000
0000
0000
,
0100
0000
0000
0000
,
0110
0000
0000
0000
,
0010
0000
1000
0000
,
0010
0000
0000
0000
,
1000
0000
0001
0000
,
1000
0000
0000
0000
,
0001
0000
0010
0000
,
0001
0000
0000
0000
,
0010
0000
0100
0000
,
0010
0000
0000
0000
,
0001
0000
0000
0000
,
0100
0000
0000
0000
,
0001
0000
1000
0000
,
0001
0000
0000
0000
,
1000
0000
0000
0000
,
0100
0000
0000
0000
,
1000
0000
0001
0000
,
1000
0000
0000
0000
,
1000
0000
0010
0000
,
0100
0000
0000
0000
,
0100
0000
0001
0000
,
0010
0000
0000
0000
,
0010
0000
0100
0000
,
1000
0000
0000
0000
,
1001
0000
0000
0000
,
0001
0000
0001
0000
,
1000
0000
1000
0000
,
0010
0000
0010
0000
,
0100
0000
0100
0000
,
1001
0000
0000
0000
,
1000
0000
0000
0000
,
0010
0000
0000
0000
,
0100
0000
0000
0000
,
0001
0000
0000
0000
,
0010
0000
0000
0000
,
0001
0000
0000
0000
,
1000
0000
0000
0000
,
0010
0000
0000
0000
,
2002
0000
0000
3003
1000
0000
0000
0000
,
0000
0000
0100
0000
,
0000
0000
1000
0000
,
0000
0000
0010
0000
,
0000
0000
0100
0000
,
0000
0000
0001
0000
,
0000
0000
0010
0000
,
0000
0000
0001
0000
,
0001
0000
1000
0000
,
0000
0000
0010
0000
,
0000
0000
0100
0000
,
0000
0000
0001
0000
,
0001
0000
1000
0000
,
0000
0000
0100
0000
,
0000
0000
1000
0000
,
1000
0000
0010
0000
,
0000
0000
0100
0000
,
0001
0000
0200
0000
,
0300
0000
0001
0000
,
0010
0000
0002
0000
,
0003
0000
1000
0000
,
0010
0000
2000
0000
,
3000
0000
0100
0000
,
1000
0000
0200
0000
,
0300
0000
0000
0000
2002
0000
0000
3003
,
0010
0010
0010
0000
,
1001
0000
0000
0000
,
1000
0000
0001
0000
,
1001
0000
0000
0000
,
0001
0000
1000
0010
;

//--------------- dance-single - forcednature ----------------
#NOTEDATA:;
#STEPSTYPE:dance-single;
#DESCRIPTION:forcednature;
#DIFFICULTY:Easy;
#METER:7;
#RADARVALUES:0,0,0,0,0;
#CREDIT:forcednature;
#NOTES:
0000
0000
0000
0000
,
0000
0000
0000
0000
,
0000
0000
0000
0000
,
0000
0000
0000
0000
,
0000
0000
0000
0000
,
0001
1000
0100
1000
,
0010
0000
0000
0010
0000
0000
0010
0000
,
1000
0001
0100
0001
,
0010
0000
0000
0010
0000
0000
0100
0000
,
0110
0010
0001
0100
,
0010
0000
1000
0000
0001
1000
0001
0000
,
1000
0100
0010
0001
,
0100
0000
0010
0000
1000
0010
1000
0000
,
0001
0010
0100
1000
,
0010
0000
0100
0000
0001
0100
0001
0000
,
0010
0001
1000
0010
,
0100
0001
0010
0100
,
2000
0000
0100
3100
,
0200
0000
0010
0310
,
0020
0000
0001
0031
,
2002
0000
0000
3003
,
0002
0100
0100
0103
,
0020
1000
1000
1030
,
0002
0010
0010
0013
,
2002
0000
3003
1001
,
1000
0100
0001
0100
,
1000
0100
0010
0001
,
1000
0010
0001
0010
,
1000
0000
0001
0000
0100
0001
0100
0000
,
0001
0010
1000
0010
,
0001
1000
0100
0001
,
0100
1000
0001
1000
,
0010
0100
0010
0000
0100
0000
0110
0000
,
0001
1000
0000
0000
0001
1000
0000
0000
,
0100
0010
0000
0000
0100
0010
0000
0000
,
0001
0100
0000
0000
0001
0100
0000
0000
,
0010
1000
0000
0000
0010
1000
0000
0000
,
1001
0000
1000
0100
,
0010
0010
0001
0100
,
1001
0000
0001
0010
,
0100
1000
0010
0010
,
1001
0000
1000
0100
,
0010
0001
0100
0100
,
1001
0000
0001
0010
,
0100
1000
0010
0110
,
0200
0000
0000
0300
,
2002
0000
0000
3003
0001
1000
0001
0000
,
1000
0100
0010
0100
,
1000
0000
0000
0000
0001
1000
0001
0000
,
1000
0010
0100
0001
,
0010
0000
0000
0000
1000
0001
1000
0000
,
0010
0100
0001
0010
,
0100
0000
0000
0000
1000
0001
1000
0000
,
0001
0100
0001
0010
,
0100
0000
0000
0000
0010
0100
0010
0000
,
0001
1000
0001
0100
,
0010
0000
0000
0000
0100
0010
0100
0000
,
0001
1000
0100
0010
,
0001
0000
0000
0000
1000
0001
1000
0000
,
0010
0000
0100
0000
0001
0100
0001
0000
,
1000
0000
0100
0000
1000
0100
1000
0000
,
0010
0100
0001
0010
,
0100
1000
1001
0000
,
1000
0000
1000
0000
0010
1000
0010
0000
,
0100
0001
1001
0000
,
0001
0000
0001
0000
0010
0001
0010
0000
,
0100
1000
1001
0000
,
1000
0000
1000
0000
0100
1000
0100
0000
,
0010
0001
1001
0000
,
0001
0000
0001
0000
0100
0001
0100
0000
,
0010
0000
1000
0000
2002
0000
0000
3003
,
0001
1000
0001
1000
0001
0000
1001
0000
,
1000
0100
1000
0010
,
0100
0000
0100
0010
0000
0010
0100
0000
,
0001
1000
0001
0010
,
0100
0000
0100
0010
0000
0010
0002
0000
,
0000
0000
0000
0000
,
0003
0000
0000
0000
;

//--------------- dance-single - forcednature ----------------
#NOTEDATA:;
#STEPSTYPE:dance-single;
#DESCRIPTION:forcednature;
#DIFFICULTY:Medium;
#METER:12;
#RADARVALUES:0,0,0,0,0;
#CREDIT:forcednature;
#NOTES:
0000
0000
0000
0000
,
0000
0000
0000
0000
,
0000
0000
0000
0000
,
0000
0000
0000
0000
,
0000
0000
0000
0000
,
1000
0100
1000
0001
0100
0001
1000
0000
,
0010
0100
0000
0100
0010
0000
0110
0000
,
0001
0100
0001
1000
0100
1000
0001
0000
,
0010
0100
0000
0100
0010
0000
0110
0000
,
1000
0001
1000
0100
0010
0001
0010
0000
,
0100
1000
0010
0100
0001
0010
0100
0000
,
0010
0001
1000
0001
0010
0100
1000
0000
,
0010
0000
0000
0100
0000
0100
0000
0000
0010
0000
1000
0000
0001
0000
0000
0000
,
0010
0100
1000
0010
1000
0100
0010
0000
,
0001
0100
1000
0100
0001
0100
0010
0000
,
1000
0001
0010
0001
1000
0010
1000
0001
,
0010
0100
1000
0100
0010
0001
0100
0000
,
0110
0000
1010
0000
0010
0100
0001
0000
,
0011
0000
0110
0000
0010
0001
0100
0000
,
0110
0000
1010
0000
0010
0100
0001
0000
,
0020
0000
0000
0000
0031
1000
1001
0000
,
0001
0100
1000
0100
0001
0100
0010
0000
,
1000
0100
0001
0100
1000
0100
0010
0000
,
0001
1000
0010
0100
0001
0010
0100
0000
,
0020
0000
0000
0000
0031
1000
1001
0000
,
0001
0010
0001
0010
0100
1000
0100
1000
,
0010
0100
0001
0010
0100
1000
0010
0000
,
1000
0100
1000
0100
0010
0001
0010
0001
,
0100
0010
1000
0100
0010
0001
0100
0000
,
0010
1000
0010
1000
0001
0100
0001
0100
,
0010
1000
0100
0010
0001
0100
0010
0000
,
0100
0001
0100
0001
1000
0010
1000
0000
,
0001
1000
0000
1000
0000
0001
1000
0000
0001
0000
0000
0000
1001
0000
0000
0000
,
1000
1000
0000
0000
0010
0010
0000
0000
,
0100
0100
0000
0000
0001
0001
0000
0000
,
1000
1100
0000
0000
0001
0101
0000
0000
,
1000
1010
0000
0000
0001
0011
0000
0000
,
1000
0000
0010
0000
0100
0000
0001
0100
0000
0000
0000
0000
0010
0000
1000
0000
,
0001
0000
0010
0000
0100
0000
1000
0100
0000
0000
0010
0000
0001
0000
1000
0000
,
0010
0000
0100
0000
0001
0000
0100
0000
0010
0000
1000
0010
0000
0000
0100
0000
,
0001
0000
0010
0000
0100
0000
1000
0000
0010
0000
0100
0010
0000
0000
1000
0000
,
0001
0000
0010
0000
0100
0000
0010
0001
0000
0000
0000
0000
1000
0000
0010
0000
,
0100
0000
0001
0000
0010
0000
0100
1000
0000
0000
0010
0000
1000
0000
0001
0000
,
0010
0000
0001
0000
0100
0000
0010
0000
1000
0000
0000
0100
0000
0000
0001
0000
,
0100
1000
0001
0010
0001
1000
1001
0000
,
0001
0000
0000
0100
0000
0000
0010
0000
0000
1000
0000
0000
0001
0000
0000
0000
,
2002
0000
0000
3003
1000
1000
0001
0200
,
0000
0310
1000
0001
0010
0100
1000
0100
,
0010
0001
0200
0000
0310
1000
0001
0010
,
0001
1000
0010
0100
0001
0010
0100
1000
,
0010
0000
0000
0100
0000
0000
0110
0000
0000
0000
0010
0000
1000
0000
0001
0000
,
0010
0001
1000
0010
0200
0302
0023
0230
,
2300
0000
3002
0000
0103
0010
1000
0010
,
0100
0001
0000
0100
0001
0000
0000
0000
0011
0000
0000
0011
0000
0000
1100
0000
,
0000
1100
0000
0000
0001
0000
1000
0000
0010
0000
0010
0000
1000
0000
0200
0000
,
0000
0310
0001
1000
0010
0100
0001
0100
,
0010
1000
0200
0000
0310
0001
1000
0010
,
1000
0001
0010
0100
1000
0010
0100
0001
,
0010
0000
0000
0100
0000
0000
0110
0000
0000
0000
0010
0000
0001
0000
1000
0000
,
0010
1000
0001
0010
0200
2300
3020
0230
,
0302
0000
2003
0000
3100
0010
0001
0010
,
0100
1000
0000
0100
1000
0000
0000
0000
1010
0000
0000
1010
0000
0000
0101
0000
,
0000
0101
0000
0000
1001
0000
0000
0000
1000
0000
0100
1000
0100
0000
0000
0000
,
0010
0001
0011
0000
2000
3020
0230
0302
,
0023
0000
0230
0000
2300
0000
3000
0000
0001
0000
0100
0001
0100
0000
0000
0000
,
0010
1000
1010
0000
0002
0023
0230
2300
,
3020
0000
0230
0000
0302
0000
0003
0000
1000
0000
0001
1000
0001
0000
0000
0000
,
0100
0010
0110
0000
2000
3020
0230
0302
,
0023
0000
0230
0000
2300
0000
3000
0000
0001
0000
1000
0001
1000
0000
0000
0000
,
0010
0100
0110
0000
0002
0203
0320
2030
,
3200
0320
0032
0003
2002
0000
0000
3003
,
0001
1000
0000
1000
0000
0001
1000
0000
0001
0000
0000
0000
1001
0000
0000
0000
,
1000
0100
0001
0100
1000
0001
0010
0000
,
0001
1000
0000
0100
0000
0000
1000
0001
0000
0100
0000
0000
1001
0000
0000
0000
,
0001
0100
1000
0100
0001
1000
0010
0000
,
1000
0001
0000
0100
0000
0000
0001
1000
0000
0100
0000
0000
0220
0000
0000
0000
,
0000
0000
0000
0000
,
0330
0000
0000
0000
;

//--------------- dance-single - forcednature ----------------
#NOTEDATA:;
#STEPSTYPE:dance-single;
#DESCRIPTION:forcednature;
#DIFFICULTY:Hard;
#METER:16;
#RADARVALUES:0,0,0,0,0;
#CREDIT:forcednature;
#NOTES:
0000
0000
0000
0000
,
0000
0000
0000
0000
,
0000
0000
0000
0000
,
0000
0000
0000
0000
,
0000
0000
0000
0000
,
0001
1000
0001
1000
0000
0100
0000
0100
0000
1000
0001
0000
0010
0000
0000
0000
,
0001
0100
0010
1000
0000
0000
0001
0100
0010
1000
0000
1000
0001
0000
0000
0000
,
1000
0001
1000
0001
0000
0100
0000
0100
0000
0001
1000
0000
0010
0000
0000
0000
,
1000
0100
0010
0001
0000
0000
1000
0100
0010
0001
0000
0100
0020
0000
0000
0000
,
1030
0000
0010
1000
0010
0000
0100
0000
0010
0100
0001
0100
0010
0000
0000
0000
,
1000
0001
1000
0001
0100
0001
1000
0100
1000
0000
0001
0000
0020
0000
0000
0000
,
0130
0000
1000
0100
0010
0000
0001
0000
0100
0010
1000
0010
0100
0000
0000
0000
,
0001
1000
0001
0010
0000
0010
0000
0100
0001
0000
0100
0000
2000
0000
0000
0000
,
3010
0000
0100
0010
0100
0000
0001
0000
1000
0010
0100
0010
1000
0000
0000
0000
,
0001
1000
0001
1000
0100
0010
0100
1000
0001
0010
0001
0000
0020
0000
0000
0000
,
0130
1000
0100
0010
0100
0000
1000
0000
0001
0100
0001
1000
0100
1000
0002
0000
,
0000
0000
0013
0100
2000
0000
0000
0000
3010
0100
0000
0100
0001
1000
0001
0000
,
0010
0000
0100
0010
0000
0001
0010
0000
0100
1000
0000
0001
0100
0000
0110
0000
,
0010
0000
0100
0010
0000
1000
0010
0000
0100
0001
0000
1000
0100
0000
0110
0000
,
0010
0000
0100
0010
0000
0001
0010
0000
0100
1000
0000
0001
0100
0010
0100
0000
,
0010
1000
0010
1000
0001
0100
0010
1000
0001
0010
0100
1000
0020
0000
0000
0000
,
1030
0001
0100
0001
0000
0001
1000
0000
1000
0100
0000
0100
0010
0000
0110
0000
,
0001
1000
0100
1000
0000
1000
0001
0000
0001
0100
0000
0100
0010
1000
0010
0000
,
0100
0001
0100
0010
0000
0010
1000
0000
1000
0001
0000
0001
0010
0100
0010
0000
,
0001
1000
0100
1000
0001
0010
0100
1000
0001
0100
0010
1000
0200
0000
0000
0000
,
0310
0000
0001
0010
0001
0000
0100
0001
0100
0000
0010
0100
0010
0000
1000
0000
,
0100
0000
1000
0100
1000
0000
0001
0100
0001
0000
0010
0100
1000
0000
1000
0001
,
0000
0000
0100
0001
0100
0000
0010
1000
0010
0000
0100
0001
0100
0000
0010
0000
,
1000
0100
1000
0100
0010
0001
0010
0001
0100
0010
0100
0010
1000
0001
1000
0001
,
0010
0000
0100
1000
0100
0000
1000
0010
1000
0000
0010
0100
0010
0000
0100
0000
,
0001
0000
1000
0010
1000
0000
0001
0010
0001
0000
0100
0010
1000
0000
0001
1000
,
0000
0000
0010
0100
0010
0000
0100
0001
0100
0000
0010
1000
0010
0000
0100
0000
,
0110
0000
0010
1000
0000
1000
0001
0000
0100
0000
0010
0000
1001
0000
0000
0000
,
1100
1100
0000
0000
0101
0101
0000
0000
,
1010
1010
0000
0000
0011
0011
0000
0000
,
1100
1001
0000
0000
0101
1001
0000
0000
,
1010
0101
0000
0000
0011
1100
0000
0000
,
1001
0000
1000
0000
0010
0000
0100
0010
0000
0000
0100
0001
0000
0010
0001
0010
,
0001
0000
0001
0000
0100
0000
0010
0100
0000
1000
0000
0100
0010
0100
0001
1000
,
0001
0100
0010
0100
0001
1000
0001
0000
0010
0000
0000
0100
0000
0000
1000
0000
,
0010
0100
0010
1000
0001
0100
0010
0100
0001
1000
0100
0010
0001
0000
1000
0000
,
0001
0000
0001
0000
0010
0000
0100
0010
0000
0000
0100
1000
0000
0010
1000
0010
,
1000
0000
1000
0000
0100
0000
0010
0100
0000
0001
0000
0100
0010
0100
1000
0001
,
1000
0100
0010
0100
1000
0001
1000
0000
0010
0000
0000
0100
0000
0000
0001
0000
,
0010
0100
0010
0001
1000
0100
0010
0100
1000
0001
0100
0001
1000
0000
0000
0000
,
0010
0000
0100
0010
0000
1000
0001
0000
0100
0010
0000
1000
0001
0000
0010
0100
,
2000
0000
0000
0000
0000
0000
3001
0000
1002
0000
1000
0000
1003
0000
0010
0100
,
0000
0100
0001
0000
0010
0100
1000
0001
0200
0000
0320
0000
2030
0000
3200
0000
,
0301
0100
0010
0100
1000
0000
0000
0000
1001
0000
0001
0100
0001
1000
0100
1000
,
0001
0010
0100
1000
0010
0100
0001
0000
1000
0000
0100
1000
0010
0100
0001
0100
,
0010
1000
0001
0010
0001
1000
0010
0000
0100
0000
0001
0100
0010
1000
0001
0010
,
0000
0100
1000
0001
0100
0001
1000
0100
0020
0000
0032
0000
0203
0000
2300
0000
,
0000
3100
0001
0100
0010
1000
0010
0000
0100
0001
0010
0100
1000
0100
0010
0001
,
1000
0010
1000
0001
0010
0100
0010
0000
0001
0100
0000
0100
1000
0000
1000
0100
,
0000
0001
0100
0010
1000
0001
0010
0100
2000
0000
0001
0000
3001
0000
0010
0100
,
0000
0100
1000
0000
0010
0100
0001
1000
0200
0000
0320
0000
0032
0000
0203
0000
,
1300
0100
0010
0100
0001
0000
0000
0000
1001
0000
1000
0100
1000
0001
0100
0001
,
1000
0010
0100
0001
0010
0100
1000
0000
0001
0000
0100
0001
0010
0100
1000
0100
,
0010
0001
1000
0010
1000
0001
0010
0000
0100
0000
1000
0100
0010
0001
1000
0010
,
0000
0100
0001
1000
0100
1000
0001
0100
0020
0000
2030
0000
3200
0000
0302
0000
,
0000
0103
1000
0100
0010
0001
0010
0000
0100
1000
0010
0100
0001
0100
0010
1000
,
0001
0010
0001
1000
0010
0100
0010
0000
1000
0100
0000
0100
0001
0000
0001
0100
,
0000
1000
0100
0010
0001
0000
1000
0000
1001
0000
0000
0001
0100
0000
0010
0100
,
0010
1000
1100
0000
0002
0023
2030
3002
,
0103
0000
1000
0100
0010
0000
0000
0000
0001
1000
0000
1000
0000
0001
0100
0000
,
0010
0000
1000
0100
1000
0000
0001
0000
0010
0100
1000
0100
0010
0001
1000
0010
,
0200
0000
0302
0000
0023
0000
0230
0000
1300
0000
0000
1000
0100
0000
0010
0100
,
0010
0001
0101
0000
2000
3020
0032
2003
,
3100
0000
0001
0100
0010
0000
0000
0000
1000
0001
0000
0001
0000
1000
0100
0000
,
0010
0000
0001
0100
0001
0000
1000
0000
0010
0100
0001
0100
0010
1000
0001
0010
,
0200
2300
3002
0203
0320
0000
0000
0130
,
1000
0001
0000
1001
0000
1000
0100
0000
0110
0000
0000
0000
1001
0000
0000
0000
,
0001
0100
1000
0100
0000
0010
0100
0010
0000
0100
0001
0000
1001
0000
0000
0000
,
0001
0010
0100
1000
0000
1000
0001
0010
0100
1000
0000
1000
0001
0000
0000
0000
,
1000
0100
0001
0100
0000
0010
0100
0010
0000
0100
1000
0000
1001
0000
0000
0000
,
1000
0010
0100
0001
0010
0100
0010
0100
1000
0001
0000
0100
0020
0000
0000
0000
,
0000
0000
0000
0000
,
0030
0000
0000
0000
;

//--------------- dance-double - forcednature ----------------
#NOTEDATA:;
#STEPSTYPE:dance-double;
#DESCRIPTION:forcednature;
#DIFFICULTY:Easy;
#METER:8;
#RADARVALUES:0,0,0,0,0;
#CREDIT:forcednature;
#NOTES:
00000000
00000000
00000000
00000000
,
00000000
00000000
00000000
00000000
,
00000000
00000000
00000000
00000000
,
00000000
00000000
00000000
00000000
,
00000000
00000000
00000000
00000000
,
00010000
00001000
01000000
00001000
,
00010000
00000000
00000000
00010000
00000000
00000000
00010000
00000000
,
00001000
00100000
00010000
00100000
,
01000000
00000000
00000000
01000000
00000000
00000000
10000000
00000000
,
10010000
00010000
00100000
00001000
,
00010000
00000000
00001000
00000000
00010000
00001000
00010000
00000000
,
00000010
00001000
00000100
00000010
,
00000001
00000000
00000100
00000000
00000010
00000100
00000010
00000000
,
00001000
00000100
00010000
00001000
,
01000000
00000000
00010000
00000000
00100000
00010000
00100000
00000000
,
00001000
00010000
00000010
00001000
,
00000100
00000010
00000001
00000100
,
00002000
00000000
00010000
00013000
,
00020000
00000000
00001000
00031000
,
00002000
00000000
00100000
00103000
,
20020000
00000000
00000000
30030000
,
00020000
01000000
01000000
01030000
,
00002000
00010000
00010000
00013000
,
00000020
00001000
00001000
00001030
,
00002002
00000000
00003003
00001001
,
00001000
00000100
00000010
00000100
,
00010000
00001000
00100000
01000000
,
00100000
00010000
10000000
00100000
,
01000000
00000000
00001000
00000000
00010000
00001000
00010000
00000000
,
00000100
00001000
00000100
00000010
,
00000001
00000100
00001000
00010000
,
00001000
00010000
00100000
10000000
,
00100000
01000000
00100000
00000000
01000000
00000000
01100000
00000000
,
00010000
10000000
00000000
00000000
00010000
10000000
00000000
00000000
,
01000000
00100000
00000000
00000000
01000000
00100000
00000000
00000000
,
00001000
00010000
00000000
00000000
00001000
00010000
00000000
00000000
,
00000010
00000100
00000000
00000000
00000010
00000100
00000000
00000000
,
00001001
00000000
00001000
00000100
,
00000010
00000010
00000001
00000100
,
00001001
00000000
00001000
00000100
,
00010000
00001000
00100000
00100000
,
10010000
00000000
10000000
01000000
,
00010000
00001000
00010000
00010000
,
00011000
00000000
00001000
00000010
,
00000001
00000010
00000100
00000110
,
00000020
00000000
00000000
00000030
,
00002002
00000000
00000000
00003003
00000001
00001000
00000001
00000000
,
00001000
00000010
00000100
00001000
,
00010000
00000000
00000000
00000000
00001000
00010000
00001000
00000000
,
01000000
00010000
00100000
01000000
,
10000000
00000000
00000000
00000000
00010000
10000000
00010000
00000000
,
00100000
00001000
00010000
00000100
,
00000010
00000000
00000000
00000000
00000001
00001000
00000001
00000000
,
00000100
00001000
00010000
00100000
,
10000000
00000000
00000000
00000000
01000000
10000000
01000000
00000000
,
00100000
00001000
00010000
00000100
,
00000010
00000000
00000000
00000000
00000001
00001000
00000001
00000000
,
00000100
00001000
00010000
01000000
,
10000000
00000000
00000000
00000000
00010000
10000000
00010000
00000000
,
00100000
00000000
00001000
00000000
00010000
00001000
00010000
00000000
,
00000010
00000000
00001000
00000000
00000100
00001000
00000100
00000000
,
00000010
00000001
00000100
00001000
,
00010000
00001000
00011000
00000000
,
01000000
00000000
01000000
00000000
00010000
01000000
00010000
00000000
,
00100000
01000000
01100000
00000000
,
01000000
00000000
01000000
00000000
10000000
01000000
10000000
00000000
,
00100000
01000000
01100000
00000000
,
00010000
00000000
00010000
00000000
00100000
00010000
00100000
00000000
,
00001000
00010000
00011000
00000000
,
00001000
00000000
00001000
00000000
00010000
00001000
00010000
00000000
,
00000010
00000000
00001000
00000000
00002002
00000000
00000000
00003003
,
00000001
00001000
00000001
00001000
00000001
00000000
00001001
00000000
,
00001000
00000100
00000010
00000100
,
00010000
00000000
00010000
00001000
00000000
00001000
00010000
00000000
,
00001000
01000000
00010000
00100000
,
01000000
00000000
01000000
10000000
00000000
10000000
00200000
00000000
,
00000000
00000000
00000000
00000000
,
00300000
00000000
00000000
00000000
;

//--------------- dance-double - forcednature ----------------
#NOTEDATA:;
#STEPSTYPE:dance-double;
#DESCRIPTION:forcednature;
#DIFFICULTY:Medium;
#METER:12;
#RADARVALUES:0,0,0,0,0;
#CREDIT:forcednature;
#NOTES:
00000000
00000000
00000000
00000000
,
00000000
00000000
00000000
00000000
,
00000000
00000000
00000000
00000000
,
00000000
00000000
00000000
00000000
,
00000000
00000000
00000000
00000000
,
00001000
00010000
00100000
01000000
00100000
10000000
00010000
00000000
,
10000000
01000000
00000000
01000000
00010000
00000000
00011000
00000000
,
00010000
00001000
00000010
00000100
00000010
00000001
00001000
00000000
,
00000001
00000100
00000000
00000100
00001000
00000000
00011000
00000000
,
00010000
00100000
10000000
00100000
01000000
00010000
10000000
00000000
,
01000000
00010000
00001000
00010000
00001000
00000010
00000001
00000000
,
00000100
00000010
00001000
00000010
00000100
00000001
00000010
00000000
,
00001000
00000000
00000000
00010000
00000000
00010000
00000000
00000000
00001000
00000000
00010000
00000000
00100000
00000000
00000000
00000000
,
01000000
00010000
10000000
00010000
00100000
01000000
10000000
00000000
,
01000000
00010000
00001000
00010000
00001000
00000100
00000001
00000000
,
00000010
00000100
00001000
00000010
00010000
00001000
01000000
00010000
,
00100000
01000000
10000000
01000000
00010000
00001000
00010000
00000000
,
00011000
00000000
00010100
00000000
00000100
00001000
00000010
00000000
,
00000110
00000000
00000101
00000000
00000001
00000010
00000100
00000000
,
00010100
00000000
00011000
00000000
00001000
00100000
00010000
00000000
,
02000000
00000000
00000000
00000000
03010000
10000000
10010000
00000000
,
00010000
10000000
01000000
00010000
00001000
00100000
00001000
00000000
,
00010000
00000100
00001000
00000010
00000100
00000001
00000010
00000000
,
00000001
00000100
00001000
00010000
00000010
00010000
00001000
00000000
,
00200000
00000000
00000000
00000000
00310000
10000000
10010000
00000000
,
10000000
00100000
10000000
00100000
01000000
00010000
01000000
00010000
,
00001000
00000010
00000100
00000001
00000010
00000100
00001000
00000000
,
00000001
00000100
00000001
00000100
00000010
00001000
00000010
00001000
,
00010000
01000000
00100000
10000000
01000000
00100000
00010000
00000000
,
10000000
00100000
10000000
00100000
00010000
00001000
00010000
00001000
,
00000100
00000010
00001000
00000001
00000010
00000100
00001000
00000000
,
00000001
00000100
00000001
00000100
00001000
00000100
00001000
00000000
,
00010000
00001000
00000000
00001000
00000000
00010000
00001000
00000000
00010000
00000000
00000000
00000000
00011000
00000000
00000000
00000000
,
00100000
00100000
00000000
00000000
00010000
00010000
00000000
00000000
,
01000000
01000000
00000000
00000000
00001000
00001000
00000000
00000000
,
00010000
00010000
00000000
00000000
00000100
00000100
00000000
00000000
,
00001000
00001000
00000000
00000000
00000010
00000010
00000000
00000000
,
00000100
00000000
00000001
00000000
00000010
00000000
00000001
00000010
00000000
00000000
00000000
00000000
00000001
00000000
00001000
00000000
,
00000010
00000000
00010000
00000000
00001000
00000000
00010000
00001000
00000000
00000000
01000000
00000000
00010000
00000000
00100000
00000000
,
01000000
00000000
10000000
00000000
00010000
00000000
10000000
00000000
01000000
00000000
00100000
01000000
00000000
00000000
00100000
00000000
,
00001000
00000000
00010000
00000000
00001000
00000000
00000100
00000000
00000010
00000000
00000100
00000010
00000000
00000000
00001000
00000000
,
00000001
00000000
00000010
00000000
00000100
00000000
00001000
00000100
00000000
00000000
00000000
00000000
00010000
00000000
00001000
00000000
,
01000000
00000000
00010000
00000000
00100000
00000000
01000000
10000000
00000000
00000000
00100000
00000000
10000000
00000000
00010000
00000000
,
00100000
00000000
00001000
00000000
00010000
00000000
00000100
00000000
00001000
00000000
00000000
00000010
00000000
00000000
00001000
00000000
,
00000001
00000100
00000010
00000100
00001000
00010000
00011000
00000000
,
00010000
00000000
00000000
00100000
00000000
00000000
10000000
00000000
00000000
00100000
00000000
00000000
00010000
00000000
00000000
00000000
,
00022000
00000000
00000000
00033000
00001000
00001000
00010000
00000200
,
00000000
00001300
00000010
00001000
00000001
00000010
00000100
00010000
,
00001000
00100000
02000000
00000000
03100000
00001000
00010000
00001000
,
01000000
00010000
10000000
00100000
10000000
01000000
00010000
00001000
,
00100000
00000000
00000000
01000000
00000000
00000000
01100000
00000000
00000000
00000000
00100000
00000000
00001000
00000000
00010000
00000000
,
00000100
00010000
00001000
00000010
00000002
00000203
00002300
00003200
,
00000302
00000000
00002003
00000000
00003100
00000010
00000100
00010000
,
00001000
00010000
00000000
00001000
00010000
00000000
00000000
00000000
00101000
00000000
00000000
00101000
00000000
00000000
01010000
00000000
,
00000000
01010000
00000000
00000000
10000000
00000000
00100000
00000000
10000000
00000000
10000000
00000000
01000000
00000000
00020000
00000000
,
00000000
01030000
00100000
00001000
00010000
00001000
01000000
00010000
,
01000000
00100000
00020000
00000000
00031000
00010000
00001000
00000100
,
00000001
00000100
00000010
00001000
00000001
00000010
00001000
00010000
,
00001000
00000000
00000000
00010000
00000000
00000000
00011000
00000000
00000000
00000000
00001000
00000000
01000000
00000000
00010000
00000000
,
01000000
00001000
00010000
00100000
20000000
32000000
03020000
02030000
,
23000000
00000000
30020000
00000000
01030000
00100000
01000000
00001000
,
00010000
00001000
00000000
00010000
00001000
00000000
00000000
00000000
00010100
00000000
00000000
00010100
00000000
00000000
00001010
00000000
,
00000000
00001010
00000000
00000000
00001001
00000000
00000000
00000000
00000001
00000000
00000010
00000001
00000010
00000000
00000000
00000000
,
00000100
00001000
00001100
00000000
00000002
00000203
00002300
00023000
,
02030000
00000000
23000000
00000000
30200000
00000000
00300000
00000000
10000000
00000000
00100000
10000000
00100000
00000000
00000000
00000000
,
01000000
00010000
01010000
00000000
20000000
32000000
03020000
00032000
,
00003200
00000000
00000302
00000000
00000023
00000000
00000030
00000000
00000001
00000000
00000100
00000001
00000100
00000000
00000000
00000000
,
00000010
00001000
00001010
00000000
00000002
00000203
00002300
00023000
,
02030000
00000000
23000000
00000000
30200000
00000000
00300000
00000000
10000000
00000000
00100000
10000000
00100000
00000000
00000000
00000000
,
01000000
00010000
01010000
00000000
20000000
32000000
03020000
00032000
,
00003200
00000302
00000023
00000030
00000220
00000000
00000000
00000330
,
00010000
00001000
00000000
00001000
00000000
00010000
00001000
00000000
00010000
00000000
00000000
00000000
00011000
00000000
00000000
00000000
,
00001000
01000000
00010000
00100000
01000000
10000000
00100000
00000000
,
10000000
01000000
00000000
00010000
00000000
00000000
00001000
00010000
00000000
00001000
00000000
00000000
00011000
00000000
00000000
00000000
,
00010000
00000100
00001000
00000010
00000100
00000001
00000010
00000000
,
00000001
00000100
00000000
00001000
00000000
00000000
00010000
00001000
00000000
00010000
00000000
00000000
00022000
00000000
00000000
00000000
,
00000000
00000000
00000000
00000000
,
00033000
00000000
00000000
00000000
;

//--------------- dance-double - forcednature ----------------
#NOTEDATA:;
#STEPSTYPE:dance-double;
#DESCRIPTION:forcednature;
#DIFFICULTY:Hard;
#METER:17;
#RADARVALUES:0,0,0,0,0;
#CREDIT:forcednature;
#NOTES:
00000000
00000000
00000000
00000000
,
00000000
00000000
00000000
00000000
,
00000000
00000000
00000000
00000000
,
00000000
00000000
00000000
00000000
,
00000000
00000000
00000000
00000000
,
00001000
00010000
00001000
00010000
00000000
00001000
00000000
00001000
00000000
00100000
00010000
00000000
00100000
00000000
00000000
00000000
,
01000000
10000000
01000000
00100000
00000000
00000000
01000000
10000000
01000000
00100000
00000000
00100000
00001000
00000000
00000000
00000000
,
00010000
00001000
00010000
00001000
00000000
00010000
00000000
00010000
00000000
00000010
00001000
00000000
00000010
00000000
00000000
00000000
,
00000100
00000001
00000100
00000010
00000000
00000000
00000100
00000001
00000100
00000010
00000000
00000010
00020000
00000000
00000000
00000000
,
00031000
00000000
00010000
00001000
00010000
00000000
00000100
00000000
00001000
00000100
00000010
00000100
00001000
00000000
00000000
00000000
,
00000001
00000100
00000001
00000100
00000001
00001000
00000100
00001000
00000001
00000000
00000100
00000000
00002000
00000000
00000000
00000000
,
00013000
00000000
00001000
00010000
00001000
00000000
01000000
00000000
00010000
01000000
00100000
01000000
00010000
00000000
00000000
00000000
,
10000000
00010000
10000000
01000000
00000000
01000000
00000000
10000000
00010000
00000000
01000000
00000000
00200000
00000000
00000000
00000000
,
00310000
00000000
00001000
00010000
00001000
00000000
01000000
00000000
00010000
00100000
01000000
00100000
00010000
00000000
00000000
00000000
,
01000000
00010000
01000000
00010000
01000000
00001000
00010000
00001000
00010000
00000100
00010000
00000000
00002000
00000000
00000000
00000000
,
00003010
00000100
00000010
00000001
00000010
00000000
00000100
00000000
00001000
00000100
00010000
00001000
00010000
00000000
00002000
00000000
,
00000000
00000000
00103000
00010000
02000000
00000000
00000000
00000000
03100000
10000000
00000000
10000000
00010000
10000000
00010000
00000000
,
00100000
00000000
01000000
10000000
00000000
10000000
01000000
00000000
01000000
00010000
00000000
00001000
00010000
00000000
00011000
00000000
,
00001000
00000000
00001000
00000100
00000000
00000100
00000001
00000000
00000001
00000010
00000000
00000001
00000100
00000000
00000110
00000000
,
00000010
00000000
00001000
00000010
00000000
00000010
00000100
00000000
00000100
00001000
00000000
00010000
00001000
00010000
00001000
00000000
,
00100000
00010000
00100000
00010000
10000000
01000000
00100000
00010000
01000000
00010000
01000000
00001000
00020000
00000000
00000000
00000000
,
00031000
00010000
00000100
00010000
00000000
00010000
00001000
00000000
00001000
00000010
00000000
00000010
00001000
00000000
00011000
00000000
,
00010000
00001000
01000000
00001000
00000000
00001000
00010000
00000000
00010000
00100000
00000000
00100000
01000000
00010000
01000000
00000000
,
00001000
00010000
00000010
00010000
00000000
00010000
00001000
00000000
00001000
00000100
00000000
00000100
00000001
00000100
00000010
00000000
,
00001000
00000010
00001000
00000010
00010000
00001000
00010000
00000100
00010000
00001000
00100000
00010000
02000000
00000000
00000000
00000000
,
03100000
00000000
10000000
00100000
10000000
00000000
01000000
10000000
01000000
00000000
10000000
00100000
10000000
00000000
01000000
00000000
,
00010000
00000000
00001000
00100000
00001000
00000000
00010000
00000100
00010000
00000000
00001000
00010000
00000010
00000000
00001000
00000010
,
00000000
00000000
00000100
00000001
00000100
00000000
00000001
00000010
00000001
00000000
00000100
00000001
00000100
00000000
00001000
00000000
,
00010000
00001000
00010000
00001000
00100000
00010000
00100000
00010000
01000000
00100000
10000000
01000000
00100000
00010000
01000000
00000000
,
00100000
00000000
10000000
00100000
10000000
00000000
01000000
10000000
01000000
00000000
10000000
00100000
10000000
00000000
00100000
00000000
,
00010000
00000000
00001000
00010000
00000100
00000000
00010000
00001000
01000000
00000000
00001000
00010000
00000010
00000000
00000100
00000010
,
00000000
00000000
00000100
00000001
00000100
00000000
00000001
00000010
00000001
00000000
00000100
00000001
00000100
00000000
00001000
00000000
,
00010000
00001000
00010000
00001000
00000000
00001000
00010000
00000000
00100000
00000000
01000000
00000000
01100000
00000000
00000000
00000000
,
10100000
10100000
00000000
00000000
01010000
01010000
00000000
00000000
,
00001010
00001010
00000000
00000000
00000101
00000101
00000000
00000000
,
00000011
00000011
00000000
00000000
00001100
00001100
00000000
00000000
,
00110000
00110000
00000000
00000000
11000000
11000000
00000000
00000000
,
10010000
00000000
10000000
00000000
00100000
00000000
01000000
00100000
00000000
00000000
00010000
00100000
00000000
00010000
00001000
00010000
,
00001000
00000000
00001000
00000000
00000100
00000000
00000010
00000100
00000000
00000001
00000010
00000100
00001000
00000100
00000010
00000000
,
00000001
00000100
00000001
00001000
00000100
00001000
00000100
00000000
00010000
00000000
00000000
00001000
00000000
00000000
00000010
00000000
,
00000001
00000100
00000001
00001000
00000100
00001000
00000010
00010000
00001000
00010000
00000010
00001000
00000010
00000000
00000000
00000000
,
00001001
00000000
00000001
00000000
00000010
00000000
00000100
00000010
00000000
00000000
00001000
00000010
00000000
00001000
00010000
00001000
,
00010000
00000000
00010000
00000000
01000000
00000000
00100000
01000000
00000000
10000000
00100000
01000000
00010000
01000000
00100000
00000000
,
10000000
01000000
10000000
00010000
01000000
00010000
01000000
00000000
00001000
00000000
00000000
00010000
00000000
00000000
00100000
00000000
,
10000000
01000000
10000000
00010000
01000000
00010000
00100000
00001000
00010000
00001000
00100000
00010000
10000000
00000000
00000000
00000000
,
01000000
00000000
01000000
00010000
00000000
00010000
00001000
00000000
00001000
00010000
00000000
00010000
00001000
00000000
00000010
00000000
,
00000220
00000000
00000000
00000000
00000000
00000000
00000330
00000000
00002001
00000000
00000001
00000000
00003001
00000000
00001000
00000010
,
00000000
00000001
00000010
00000000
00001000
00000010
00000100
00000001
00002000
00000000
00003200
00000000
00020300
00000000
00032000
00000000
,
00103000
00010000
00100000
01000000
10000000
00000000
00000000
00000000
10010000
00000000
00010000
01000000
00010000
10000000
01000000
10000000
,
00010000
00100000
00001000
00010000
00000010
00010000
00001000
00000000
00000010
00000000
00000100
00001000
00000100
00010000
00001000
00010000
,
00100000
01000000
00010000
00100000
01000000
10000000
00100000
00000000
01000000
00000000
00010000
10000000
01000000
10000000
00010000
00100000
,
00000000
01000000
00100000
00010000
01000000
00001000
00010000
00001000
00200000
00000000
00320000
00000000
00032000
00000000
00003200
00000000
,
00000300
00001000
00000010
00001000
00000001
00000010
00000001
00000000
00000100
00001000
00000100
00001000
00010000
00001000
00010000
00001000
,
00010000
00100000
00010000
00100000
01000000
00100000
10000000
00000000
01000000
00010000
00000000
00001000
00010000
00000000
01000000
00010000
,
00000000
00001000
00100000
00001000
01000000
00010000
01000000
00000000
00020000
00000000
10000000
00000000
10030000
00000000
00010000
00100000
,
00000000
10000000
00100000
00000000
00010000
00100000
01000000
10000000
00020000
00000000
02030000
00000000
03002000
00000000
00023000
00000000
,
00030010
00001000
00000010
00000100
00000001
00000000
00000000
00000000
00001001
00000000
00001000
00000100
00001000
00000001
00000100
00000001
,
00001000
00000010
00010000
00001000
00100000
00001000
00010000
00000000
00100000
00000000
01000000
00010000
01000000
00001000
00010000
00001000
,
00000010
00000100
00001000
00000010
00000100
00000001
00000010
00000000
00000100
00000000
00001000
00000001
00000100
00000001
00001000
00000010
,
00000000
00000100
00000010
00001000
00000100
00010000
00001000
00010000
00000020
00000000
00002030
00000000
00023000
00000000
02030000
00000000
,
03000000
00010000
00100000
00010000
10000000
00100000
10000000
00000000
01000000
00010000
01000000
00010000
00001000
00010000
00001000
00010000
,
00001000
00000010
00001000
00000010
00000100
00000010
00000001
00000000
00000100
00001000
00000000
00010000
00001000
00000000
00000100
00001000
,
00000000
00010000
00000010
00010000
00000100
00001000
00000100
00000000
00000010
00000000
00000000
00000001
00000010
00000000
00000100
00000010
,
00000100
00001000
00001100
00000000
00000002
00000203
00002300
00023000
,
00130000
00000000
01000000
00100000
10000000
00000000
00000000
00000000
00010000
10000000
00000000
10000000
00000000
00100000
10000000
00000000
,
01000000
00000000
00100000
01000000
00100000
00000000
00010000
00000000
01000000
00001000
01000000
00001000
00010000
00001000
00100000
00010000
,
20000000
00000000
30200000
00000000
00320000
00000000
00032000
00000000
00003100
00000000
00000000
00000100
00000010
00000000
00000100
00000001
,
00000100
00000001
00000101
00000000
00000002
00000023
00002030
00023000
,
01030000
00000000
00100000
01000000
10000000
00000000
00000000
00000000
00010000
10000000
00000000
10000000
00000000
00010000
01000000
00000000
,
00001000
00000000
00010000
00001000
00010000
00000000
00100000
00000000
01000000
00010000
01000000
00010000
10000000
00100000
01000000
00100000
,
20000000
32000000
03020000
00032000
00003020
00000000
00000000
00000130
,
00010000
00001000
00000000
00101000
00000000
00001000
00010000
00000000
00010010
00000000
00000000
00000000
00011000
00000000
00000000
00000000
,
00001000
00010000
00000010
00001000
00000000
00000100
00001000
00000100
00000000
00000010
00000001
00000000
00001001
00000000
00000000
00000000
,
00000001
00000100
00000010
00001000
00000000
00000000
00010000
01000000
00100000
10000000
00000000
10000000
00010000
00000000
00000000
00000000
,
00100000
00010000
01000000
00010000
00000000
00100000
00001000
00100000
00000000
00001000
01000000
00000000
00010000
00000000
00000000
00000000
,
10000000
01000000
00100000
00010000
00000000
00000000
00001000
00000100
00000010
00000001
00000000
00000001
00000200
00000000
00000000
00000000
,
00000000
00000000
00000000
00000000
,
00000300
00000000
00000000
00000000
;
