#VERSION:0.83;
#TITLE:水無月の雫 ft. 小林まな;
#SUBTITLE:;
#ARTIST:Xceon;
#TITLETRANSLIT:Minazuki no shizuku ft. Kobayashi Mana;
#SUBTITLETRANSLIT:;
#ARTISTTRANSLIT:;
#GENRE:-和- EURO TRANCE;
#CREDIT:;
#MUSIC:Minazuki no shizuku ft. Kobayashi Mana.ogg;
#BANNER:Minazuki no shizuku ft. Kobayashi Mana.png;
#BACKGROUND:Minazuki no shizuku ft. Kobayashi Mana-bg.png;
#CDTITLE:./CDTitles/bm IIDX 28 BISTROVER.png;
#SAMPLESTART:49.820;
#SAMPLELENGTH:15.000;
#SELECTABLE:YES;
#OFFSET:-0.000;
#BPMS:0.000=167.000
,252.000=83.500
,254.000=167.000
;
#STOPS:;
#TIMESIGNATURES:0.000=4=4,
252.000=2=4,
254.000=4=4
;
#DISPLAYBPM:167.000;
#BGCHANGES:0.000=Minazuki no shizuku ft. Kobayashi Mana.mp4=1.000=0=0=0=StretchNoLoop====,
99999.000=-nosongbg-=1.000=0=0=0=StretchNoLoop====
;
#FGCHANGES:;

//--------------- dance-single - forcednature ----------------
#NOTEDATA:;
#STEPSTYPE:dance-single;
#DESCRIPTION:forcednature;
#DIFFICULTY:Beginner;
#METER:2;
#RADARVALUES:0,0,0,0,0;
#CREDIT:forcednature;
#NOTES:
0000
0000
0000
0000
,
0000
0000
0000
0000
,
0000
0000
0000
0000
,
0000
0000
0000
0000
,
0000
0000
0000
0000
,
0001
0000
0000
0000
,
1000
0000
0000
0000
,
0010
0000
0000
0000
,
0100
0000
0000
0000
,
0001
0000
0000
0000
,
0000
0000
0000
0000
,
0010
0000
0000
0000
,
0000
0000
0000
0000
,
0100
0000
0000
0000
,
0000
0000
0000
0000
,
1000
0000
0000
0000
,
0010
0000
0000
0000
,
0100
0000
0000
0000
,
0000
0000
0000
0000
,
0001
0000
0000
0000
,
0000
0000
0000
0000
,
1000
0000
0000
0000
,
0000
0000
0000
0000
,
0100
0000
0000
0000
,
0000
0000
0000
0000
,
0010
0000
0000
0000
,
0000
0000
0010
0000
,
0001
0000
0000
0000
,
0000
0000
0001
0000
,
0100
0000
0000
0000
,
0000
0000
0100
0000
,
0010
0000
0000
0000
,
1000
0000
0000
0000
,
0001
0000
0000
0000
,
0010
0000
0000
0000
,
1001
0000
0000
0000
,
0000
0000
1000
0000
,
0010
0000
0000
0000
,
0000
0000
0100
0000
,
0001
0000
0000
0000
,
0000
0000
1000
0000
,
0100
0000
0000
0000
,
0010
0000
0010
0000
,
0001
0000
0000
0000
,
0100
0000
0001
0000
,
0100
0000
0000
0000
,
0010
0000
1000
0000
,
0010
0000
0000
0000
,
1000
0000
0001
0000
,
0010
0000
0000
0000
,
0100
0000
0000
0000
,
1001
0000
0000
0000
,
0000
0000
0000
0000
,
0001
0000
0000
0000
,
0100
0000
0000
0000
,
0010
0000
0000
0000
,
1000
0000
0000
0000
,
0100
0000
0000
0000
,
0010
0000
0000
0000
,
0001
0000
0000
0000
,
1000
0000
0000
0000
,
0010
0000
0000
0000
,
1001
0000
0000
0000
,
0000
0000
0000
1001
,
0000
0000
0000
0000
,
0001
0000
0010
0000
,
0000
0000
0000
0000
,
0100
0000
1000
0000
,
0000
0000
0000
0000
,
0010
0000
0100
0000
,
0000
0000
0001
0000
,
0000
0000
1001
0000
,
0000
0000
1000
0000
,
0100
0000
0010
0000
,
0000
0000
0001
0000
,
1000
0000
0010
0000
,
0000
0000
0100
0000
,
0001
0000
1000
0000
,
0000
0000
0001
0000
,
0001
0000
0010
0000
,
0000
0000
0200
0000
,
0000
0000
0000
0000
,
0000
0000
0000
0000
,
0000
0000
0300
0000
;

//--------------- dance-single - forcednature ----------------
#NOTEDATA:;
#STEPSTYPE:dance-single;
#DESCRIPTION:forcednature;
#DIFFICULTY:Easy;
#METER:6;
#RADARVALUES:0,0,0,0,0;
#CREDIT:forcednature;
#NOTES:
0000
0000
0000
0000
,
0000
0000
0000
0000
,
0000
0000
0000
0000
,
0000
0000
0000
0000
,
0000
0000
0000
0000
,
1001
0000
0000
0000
,
0110
0000
0000
0000
,
1001
0000
0110
0000
,
0001
1000
0100
1000
,
0010
0000
0100
0001
,
0010
0000
0001
1000
,
0100
0000
1000
0010
,
0100
0001
0100
0010
,
1000
0000
0001
0010
,
0100
0000
1000
0001
,
0100
0000
0010
1000
,
0100
1000
0001
0001
,
0100
0000
0010
0000
,
1000
0001
1000
0000
,
0100
0000
1000
0000
,
0010
0000
0000
0000
,
0100
0000
0001
0000
,
0010
0001
0010
0000
,
0001
0000
1000
0000
,
0200
0000
0310
0100
,
0000
0010
0001
0000
,
1000
0010
0100
0110
,
0000
0001
1000
0000
,
0100
1000
0010
0110
,
0000
1000
0001
0000
,
0100
0001
0010
0000
,
0110
0000
0100
1000
,
0001
0001
0100
0000
,
0010
1000
0010
0000
,
2002
0000
3003
0000
,
0110
0000
0001
1000
,
0100
1000
0010
0000
,
0110
0000
1000
0001
,
0100
0001
0010
0000
,
1001
0000
1000
0100
,
0010
0100
1000
0000
,
0001
0001
1000
1000
,
0001
0100
0020
0030
,
1000
0100
0001
0100
,
1000
0001
1001
0000
,
0001
0100
1000
0100
,
0001
1000
1001
0000
,
1000
0010
0001
0010
,
1000
0001
1001
0000
,
0110
0000
0001
1000
,
0100
0100
1000
0001
,
0010
0000
0001
0000
,
1000
0000
0010
0000
,
0200
0000
0000
0300
,
0002
0000
2003
0000
,
3000
0100
0100
0000
,
1000
0010
0100
0000
,
0110
0000
0001
1000
,
0100
0100
1000
0001
,
0010
0000
0100
0010
,
0001
0000
1000
0010
,
0100
0001
1000
0010
,
0220
0000
0000
0000
,
0330
0000
0000
1001
,
0000
0001
0100
0001
,
0010
0000
0110
0000
,
0001
1000
0100
1000
,
0010
0000
1001
0000
,
0001
0100
0010
0100
,
0001
0000
1000
1000
,
0001
0001
1000
0100
,
0020
0030
0001
0100
,
1000
0100
0001
1000
,
1001
0000
1000
0100
,
0001
0100
1000
0001
,
1001
0000
0001
0010
,
1000
0010
0001
1000
,
1001
0000
0110
0000
,
1000
0001
0100
0100
,
0001
1000
0020
0000
,
0030
0000
0200
0000
,
0000
0000
0000
0000
,
0000
0000
0000
0000
,
0000
0000
0300
0000
;

//--------------- dance-single - forcednature ----------------
#NOTEDATA:;
#STEPSTYPE:dance-single;
#DESCRIPTION:forcednature;
#DIFFICULTY:Medium;
#METER:10;
#RADARVALUES:0,0,0,0,0;
#CREDIT:forcednature;
#NOTES:
0000
0000
0000
0000
,
0000
0000
0000
0000
,
0000
0000
0000
0000
,
0000
0000
0000
0000
,
0000
0000
0000
0000
,
1001
0001
0000
0100
,
1001
1000
0000
0100
,
0110
0001
0101
1000
,
0100
0010
0100
0010
0001
1000
0200
0000
,
0310
0000
0010
0001
0100
0000
0100
0010
,
1000
0000
1000
0001
0010
0100
0010
0000
,
0001
0000
0001
1000
0010
0000
0010
0100
,
0001
0000
0001
1000
0100
0010
0100
0000
,
1000
0000
1000
0001
0100
0000
0100
0010
,
1000
0000
1000
0001
0010
0100
0010
0000
,
0001
0000
0001
1000
0010
0000
0010
0100
,
0001
1000
0001
1000
0200
0000
0300
0000
,
0010
1001
0110
0000
,
0001
0000
1000
0001
2000
0000
3000
0000
,
0010
0000
0100
0010
0100
0000
0001
0000
,
0020
0100
0100
0031
,
1000
1001
0110
0000
,
0001
0000
1000
0001
0200
0000
0300
0000
,
0010
0000
1000
0010
1000
0000
0001
0010
,
0001
0000
0100
0000
0010
1000
0001
0100
,
0000
0010
1000
0010
1000
0000
0100
0000
,
1000
0001
0010
0000
0110
0000
1001
0000
,
0000
0001
0100
0001
0100
0000
0010
0000
,
1000
0001
0010
0000
0110
0000
1001
0000
,
0000
0001
0100
0001
1000
0000
0100
0000
,
1000
0100
0010
0000
0110
0000
0100
1000
,
0002
0000
0103
0000
1000
0010
1000
0000
,
0200
1000
0010
1300
,
0100
0000
0000
0100
0000
0000
0010
0000
0002
0000
0000
0000
0103
0000
0010
0000
,
0200
0000
0000
0000
0310
1000
0001
0100
,
0010
0000
1000
0001
0010
0000
0100
0000
,
0010
0001
1000
0001
0100
0000
0010
1000
,
0010
0000
0100
0000
0001
1000
0100
0000
,
0010
0001
0010
0100
0010
0000
0001
1000
,
0010
0000
0100
0000
0001
1000
0100
0000
,
1000
0010
0100
0010
1000
0000
0001
0000
,
0011
1000
1010
0001
,
0100
0010
0100
0010
1000
0001
0200
0000
,
0310
0000
1000
0100
0010
0100
1000
0000
,
0001
0010
0100
0000
0110
0000
0001
1000
,
0010
0000
1000
0001
0100
0001
1000
0000
,
0010
0100
0001
0000
0011
0000
1000
0100
,
0010
0000
0100
1000
0001
0100
0001
0000
,
1000
0010
0100
0000
0110
0000
0001
0000
,
1100
1000
0101
0001
,
1000
0010
1000
0010
0100
0001
2000
0000
,
3000
0100
0010
0100
0010
0000
0001
0000
,
1000
0000
0010
1000
0010
0000
0100
0000
,
0002
0000
0003
0010
0200
0000
0300
1000
,
0001
0000
0000
0001
0000
0000
0100
0000
0020
0000
0000
0000
0000
0000
0000
0000
,
0030
1000
0001
0000
0001
1000
0000
1000
,
0010
0100
0110
1001
,
0001
0100
0001
0000
1000
0100
1000
0000
,
1001
0000
0001
0010
0200
0000
1000
0000
,
0310
0000
0000
0010
0000
0000
0001
0000
0100
0000
0000
0000
0010
0000
0000
0000
,
2000
0100
3001
0010
,
0110
0000
0001
1000
0002
0000
0000
0003
,
0100
0000
0010
0000
1000
0000
0100
0000
0010
0000
0001
0000
,
0200
0020
0330
1001
,
0001
0000
0100
0000
0010
1000
0001
1000
,
0100
0000
0010
0001
0010
0000
0100
0000
,
1000
0001
0100
0000
0010
1000
0010
0100
,
0010
0000
1000
0001
0010
0000
0100
0000
,
1000
0001
0100
0000
0001
0010
0100
0010
,
0001
1000
1010
0001
,
0011
0000
1000
0000
0100
0010
0100
0010
,
0001
1000
0200
0000
0310
0000
0001
0100
,
0010
0100
0001
0000
1000
0010
0100
0000
,
0110
0000
1000
0001
0010
0000
0001
1000
,
0100
1000
0001
0000
0010
0100
1000
0000
,
1010
0000
0001
0100
0010
0000
0100
0001
,
1000
0100
1000
0000
0001
0010
0100
0000
,
0110
1000
0101
0001
,
1100
0000
1000
0000
0001
0010
0001
0010
,
0100
1000
0001
0000
0200
0000
0000
0300
,
0010
1000
0002
0000
,
0000
0000
0000
0000
,
0000
0000
0000
0000
,
0000
0000
0003
0000
;

//--------------- dance-single - forcednature ----------------
#NOTEDATA:;
#STEPSTYPE:dance-single;
#DESCRIPTION:forcednature;
#DIFFICULTY:Hard;
#METER:14;
#RADARVALUES:0,0,0,0,0;
#CREDIT:forcednature;
#NOTES:
0000
0000
0000
0000
,
0000
0000
0000
0000
,
0000
0000
0000
0000
,
0000
0000
0000
0000
,
0000
0000
0000
0000
,
1100
0000
0001
0010
0100
1000
0001
0000
,
0101
0000
1000
0010
0100
0001
1000
0000
,
1100
0000
0001
0100
0101
0000
1000
0001
,
0100
0000
0010
0000
0100
0000
0010
0000
1000
0001
1000
0001
2000
0000
0000
0000
,
3001
0000
0000
0010
0000
0000
0100
0000
1000
0000
0000
0001
0000
0000
0100
0000
,
0010
0000
0000
1000
0000
0000
0001
0000
0010
0000
0000
0100
0000
1000
0100
0000
,
0010
0000
0000
0001
0000
0000
1000
0000
0010
0000
0000
0100
0000
0000
0001
0000
,
1000
0000
0000
0100
0000
0000
0001
0000
0100
0000
1000
0000
0001
1000
0001
0000
,
0010
0000
0000
0001
0000
0000
0100
0000
0010
0000
0000
1000
0000
0000
0001
0000
,
0010
0000
0000
0100
0000
0000
1000
0000
0010
0000
0000
0100
0000
0001
0100
0000
,
0010
0000
0000
1000
0000
0000
0100
0000
0001
0000
0000
0100
0000
0000
1000
0000
,
0010
0000
0100
0000
0010
0000
0100
0000
0001
1000
0001
1000
0002
0000
0000
0000
,
0103
0010
1000
0000
0100
0010
0001
0000
,
1000
0000
0000
0010
0100
0000
0001
0000
0020
0000
0000
0000
0030
0000
0000
0000
,
0010
0001
0100
0000
0010
1000
0001
0000
,
0010
0100
0010
0100
1000
0001
0010
0000
,
0001
0100
1000
0000
0100
0001
1000
0000
,
0010
0000
0000
0100
0001
0000
1000
0000
0200
0000
0000
0000
0300
0000
0000
0000
,
0100
1000
0001
0000
0100
0001
1000
0000
,
0010
0000
0100
0000
0010
0000
0100
0000
0001
1000
0001
0000
1000
0100
1000
0000
,
0000
0001
0010
0001
0010
0100
1000
0001
,
0100
0010
1000
0001
1001
0000
0110
0000
,
0000
1000
0010
1000
0010
0100
0001
0100
,
0010
1000
0001
0010
0110
0000
1001
0000
,
0000
0001
0100
0001
1000
0100
1000
0010
,
0100
0001
2000
0000
3200
0000
0310
0001
,
0020
0000
0100
0000
0031
1000
0001
0100
,
0010
0000
1000
0000
0010
0000
1000
0000
0001
0000
0010
0000
0001
0000
0010
0100
,
0010
0000
0000
0110
0000
0000
1000
0000
0002
0000
0000
0000
0103
0000
0010
0000
,
0220
0000
0000
0000
0330
0000
0000
0000
1000
0001
1000
0001
1000
0000
0100
0000
,
0020
0000
0000
0000
0031
0000
0100
0010
0100
0000
0010
0000
1000
0000
0100
0000
,
0010
1000
0010
0001
0010
0000
0100
1000
,
0002
0000
0000
0000
0103
0000
0010
0100
0010
0000
1000
0000
0001
0000
0010
0000
,
0100
0001
0100
1000
0100
0000
0010
0001
,
2000
0000
0000
0000
3010
0000
0100
0001
0100
0000
0001
0000
0010
0000
0100
0000
,
1000
0010
0001
0010
1000
0000
0001
0100
,
0110
0000
1000
0100
0110
0000
0001
1000
,
0100
0000
0100
0000
1000
0000
0001
0000
0010
0001
0010
0001
0020
0000
0000
0000
,
0130
0000
1000
0001
0000
0001
1000
0000
0010
0000
0100
0001
0000
0001
0100
0000
,
0010
1000
0100
0001
0100
0000
0010
0001
,
0100
0000
0010
1000
0000
1000
0001
0000
0010
0000
0100
1000
0000
1000
0001
0000
,
0100
0010
0001
0010
1000
0000
0001
0100
,
0010
0000
1000
0100
0000
0100
0010
0000
0100
0000
1000
0001
0000
0001
0010
0000
,
0100
0001
0100
1000
0100
0000
0010
0001
,
0101
0000
0010
1000
1100
0000
0001
1000
,
0010
0000
0010
0000
0100
0000
0001
0000
1000
0100
1000
0100
2000
0000
0000
0000
,
3001
0100
0010
1000
0100
0010
0002
0000
,
1003
0010
0001
0010
0100
0001
1000
0100
,
0020
0000
0000
0000
0030
0000
0001
0100
0002
0000
0000
0000
0003
0000
1000
0010
,
2000
0000
0000
3200
0000
0000
0320
0000
0031
0000
0000
0000
0011
0000
0000
0000
,
1000
0100
0001
0100
1000
0010
0001
0010
,
1000
0000
0001
0000
0100
0001
0100
0000
0020
0000
0000
2030
0000
0000
3002
0000
,
0013
0000
0100
0000
1000
0100
1000
0000
0010
0000
1000
0000
0010
0100
0010
0000
,
0100
0000
0001
0000
0010
0100
1000
0000
0001
0000
0100
0000
0010
1000
0001
0000
,
0010
0000
0000
0011
0000
0000
0001
0000
1100
0000
0000
1000
0001
0000
0000
0000
,
0100
0001
0100
0001
0100
0000
0010
0000
1000
0000
0001
1000
0001
0000
0000
0000
,
0010
0001
0000
0010
0001
0000
0100
0000
0010
1000
0010
1000
0002
0000
0000
0000
,
0103
0000
0010
0000
1000
0000
1100
0000
0110
0000
0011
0000
,
0200
0000
0020
0000
0330
0000
1001
1000
,
0010
0100
0001
0010
0100
0001
0100
1000
,
0100
0000
0000
0000
0010
0000
0001
0000
0200
0000
0000
0000
0310
0000
1000
0010
,
1000
0001
0100
0010
1000
0100
0001
0100
,
1000
0000
0000
0000
0001
0000
0010
0000
0210
0000
0000
0000
1300
0000
0001
1000
,
0001
0010
0100
1000
0010
0001
0010
1000
,
0010
0000
0100
0001
0011
0000
0100
1000
,
1010
0000
0001
1000
0100
0100
1000
0001
,
0010
0001
0010
0001
0020
0000
0000
0000
0130
0000
1000
0001
0000
0001
0100
0000
,
0010
0000
1000
0001
0000
0001
0010
0000
0100
0000
1000
0000
0010
0000
0001
0000
,
0010
0000
0000
0000
1000
0000
0001
0000
0100
0000
0010
1000
0000
1000
0001
0000
,
0010
0000
0100
1000
0000
1000
0001
0000
0010
0000
1000
0000
0010
0000
0001
0000
,
0100
0000
0000
0000
0010
0000
1000
0000
1001
0000
0001
0010
0000
0010
0001
0000
,
1000
0000
0001
0100
0000
0100
0001
0000
0010
0000
1000
0000
0010
0000
0001
0000
,
0100
0000
0010
1000
1100
0000
0010
0001
,
0101
0000
1000
0001
0100
0100
0010
1000
,
0001
0100
0001
0100
0001
0000
0010
0000
0200
0000
0000
0000
1300
0000
0001
0000
,
0100
0000
0010
0000
1000
0000
0000
0001
0020
0000
0000
0000
0000
0000
0000
0000
,
0000
0000
0000
0000
,
0000
0000
0000
0000
,
0000
0000
0030
0000
;

//--------------- dance-double - forcednature ----------------
#NOTEDATA:;
#STEPSTYPE:dance-double;
#DESCRIPTION:forcednature;
#DIFFICULTY:Easy;
#METER:6;
#RADARVALUES:0,0,0,0,0;
#CREDIT:forcednature;
#NOTES:
00000000
00000000
00000000
00000000
,
00000000
00000000
00000000
00000000
,
00000000
00000000
00000000
00000000
,
00000000
00000000
00000000
00000000
,
00000000
00000000
00000000
00000000
,
00011000
00000000
00000000
00000000
,
00011000
00000000
00000000
00000000
,
00011000
00000000
00000100
00000000
,
00001000
00000001
00000010
00000001
,
00000010
00000000
00000100
00001000
,
00000100
00000000
00010000
00001000
,
00010000
00000000
00001000
00100000
,
00010000
00100000
01000000
00000000
,
10000000
00000000
00010000
01000000
,
00010000
00000000
10000000
00010000
,
10000000
00000000
01000000
00100000
,
00010000
00100000
00001000
00000000
,
00010000
00000000
00001000
00000000
,
00010000
00000100
00010000
00000000
,
00000100
00000000
00001000
00000000
,
00000010
00000000
00000000
00000000
,
00000100
00000000
00000001
00000000
,
00000010
00000001
00000010
00000000
,
00000100
00000000
00001000
00000000
,
00000020
00000000
00000130
00000010
,
00000000
00000010
00000100
00000000
,
00001000
00010000
00001000
00011000
,
00000000
00010000
00001000
00000000
,
01000000
00010000
01000000
01100000
,
00000000
10000000
00010000
00000000
,
00100000
00001000
00010000
00000000
,
00011000
00000000
00001000
00010000
,
00000100
00000100
00001000
00000000
,
00000010
00001000
00000010
00000000
,
00002002
00000000
00003003
00000000
,
00000110
00000000
00000001
00001000
,
00000100
00001000
00000100
00000000
,
00011000
00000000
00100000
00010000
,
01000000
00010000
01000000
00000000
,
10010000
00000000
10000000
01000000
,
00100000
01000000
00100000
00000000
,
00010000
00010000
10000000
10000000
,
00010000
00000000
02000000
03000000
,
00001000
00010000
00000100
00010000
,
00001000
00000000
00011000
00000000
,
00000010
00001000
00000010
00000100
,
00000001
00000000
00001001
00000000
,
00001000
00000100
00010000
00001000
,
00010000
00000000
00011000
00000000
,
00100000
00010000
01000000
00100000
,
10000000
10000000
01000000
00000000
,
10000000
00000000
00010000
00000000
,
00100000
00000000
00001000
00000000
,
00020000
00000000
00000000
00030000
,
00002000
00000000
00023000
00000000
,
00030000
00000100
00000100
00000000
,
00001000
00000100
00000010
00000000
,
00000110
00000000
00000001
00001000
,
00000010
00000010
00001000
00000001
,
00000100
00000000
00000010
00001000
,
00000100
00000000
00010000
00001000
,
00100000
00001000
00010000
00000000
,
00022000
00000000
00000000
00000000
,
00033000
00000000
00000000
00011000
,
00000000
01000000
00010000
01000000
,
00100000
00000000
01100000
00000000
,
10000000
00100000
10000000
00010000
,
00100000
00000000
00011000
00000000
,
00001000
00010000
00000100
00001000
,
00000100
00000000
00000010
00000010
,
00000001
00000001
00001000
00000100
,
00000020
00000030
00000001
00000100
,
00000001
00000100
00000010
00001000
,
00001001
00000000
00001000
00000100
,
00010000
00001000
00100000
00001000
,
00011000
00000000
00010000
00001000
,
01000000
00010000
01000000
00100000
,
01100000
00000000
10010000
00000000
,
00010000
00100000
00001000
00001000
,
00010000
00000100
00002000
00000000
,
00003000
00000000
00000002
00000000
,
00000000
00000000
00000000
00000000
,
00000000
00000000
00000000
00000000
,
00000000
00000000
00000003
00000000
;

//--------------- dance-double - forcednature ----------------
#NOTEDATA:;
#STEPSTYPE:dance-double;
#DESCRIPTION:forcednature;
#DIFFICULTY:Medium;
#METER:10;
#RADARVALUES:0,0,0,0,0;
#CREDIT:forcednature;
#NOTES:
00000000
00000000
00000000
00000000
,
00000000
00000000
00000000
00000000
,
00000000
00000000
00000000
00000000
,
00000000
00000000
00000000
00000000
,
00000000
00000000
00000000
00000000
,
00011000
00000000
00000100
00010000
,
00011000
00000000
01000000
00001000
,
00011000
00010000
00011000
00001000
,
00100000
00010000
00100000
00010000
10000000
00000000
02000000
00000000
,
03100000
00000000
00100000
00010000
01000000
00000000
00001000
00000000
,
00010000
00000000
00010000
00000100
00001000
00000000
00000010
00000000
,
00000100
00000000
00000100
00000001
00001000
00000000
00000100
00000000
,
00010000
00000000
00010000
00001000
00100000
00010000
00100000
00000000
,
01000000
00000000
01000000
10000000
00010000
00000000
01000000
00000000
,
00001000
00000000
00001000
00010000
00000010
00000000
00001000
00000000
,
00000100
00000000
00000100
00000010
00000001
00000000
00000100
00000000
,
00000010
00001000
00000010
00001000
00000200
00000000
00000300
00000000
,
00010000
00011000
00101000
00000000
,
00001000
00000000
00010000
00001000
00020000
00000000
00030000
00000000
,
00000100
00000000
00001000
00000100
00001000
00000000
00000001
00000000
,
00000020
00000100
00000100
00000030
,
00000100
00010100
00011000
00000000
,
00100000
00000000
00010000
00100000
00020000
00000000
00030000
00000000
,
01000000
00000000
00010000
01000000
00010000
00000000
10000000
00000000
,
00100000
00000000
01000000
00000000
00010000
00100000
00001000
00010000
,
00000000
00000100
00001000
00000000
00001100
00000000
00000001
00000000
,
00000010
00000100
00000010
00000000
00000110
00000000
00001001
00000000
,
00000000
00001000
00000010
00000000
00001010
00000000
00010000
00000000
,
00001000
00010000
00001000
00000000
00011000
00000000
00101000
00000000
,
00000000
00100000
00010000
00000000
00110000
00000000
10000000
00000000
,
00100000
01000000
00010000
00000000
01010000
00000000
00001000
00000000
,
00020000
00000000
00031000
00000000
00010000
00000100
00001000
00000000
,
00000200
00000010
00000010
00000300
,
00001000
00000000
00000000
00001000
00000000
00000000
00000001
00000000
00002000
00000000
00000000
00000000
00003010
00000000
00000000
00000000
,
00022000
00000000
00000000
00000000
00033000
00000000
00010000
00001000
,
00010000
00000000
00001000
00100000
00010000
00000000
01000000
00000000
,
00100000
10000000
00100000
10000000
00010000
00000000
01000000
00010000
,
01000000
00000000
00001000
00000000
00010000
00001000
00010000
00000000
,
00000100
00001000
00000100
00001000
00000001
00000000
00000010
00000100
,
00000010
00000000
00000100
00000000
00010000
00001000
00010000
00000000
,
00001000
01000000
00001000
01000000
00010000
00000000
10000000
00000000
,
10100000
00010000
00110000
00001000
,
00010000
00001000
00010000
00000100
00001000
00000000
00000020
00000000
,
00000130
00000000
00000001
00000100
00000001
00000000
00001000
00000000
,
00000010
00001000
00000010
00000000
00001010
00000000
00010000
00001000
,
00010000
00000000
00001000
00100000
00010000
00000000
00100000
00000000
,
01000000
10000000
01000000
00000000
11000000
00000000
00010000
00100000
,
00010000
00000000
00100000
00000000
00001000
00010000
00000100
00000000
,
00010000
00001000
00010000
00000000
00011000
00000000
00000010
00000000
,
00001010
00000001
00000101
00001000
,
00000100
00001000
00000100
00010000
00002000
00000000
00023000
00000000
,
00030000
00001000
00100000
00001000
00100000
00000000
00010000
00000000
,
01000000
00000000
00100000
10000000
00100000
00000000
10000000
00000000
,
02000000
03010000
00002000
00003010
,
00000001
00000000
00000000
00000001
00000000
00000000
00000010
00000000
00000002
00000000
00000000
00000000
00000000
00000000
00000000
00000000
,
00000003
00001000
00000001
00000000
00000001
00001000
00000000
00001000
,
00000100
00000000
00010000
00000000
00011000
00000000
00001000
00010000
,
00001000
00000000
00100000
00000000
00010000
00000000
01000000
00100000
,
20000000
31000000
00200000
00010000
,
00301000
00000000
00000000
00001000
00000000
00000000
00010000
00000000
00001000
00000000
00000000
00000000
00010000
00000000
00000000
00000000
,
00000200
00001000
00000310
00000001
,
00000101
00000000
00001000
00000001
00002000
00000000
00000000
00003000
,
00000100
00000000
00001000
00000000
00000100
00000000
00010000
00000000
00001000
00000000
00100000
00000000
,
00002000
00020000
00033000
00011000
,
00010000
00000000
00000100
00000000
00000010
00000001
00000010
00000001
,
00001000
00000000
00000100
00001000
00000100
00000000
00010000
00000000
,
00001000
00010000
00001000
00000000
01000000
00010000
01000000
00010000
,
10000000
00000000
00100000
01000000
00100000
00000000
01000000
00000000
,
00001000
00010000
00001000
00000000
00010000
00000100
00010000
00000100
,
00001000
00000001
00000011
00001000
,
00001010
00000000
00010000
00000000
00001000
00010000
00001000
01000000
,
00010000
00000000
00200000
00000000
01300000
00000000
10000000
01000000
,
10000000
00000000
00010000
00000000
00100000
00010000
00100000
00000000
,
00110000
00000000
00001000
00010000
00001000
00000000
00010000
00000010
,
00001000
00000000
00000010
00000000
00000100
00000001
00000100
00000000
,
00000101
00000000
00001000
00000010
00001000
00000000
00000010
00000000
,
00010000
00001000
01000000
00000000
00001000
00010000
00001000
00000000
,
00011000
00100000
00110000
10000000
,
11000000
00000000
00010000
00000000
01000000
00010000
01000000
00001000
,
00020000
00000000
00032000
00000000
00023000
00000000
00000000
00030000
,
00000100
00001000
00000020
00000000
,
00000000
00000000
00000000
00000000
,
00000000
00000000
00000000
00000000
,
00000000
00000000
00000030
00000000
;

//--------------- dance-double - forcednature ----------------
#NOTEDATA:;
#STEPSTYPE:dance-double;
#DESCRIPTION:forcednature;
#DIFFICULTY:Hard;
#METER:15;
#RADARVALUES:0,0,0,0,0;
#CREDIT:forcednature;
#NOTES:
00000000
00000000
00000000
00000000
,
00000000
00000000
00000000
00000000
,
00000000
00000000
00000000
00000000
,
00000000
00000000
00000000
00000000
,
00000000
00000000
00000000
00000000
,
00011000
00000000
00100000
00010000
01000000
00000000
00001000
00000000
,
00011000
00000000
00000010
00001000
00000100
00000000
00010000
00000000
,
00011000
00000000
01000000
00010000
01010000
00000000
00001000
00010000
,
00000100
00000000
00001000
00000000
00000100
00000000
00000010
00000000
00000001
00001000
00000001
00001000
00000002
00000000
00000000
00000000
,
00000103
00000000
00000000
00001000
00000000
00000000
00010000
00000000
00100000
00000000
00000000
00010000
00000000
00000000
00001000
00000000
,
00010000
00000000
00000000
00100000
00000000
00000000
10000000
00000000
01000000
00000000
00000000
10000000
00000000
00010000
00100000
00000000
,
01000000
00000000
00000000
00100000
00000000
00000000
00001000
00000000
00010000
00000000
00000000
00000100
00000000
00000000
00000010
00000000
,
00000100
00000000
00000000
00010000
00000000
00000000
00001000
00000000
00010000
00000000
00000010
00000000
00001000
00000010
00001000
00000000
,
00000010
00000000
00000000
00000100
00000000
00000000
00000001
00000000
00000010
00000000
00000000
00000100
00000000
00000000
00010000
00000000
,
00001000
00000000
00000000
00100000
00000000
00000000
01000000
00000000
00100000
00000000
00000000
00010000
00000000
01000000
00010000
00000000
,
10000000
00000000
00000000
00100000
00000000
00000000
00010000
00000000
00001000
00000000
00000000
00010000
00000000
00000000
00100000
00000000
,
10000000
00000000
01000000
00000000
00100000
00000000
01000000
00000000
10000000
00010000
10000000
00010000
20000000
00000000
00000000
00000000
,
31000000
00100000
00001000
00000000
00010000
00000100
00000010
00000000
,
00000100
00000000
00000000
00001000
00000001
00000000
00000100
00000000
00000020
00000000
00000000
00000000
00000030
00000000
00000000
00000000
,
00001000
00000100
00010000
00000000
00001000
00100000
00010000
00000000
,
01000000
00100000
01000000
00100000
10000000
01000000
00010000
00000000
,
00001000
00000010
00000100
00000000
00001000
00000001
00000100
00000000
,
00001000
00000000
00000000
00010000
00001000
00000000
00100000
00000000
00020000
00000000
00000000
00000000
00030000
00000000
00000000
00000000
,
01000000
00100000
10000000
00000000
01000000
00100000
00010000
00000000
,
01000000
00000000
00001000
00000000
00010000
00000000
00001000
00000000
00010000
00001000
00010000
00000000
00001000
00010000
00001000
00000000
,
00000000
00010000
00000100
00001000
00000100
00000010
00000100
00001000
,
00000001
00000010
00001000
00010000
00011000
00000000
00101000
00000000
,
00000000
00001000
01000000
00010000
01000000
00100000
01000000
00010000
,
10000000
00100000
00010000
00001000
00011000
00000000
00010010
00000000
,
00000000
00000010
00001000
00000001
00000010
00000001
00001000
00000100
,
00010000
00001000
02000000
00000000
03020000
00000000
00130000
01000000
,
00200000
00000000
00010000
00000000
01300000
10000000
00010000
01000000
,
00100000
00000000
10000000
00000000
00100000
00000000
10000000
00000000
00010000
00000000
00100000
00000000
00010000
00000000
00100000
00001000
,
00010000
00000000
00000000
00011000
00000000
00000000
00000100
00000000
00002000
00000000
00000000
00000000
00003010
00000000
00000100
00000000
,
00000220
00000000
00000000
00000000
00000330
00000000
00000000
00000000
00000001
00001000
00000001
00001000
00000001
00000000
00000010
00000000
,
00000200
00000000
00000000
00000000
00001300
00000000
00000100
00001000
00000100
00000000
00010000
00000000
00001000
00000000
00100000
00000000
,
00010000
01000000
10000000
01000000
00010000
00000000
00100000
00001000
,
00020000
00000000
00000000
00000000
00030100
00000000
00001000
00000100
00001000
00000000
00000010
00000000
00000100
00000000
00000001
00000000
,
00000010
00001000
00000010
00000001
00000010
00000000
00000100
00010000
,
00002000
00000000
00000000
00000000
01003000
00000000
00010000
01000000
00010000
00000000
10000000
00000000
00100000
00000000
01000000
00000000
,
00010000
00100000
10000000
00100000
00010000
00000000
01000000
00001000
,
00011000
00000000
00000100
00010000
00011000
00000000
00100000
00010000
,
01000000
00000000
01000000
00000000
00100000
00000000
10000000
00000000
00010000
10000000
00010000
10000000
00020000
00000000
00000000
00000000
,
00130000
00000000
00001000
00010000
00000000
00001000
00010000
00000000
00000100
00000000
00001000
00000100
00000000
00001000
00000010
00000000
,
00000100
00001000
00000100
00000001
00000100
00000000
00000001
00000010
,
00000100
00000000
00001000
00000100
00000000
00001000
00000100
00000000
00010000
00000000
00001000
00010000
00000000
00001000
00100000
00000000
,
00010000
01000000
10000000
01000000
00010000
00000000
10000000
00100000
,
01000000
00000000
00010000
00100000
00000000
00010000
00100000
00000000
00001000
00000000
00010000
00001000
00000000
00010000
00000010
00000000
,
00001000
00000100
00000001
00000100
00001000
00000000
00000010
00010000
,
00011000
00000000
00100000
00001000
00011000
00000000
00000100
00001000
,
00000010
00000000
00000010
00000000
00000100
00000000
00000001
00000000
00001000
00000001
00001000
00000001
00002000
00000000
00000000
00000000
,
00003010
00000100
00001000
00010000
00001000
00010000
00200000
00000000
,
10300000
01000000
00010000
01000000
10000000
00100000
00010000
00001000
,
00000200
00000000
00000000
00000000
00000300
00000000
00000001
00000100
00000002
00000000
00000000
00000000
00000003
00000000
00000010
00000001
,
00000020
00000000
00000000
00000230
00000000
00000000
00020300
00000000
00031000
00000000
00000000
00000000
00011000
00000000
00000000
00000000
,
00010000
00100000
10000000
00100000
00010000
00001000
00010000
01000000
,
10000000
00000000
00010000
00000000
00100000
00010000
00100000
00000000
00020000
00000000
00000000
02030000
00000000
00000000
03002000
00000000
,
00013000
00000000
00001000
00000000
00010000
00001000
00010000
00000000
00000100
00000000
00001000
00000000
00000100
00001000
00000100
00000000
,
00001000
00000000
00000010
00000000
00000100
00000010
00000100
00000000
00000001
00000000
00000100
00000000
00000001
00001000
00000001
00000000
,
00001000
00000000
00000000
00001100
00000000
00000000
00010000
00000000
00011000
00000000
00000000
00001000
00010000
00000000
00000000
00000000
,
00001000
00010000
00001000
00010000
00001000
00000000
01000000
00000000
00010000
00000000
01000000
00010000
01000000
00000000
00000000
00000000
,
00100000
10000000
00000000
00100000
10000000
00000000
01000000
00000000
10000000
01000000
10000000
01000000
00200000
00000000
00000000
00000000
,
01300000
00000000
00010000
00000000
00001000
00000000
00011000
00000000
00010100
00000000
00001100
00000000
,
00002000
00000000
00000002
00000000
00003003
00000000
00010000
00001000
,
00000010
00000100
00000010
00000001
00000100
00001000
00000100
00000001
,
00000100
00000000
00000000
00000000
00001000
00000000
00010000
00000000
00002000
00000000
00000000
00000000
00103000
00000000
00010000
00100000
,
00010000
01000000
00100000
10000000
01000000
00010000
00001000
00010000
,
00000010
00000000
00000000
00000000
00001000
00000000
00000100
00000000
00000120
00000000
00000000
00000000
00000031
00000000
00001000
00000001
,
00001000
00000010
00000100
00000001
00000010
00001000
00010000
00001000
,
00000010
00000000
00000100
00010000
00011000
00000000
01000000
00001000
,
00011000
00000000
00010000
00100000
10000000
10000000
00010000
00100000
,
01000000
00100000
01000000
00100000
02000000
00000000
00000000
00000000
13000000
00000000
00100000
10000000
00000000
00100000
01000000
00000000
,
00010000
00000000
00100000
00010000
00000000
00100000
00001000
00000000
00010000
00000000
00001000
00000000
00000010
00000000
00001000
00000000
,
00010000
00000000
00000000
00000000
00000100
00000000
00001000
00000000
00000010
00000000
00000100
00000001
00000000
00000100
00000001
00000000
,
00000010
00000000
00000100
00001000
00000000
00000100
00010000
00000000
00001000
00000000
00000010
00000000
00000001
00000000
00000010
00000000
,
00001000
00000000
00000000
00000000
00010000
00000000
00001000
00000000
00011000
00000000
00010000
00001000
00000000
00010000
00001000
00000000
,
01000000
00000000
00010000
01000000
00000000
00100000
01000000
00000000
00010000
00000000
00100000
00000000
10000000
00000000
00100000
00000000
,
00010000
00000000
01000000
00001000
00011000
00000000
00000100
00010000
,
00011000
00000000
00001000
00000010
00000001
00000001
00000100
00000001
,
00001000
00000001
00001000
00000001
00001000
00000000
00000100
00000000
00020000
00000000
00000000
00000000
00031000
00000000
00100000
00000000
,
00010000
00000000
01000000
00000000
00100000
00000000
00000000
10000000
02000000
00000000
00000000
00000000
00000000
00000000
00000000
00000000
,
00000000
00000000
00000000
00000000
,
00000000
00000000
00000000
00000000
,
00000000
00000000
03000000
00000000
;
