#VERSION:0.83;
#TITLE:めでてえ;
#SUBTITLE:;
#ARTIST:TORIENA;
#TITLETRANSLIT:Medetee;
#SUBTITLETRANSLIT:;
#ARTISTTRANSLIT:;
#GENRE:ハッピースピードコア;
#CREDIT:;
#MUSIC:Medetee.ogg;
#BANNER:Medetee.png;
#BACKGROUND:Medetee-bg.png;
#CDTITLE:./CDTitles/bm IIDX 29 CastHour.png;
#SAMPLESTART:56.028;
#SAMPLELENGTH:15.000;
#SELECTABLE:YES;
#OFFSET:-0.042;
#BPMS:0.000=240.000
,384.000=120.000
,391.000=240.000
;
#STOPS:384.000=0.500
,391.000=0.125
,391.500=0.125
,392.000=0.125
,392.500=0.125
;
#TIMESIGNATURES:0.000=4=4,
384.000=1=4,
385.000=4=4
;
#BGCHANGES:-1.000=Medetee.mp4=1.000=0=0=0=StretchNoLoop====,
99999.000=-nosongbg-=1.000=0=0=0=StretchNoLoop====
;
#FGCHANGES:;

//--------------- dance-single - forcednature ----------------
#NOTEDATA:;
#STEPSTYPE:dance-single;
#DESCRIPTION:forcednature;
#CREDIT:forcednature;
#DIFFICULTY:Beginner;
#METER:3;
#RADARVALUES:0,0,0,0,0;
#NOTES:
0000
0000
0000
0000
,
0000
0000
0000
0000
,
0000
0000
0000
0000
,
0000
0000
0000
0000
,
0000
0000
0000
0000
,
0001
0000
0000
0000
,
0000
0000
0000
0000
,
1000
0000
0000
0000
,
0000
0000
0000
0000
,
0010
0000
0000
0000
,
0000
0000
0000
0000
,
0000
0000
0000
0000
,
0000
0000
0000
0000
,
0100
0000
0000
0000
,
0000
0000
0000
0000
,
0000
0000
0000
0000
,
0001
0000
0000
0000
,
0010
0000
0000
0000
,
0010
0000
0000
0000
,
0001
0000
0000
0000
,
0100
0000
0000
0000
,
0001
0000
0000
0000
,
1000
0000
0000
0000
,
0100
0000
0000
0000
,
1000
0000
0000
0000
,
0010
0000
0000
0000
,
0100
0000
0000
0000
,
0001
0000
0000
0000
,
0100
0000
0000
0000
,
0010
0000
0000
0000
,
1000
0000
0000
0000
,
0001
0000
0000
0000
,
1000
0000
0000
0000
,
0100
0000
0000
0000
,
0000
0000
0000
0000
,
0010
0000
0000
0000
,
0000
0000
0000
0000
,
0001
0000
0000
0000
,
0000
0000
0000
0000
,
1000
0000
0000
0000
,
1000
0000
0000
0000
,
0010
0000
0000
0000
,
0000
0000
0000
0000
,
0100
0000
0000
0000
,
0000
0000
0000
0000
,
0001
0000
0000
0000
,
0000
0000
0000
0000
,
1000
0000
0000
0000
,
1000
0000
0000
0000
,
0100
0000
0000
0000
,
0000
0000
0000
0000
,
0100
0000
0000
0000
,
0010
0000
0000
0000
,
0001
0000
0000
0000
,
0000
0000
0000
0000
,
0100
0000
0000
0000
,
0010
0000
0000
0000
,
1001
0000
0000
0000
,
1001
0000
0000
0000
,
0000
0000
0000
0000
,
0010
0000
0000
0000
,
1001
0000
0000
0000
,
1001
0000
0000
0000
,
0000
0000
0000
0000
,
0100
0000
0000
0000
,
0110
0000
0000
0000
,
1001
0000
0000
0000
,
0000
0000
0000
0000
,
1000
0000
0000
0000
,
0110
0000
0000
0000
,
1001
0000
0000
0000
,
0001
0000
0000
0000
,
0010
0000
0000
0000
,
0010
0000
0000
0000
,
0100
0000
0000
0000
,
1000
0000
0000
0000
,
0001
0000
0000
0000
,
0100
0000
0000
0000
,
0000
0000
0000
0000
,
0010
0000
0000
0000
,
0010
0000
0000
0000
,
1000
0000
0000
0000
,
0001
0000
0000
0000
,
0100
0000
0000
0000
,
0010
0000
0000
0000
,
1000
0000
0000
0000
,
0000
0000
0000
0000
,
0001
0000
0000
0000
,
0010
0000
0000
0000
,
0100
0000
0000
0000
,
0000
0000
0000
0000
,
1000
0000
0000
0000
,
0010
0000
0000
0000
,
0100
0000
0000
0000
,
0000
0000
0000
0000
,
0001
0000
0000
0000
,
0010
0000
0000
0000
,
0000
0001
0000
1000
,
0000
1001
0000
0000
,
0000
0110
0000
0000
,
0000
0100
0000
0000
,
0000
0001
0000
0000
,
0000
1001
0000
0000
,
0000
0110
0000
0000
,
0000
1000
0000
0000
,
0000
0001
0000
0000
,
0000
0110
0000
0000
,
0000
1001
0000
0000
,
0000
0100
0000
0000
,
0000
0010
0000
0000
,
0000
1000
0000
0000
,
0000
0000
0000
0000
,
0000
0100
0000
0000
,
0000
1000
0000
0000
,
0000
0010
0000
0000
,
0000
0000
0000
0000
,
0000
0100
0000
0000
,
0000
0001
0000
0000
,
0000
0010
0000
0000
;

//--------------- dance-single - forcednature ----------------
#NOTEDATA:;
#STEPSTYPE:dance-single;
#DESCRIPTION:forcednature;
#CREDIT:forcednature;
#DIFFICULTY:Easy;
#METER:6;
#RADARVALUES:0,0,0,0,0;
#NOTES:
0000
0000
0000
0000
,
0000
0000
0000
0000
,
0000
0000
0000
0000
,
0000
0000
0000
0000
,
0000
0000
0000
0000
,
0001
0000
0000
0000
,
0100
0000
0000
0000
,
0010
0000
0000
0000
,
1000
0000
0000
0000
,
0001
0000
0000
0000
,
0010
0000
0000
0000
,
0001
0000
0000
0000
,
1000
0000
0000
0000
,
0100
0000
0000
0000
,
1000
0000
0000
0000
,
0001
0000
0000
0000
,
0100
0000
0100
0000
,
0010
0000
0000
0000
,
1000
0000
0000
0000
,
0001
0000
0000
0000
,
0100
0000
0000
0000
,
0001
0000
0000
0000
,
0010
0000
0000
0000
,
0001
0000
0000
0000
,
1000
0000
1000
0000
,
0100
0000
0000
0000
,
1000
0000
0000
0000
,
0010
0000
0000
0000
,
0100
0000
0000
0000
,
0001
0000
0000
0000
,
0010
0000
0010
0000
,
0001
0000
0000
0000
,
0100
0000
0100
0000
,
0001
0000
0000
0000
,
1000
0000
0000
0000
,
0010
0000
0000
0000
,
1000
0000
0000
0000
,
0001
0000
0000
0000
,
0100
0000
0000
0000
,
0010
0000
0000
0000
,
1000
0000
1000
0000
,
0001
0000
0000
0000
,
0010
0000
0010
0000
,
0001
0000
0000
0000
,
0100
0000
0100
0000
,
0001
0000
0000
0000
,
1000
0000
1000
0000
,
0001
0000
0000
0000
,
0010
0000
0100
0000
,
1000
0000
0000
0000
,
0010
0000
0000
0000
,
0100
0000
0000
0000
,
0001
0000
0001
0000
,
1000
0000
0000
0000
,
0100
0000
0000
0000
,
0010
0000
0000
0000
,
0001
1000
0001
0000
,
1000
0000
0010
0000
,
0100
0000
0010
0000
,
1000
0000
0001
0000
,
0100
0000
0100
0000
,
0001
0000
0010
0000
,
0100
0000
0010
0000
,
0001
0000
1000
0000
,
0100
0000
0100
0000
,
1000
0000
0001
0000
,
0100
0000
0001
0000
,
1000
0000
0100
0000
,
0110
0000
0110
0000
,
0001
0000
1000
0000
,
0100
0000
1000
0000
,
0001
0000
0100
0000
,
0010
0010
0010
0000
,
1000
0000
0000
0000
,
0001
0000
0000
0000
,
0100
0000
0010
0000
,
1000
0000
0001
0000
,
0200
0000
0000
0000
,
0300
0000
0000
0000
,
0010
0000
1000
0000
,
0001
0000
0000
0000
,
0010
0000
0000
0000
,
0100
0000
1000
0000
,
0001
0000
0010
0000
,
0001
0000
1000
0000
,
0020
0000
0000
0000
,
0030
0000
0000
0000
,
0100
0000
0001
0000
,
1000
0000
0010
0000
,
0100
0000
0000
0000
,
0001
0000
0000
0000
,
0010
0000
0000
0000
,
0100
0000
0100
0000
,
1000
0000
0000
0000
,
0010
0000
0000
0000
,
0100
0000
0000
0000
,
1001
0000
1000
0000
,
1000
0000
0001
0100
,
0100
0010
0000
1000
,
0000
0100
0000
1000
,
0000
0001
0000
0100
,
0000
0010
0010
0010
,
0000
0100
0000
0001
,
0000
0100
0000
0001
,
0000
1000
0000
0010
,
0000
0110
0000
0110
,
0000
1000
0000
0100
,
0000
1000
0000
0100
,
0000
0010
0000
0001
,
0000
0100
0100
0100
,
0000
0001
0000
0000
,
0000
1000
0000
0010
,
0000
0100
0000
0001
,
0000
1000
0000
0100
,
0000
0020
0000
0000
,
0000
0030
0000
0000
,
0000
0001
0000
0100
,
0000
0010
0010
0010
,
0000
2000
0000
0000
,
0000
3000
0000
0000
;

//--------------- dance-single - forcednature ----------------
#NOTEDATA:;
#STEPSTYPE:dance-single;
#DESCRIPTION:forcednature;
#CREDIT:forcednature;
#DIFFICULTY:Medium;
#METER:11;
#RADARVALUES:0,0,0,0,0;
#NOTES:
0000
0000
0000
0000
,
0000
0000
0000
0000
,
0000
0000
0000
0000
,
0000
0000
0000
0000
,
0000
0000
0000
0000
,
0001
0100
0001
0000
,
1000
0100
1000
0000
,
0001
0100
0001
0000
,
0010
0010
0010
0000
,
0001
1000
0100
1000
,
0001
1000
0100
0000
,
1000
0001
0010
0001
,
1000
0001
0010
0000
,
0001
0100
0010
0100
,
0001
0100
0010
0000
,
1000
0001
0100
0001
,
0010
0010
0010
0000
,
1001
0000
1000
0100
,
1000
0001
0010
0000
,
0001
0100
0010
1000
,
0100
0100
1000
0000
,
0010
0100
0001
0010
,
0100
1000
0010
0000
,
0100
0001
0001
1000
,
0020
0100
0130
0010
,
1000
0001
0010
0001
,
1000
0100
0001
0000
,
0100
1000
0010
0100
,
0001
0010
0001
0000
,
1000
0010
0100
0001
,
0020
0130
0020
0130
,
1000
0001
0010
0100
,
2000
3001
2000
3001
,
0100
0001
0100
0000
,
0001
0010
0001
0000
,
1000
0010
1000
0000
,
0100
1000
0100
0000
,
0010
0001
1000
0000
,
0010
1000
0001
0000
,
0100
0001
1000
0000
,
0010
0010
0010
0000
,
0100
0001
0100
0001
,
0010
0001
0010
0000
,
0100
1000
0100
1000
,
0010
1000
0010
0000
,
0100
0001
0010
0001
,
0100
0001
0010
0000
,
0100
1000
0010
1000
,
0100
0100
0100
0000
,
0010
0001
0010
0000
,
0001
0100
0001
0000
,
0100
0010
0100
0000
,
0010
1000
0001
0000
,
1000
0100
1000
0000
,
0001
0100
0001
0000
,
0010
0100
0010
0000
,
0001
1000
2002
3003
,
0001
0010
0001
0000
0020
0000
0000
0000
,
0031
0100
0001
0000
0200
0000
0300
0000
,
0010
1000
0001
0010
,
0200
0310
0200
0310
,
0100
1000
0100
0000
2000
0000
0000
0000
,
3010
1000
0010
0000
2000
0000
3000
0000
,
0001
0010
0100
1000
,
0010
0010
0100
0010
,
1000
0100
1000
0000
0200
0000
0000
0000
,
0310
0001
0010
0000
0002
0000
0003
0000
,
1000
0010
0100
0001
,
0020
0130
0020
0130
,
0010
0001
0010
0000
0002
0000
0000
0000
,
0103
0001
0100
0000
0002
0000
0003
0000
,
1000
0010
0100
0001
,
0010
0100
0220
0330
,
1000
0001
0200
0000
,
0301
1000
0010
0100
,
0002
0000
0023
0000
,
0230
0000
1300
0001
,
0200
0010
0000
0310
,
0000
1000
0000
0010
,
0100
0001
1000
0010
,
0100
0000
0001
1000
,
0001
0010
0200
0000
,
1300
0010
0100
0001
,
2000
0000
3200
0000
,
0320
0000
0031
1000
,
0020
0100
0000
0130
,
0000
0001
0000
0100
,
0010
1000
0001
0100
,
0010
0000
1000
0001
,
1001
0000
1000
0100
,
1000
0000
1000
0010
,
1000
0000
1000
0001
,
0100
0010
0100
0000
,
1001
0000
0001
0100
,
0001
0000
0001
0010
,
0001
0000
0001
1000
,
0020
0030
1000
0100
0000
0100
1000
0010
,
0000
0010
0100
0001
0000
0001
0010
0010
,
0100
0010
0001
1000
0001
0000
0200
0000
,
0300
0000
0001
1000
0001
0000
0020
0000
,
0030
0100
1000
0001
,
0100
0020
0130
0020
,
0130
0000
0001
0010
0001
0000
2000
0000
,
3000
0000
0001
0100
0001
0000
2000
0000
,
3000
0010
0100
0001
,
0010
0220
0330
0220
,
0330
0000
1000
0001
1000
0000
0200
0000
,
0300
0000
1000
0001
1000
0000
0020
0000
,
0030
0100
0001
1000
,
0100
0010
0010
0001
,
0010
0001
1000
0020
,
0000
1030
0001
0100
,
0010
2000
0000
3002
,
0000
0023
0000
0130
,
1000
0020
0100
0000
,
0130
0000
1000
0000
,
1000
0001
0100
0010
,
1000
0001
0001
0010
,
1001
0200
0000
0000
,
0000
0300
0000
0000
;

//--------------- dance-single - forcednature assist by extraordiberry ----------------
#NOTEDATA:;
#STEPSTYPE:dance-single;
#DESCRIPTION:forcednature assist by extraordiberry;
#CREDIT:forcednature assist by extraordiberry;
#DIFFICULTY:Hard;
#METER:14;
#RADARVALUES:0,0,0,0,0;
#NOTES:
0000
0000
0000
0000
,
0000
0000
0000
0000
,
0000
0000
0000
0000
,
0000
0000
0000
0000
,
0000
0000
0000
0000
,
0001
0001
0100
0010
,
1000
1000
0100
0010
,
0001
0001
0100
0010
,
0110
0110
0110
1000
,
0001
0100
1000
0100
,
0001
0100
1000
0100
,
0001
0010
0001
0100
,
0001
0010
0001
0100
,
0001
0010
1000
0010
,
0001
0010
1000
0010
,
0001
0100
0001
1000
,
0110
0110
0220
0330
,
1000
0000
0001
0000
0100
0010
0100
0010
,
1000
0000
0001
0010
0100
0000
0010
0000
,
0001
1000
0100
0000
0100
0000
1000
0000
,
0001
0000
0001
0010
0100
0000
0110
0000
,
1001
0000
1000
0010
0100
0000
0010
0000
,
1000
0001
0100
0001
1000
0000
0010
0000
,
0110
0000
0100
0001
0010
0000
0100
0000
,
2000
0001
3001
1001
,
0110
0000
0001
0100
0010
0100
0001
0000
,
1000
0000
0100
1000
0100
0100
1000
0000
,
0001
1000
0010
0000
0010
1000
0001
0000
,
0100
0010
0100
0010
0200
0000
0300
0000
,
0001
0010
0001
0000
0010
0100
0010
0000
,
0002
0100
0010
0103
,
1000
0010
1000
0000
0010
0100
0010
0000
,
2000
0100
0010
3100
,
1000
1000
0010
0100
,
0001
0001
0010
0100
,
1000
1000
0010
0100
,
0001
0001
0010
0100
,
1000
1000
0001
0100
,
0001
0001
1000
0100
,
1000
1000
0001
0100
,
0110
0110
0220
0330
,
0001
0100
1000
0000
0100
0000
0001
0000
,
1000
0100
0001
0000
0100
0000
1000
0000
,
0001
0010
1000
0000
0010
0000
0001
0000
,
1000
0010
0001
0000
0010
0000
1000
0000
,
0001
0100
1000
0000
0100
0000
0001
0000
,
1000
0010
0001
0000
0010
0000
1000
0000
,
0001
0010
1000
0000
0010
0000
0001
0000
,
0110
0110
0220
0330
,
0001
0001
1000
1000
,
0010
0100
0010
0000
0100
0000
0010
0000
,
1000
1000
0001
0001
,
0010
0100
0220
0330
,
1000
1000
0001
0001
,
0100
0010
0100
0000
0010
0000
0100
0000
,
0001
0001
1000
1000
,
0010
0100
0110
1001
,
1000
0001
0010
0000
0022
0000
0033
0000
,
0001
1000
0100
0000
2200
0000
3300
0000
,
1000
0010
0100
0000
0001
0010
0100
0000
,
0012
0103
0012
0103
,
0001
1000
0010
0000
2020
0000
3030
0000
,
1000
0001
0100
0000
0202
0000
0303
0000
,
0001
0010
0100
0000
1000
0010
0100
0000
,
2010
3100
2010
3100
,
1000
0100
0001
0000
0202
0000
0303
0000
,
0001
0100
1000
0000
2200
0000
3300
0000
,
0001
0010
0001
1000
0100
1000
0001
0000
,
0202
0303
2020
3030
,
0001
0100
1000
0000
2200
0000
3300
0000
,
1000
0100
0001
0000
0202
0000
0303
0000
,
1000
0010
0100
0001
0100
0010
1000
0000
,
0100
0010
0001
0000
0100
0000
1001
0000
,
0001
0010
0100
0000
0020
0000
0001
0000
,
0130
1000
0001
0000
0100
0000
0110
0000
,
2010
0100
3002
0100
,
2003
0000
0010
0000
3002
0000
0013
0100
,
1000
0000
0010
1000
0010
0000
0100
0010
,
0100
0000
0001
0100
0001
0000
0010
0000
,
0110
0100
0110
0010
,
2002
0000
3003
0000
,
1000
0010
0100
0000
0020
0000
1000
0000
,
0130
0001
1000
0000
0100
0000
0110
0000
,
0012
0100
2003
0100
,
3002
0000
0010
0000
2003
0000
3010
0100
,
0001
0000
0010
0001
0010
0000
0100
0010
,
0100
0000
1000
0100
1000
0000
0010
0000
,
0110
0100
0110
0010
,
2002
3003
0220
0330
,
0001
0100
0001
0000
1000
0000
1000
0000
,
0001
0010
0001
0000
1000
0000
1000
0000
,
0100
0010
0100
0000
0010
0100
0010
0000
,
0100
0110
2002
3003
,
1000
0100
1000
0000
0001
0000
0001
0000
,
1000
0010
1000
0000
0001
0000
0001
0000
,
0010
0100
0010
0000
0100
0010
0100
0000
,
2002
3003
0001
0100
0101
0000
1000
0010
,
1010
0000
0000
0000
0001
0010
0001
0000
1000
0100
1000
0000
0010
0000
0110
0000
,
0100
1001
0001
0100
1000
0000
2200
0000
,
3300
0000
1000
0100
0001
0000
0202
0000
,
0303
0000
0001
0010
0100
0010
0001
1000
,
0010
1020
0031
1020
,
0031
0000
1000
0100
0001
0000
0202
0000
,
0303
0000
0001
0100
1000
0000
2200
0000
,
3300
0000
0001
0010
0001
0100
0010
1000
,
0100
1020
0031
1020
,
0031
0000
0010
1000
0100
0000
2002
0000
,
3003
0000
0010
0001
0100
0000
2002
0000
,
3003
0000
1000
0100
1000
0010
0100
0001
,
0010
0001
0100
0000
1001
0000
0010
0000
,
0110
0000
1000
0100
0001
0000
0200
0000
,
1000
0000
0310
0001
1000
0000
0010
0000
,
0110
0102
0010
2003
,
0010
0000
3002
0000
0100
0000
1003
0100
,
0010
0001
1000
0000
1000
0010
0100
0000
,
0100
0001
0010
0000
0010
0100
1000
0000
,
0010
0110
0100
0110
,
0010
1001
1001
1001
,
0110
0020
0000
0000
,
0000
0030
0000
0000
;

//--------------- dance-double - forcednature ----------------
#NOTEDATA:;
#STEPSTYPE:dance-double;
#DESCRIPTION:forcednature;
#CREDIT:forcednature;
#DIFFICULTY:Easy;
#METER:7;
#RADARVALUES:0,0,0,0,0;
#NOTES:
00000000
00000000
00000000
00000000
,
00000000
00000000
00000000
00000000
,
00000000
00000000
00000000
00000000
,
00000000
00000000
00000000
00000000
,
00000000
00000000
00000000
00000000
,
00001000
00000000
00000000
00000000
,
00010000
00000000
00000000
00000000
,
00000100
00000000
00000000
00000000
,
00001000
00000000
00000000
00000000
,
00000001
00000000
00000000
00000000
,
00000100
00000000
00000000
00000000
,
00000010
00000000
00000000
00000000
,
00001000
00000000
00000000
00000000
,
00000100
00000000
00000000
00000000
,
00010000
00000000
00000000
00000000
,
00001000
00000000
00000000
00000000
,
00100000
00000000
00100000
00000000
,
00010000
00000000
00000000
00000000
,
01000000
00000000
00000000
00000000
,
00100000
00000000
00000000
00000000
,
10000000
00000000
00000000
00000000
,
01000000
00000000
00000000
00000000
,
10000000
00000000
00000000
00000000
,
00010000
00000000
00000000
00000000
,
00100000
00000000
00100000
00000000
,
00001000
00000000
00000000
00000000
,
00010000
00000000
00000000
00000000
,
00000100
00000000
00000000
00000000
,
00001000
00000000
00000000
00000000
,
00000010
00000000
00000000
00000000
,
00000100
00000000
00000100
00000000
,
00000001
00000000
00000000
00000000
,
00000010
00000000
00000010
00000000
,
00000001
00000000
00000000
00000000
,
00001000
00000000
00000000
00000000
,
00000100
00000000
00000000
00000000
,
00010000
00000000
00000000
00000000
,
00001000
00000000
00000000
00000000
,
00100000
00000000
00000000
00000000
,
00010000
00000000
00000000
00000000
,
01000000
00000000
01000000
00000000
,
00100000
00000000
00000000
00000000
,
10000000
00000000
10000000
00000000
,
01000000
00000000
00000000
00000000
,
00100000
00000000
00100000
00000000
,
00001000
00000000
00000000
00000000
,
00010000
00000000
00010000
00000000
,
00000100
00000000
00000000
00000000
,
00001000
00000000
00000010
00000000
,
00001000
00000000
00000000
00000000
,
00000001
00000000
00000000
00000000
,
00000100
00000000
00000000
00000000
,
00000010
00000000
00000010
00000000
,
00001000
00000000
00000000
00000000
,
00000100
00000000
00000000
00000000
,
00010000
00000000
00000000
00000000
,
00001000
00010000
00001000
00000000
,
00100000
00000000
00010000
00000000
,
01000000
00000000
00010000
00000000
,
10000000
00000000
00100000
00000000
,
01000000
00000000
01000000
00000000
,
00010000
00000000
00100000
00000000
,
00001000
00000000
00010000
00000000
,
00000010
00000000
00001000
00000000
,
00000001
00000000
00000001
00000000
,
00000100
00000000
00000010
00000000
,
00001000
00000000
00000100
00000000
,
00010000
00000000
00001000
00000000
,
00011000
00000000
00011000
00000000
,
00100000
00000000
00010000
00000000
,
01000000
00000000
00010000
00000000
,
10000000
00000000
00100000
00000000
,
01000000
01000000
01000000
00000000
,
00010000
00000000
00000000
00000000
,
00100000
00000000
00000000
00000000
,
00001000
00000000
00010000
00000000
,
00000100
00000000
00001000
00000000
,
00000200
00000000
00000000
00000000
,
00000300
00000000
00000000
00000000
,
00000010
00000000
00000001
00000000
,
00001000
00000000
00000000
00000000
,
00000100
00000000
00000000
00000000
,
00010000
00000000
00001000
00000000
,
01000000
00000000
00010000
00000000
,
01000000
00000000
00100000
00000000
,
20000000
00000000
00000000
00000000
,
30000000
00000000
00000000
00000000
,
01000000
00000000
00100000
00000000
,
00010000
00000000
00100000
00000000
,
00001000
00000000
00000000
00000000
,
00010000
00000000
00000000
00000000
,
00000100
00000000
00000000
00000000
,
00001000
00000000
00001000
00000000
,
00000010
00000000
00000000
00000000
,
00000100
00000000
00000000
00000000
,
00000001
00000000
00000000
00000000
,
00001001
00000000
00001000
00000000
,
00001000
00000000
00000100
00010000
,
00010000
00001000
00000000
00100000
,
00000000
00010000
00000000
00100000
,
00000000
01000000
00000000
10000000
,
00000000
00100000
00100000
00100000
,
00000000
01000000
00000000
00010000
,
00000000
00100000
00000000
00001000
,
00000000
00010000
00000000
00000100
,
00000000
00011000
00000000
00011000
,
00000000
00000010
00000000
00001000
,
00000000
00000010
00000000
00000100
,
00000000
00000001
00000000
00000010
,
00000000
00000100
00000100
00000100
,
00000000
00010000
00000000
00000000
,
00000000
00001000
00000000
00100000
,
00000000
00010000
00000000
01000000
,
00000000
00100000
00000000
10000000
,
00000000
00020000
00000000
00000000
,
00000000
00030000
00000000
00000000
,
00000000
00100000
00000000
00001000
,
00000000
00010000
00010000
00010000
,
00000000
00000200
00000000
00000000
,
00000000
00000300
00000000
00000000
;

//--------------- dance-double - forcednature ----------------
#NOTEDATA:;
#STEPSTYPE:dance-double;
#DESCRIPTION:forcednature;
#CREDIT:forcednature;
#DIFFICULTY:Medium;
#METER:11;
#RADARVALUES:0,0,0,0,0;
#NOTES:
00000000
00000000
00000000
00000000
,
00000000
00000000
00000000
00000000
,
00000000
00000000
00000000
00000000
,
00000000
00000000
00000000
00000000
,
00000000
00000000
00000000
00000000
,
00001000
00010000
01000000
00000000
,
00010000
00001000
00000100
00000000
,
00001000
00010000
00100000
00000000
,
01000000
01000000
01000000
00000000
,
00010000
10000000
01000000
10000000
,
00010000
00100000
00001000
00000000
,
00010000
00000100
00001000
00000100
,
00000010
00000001
00001000
00000000
,
00000010
00010000
00001000
00010000
,
00000010
00001000
00000001
00000000
,
00001000
00000100
00010000
00001000
,
00100000
00100000
00100000
00000000
,
10010000
00000000
10000000
01000000
,
10000000
00010000
00100000
00000000
,
00001000
00010000
00000010
00001000
,
00000100
00000100
00001000
00000000
,
00000001
00000010
00000100
00001000
,
00000010
00000100
00000001
00000000
,
00001000
00000100
00000100
00010000
,
00002000
00100000
00103000
00000000
,
00011000
00000000
00100000
00010000
,
10000000
00100000
01000000
00000000
,
00010000
00100000
00001000
00010000
,
00000010
00001000
00000010
00000000
,
00000100
00001000
00010000
00001000
,
00200000
00010000
00310000
00100000
,
01000000
00010000
00001000
00010000
,
00000020
00001000
00001030
00000010
,
00000100
00000001
00000100
00000000
,
00001000
00000100
00001000
00000000
,
00010000
00001000
00010000
00000000
,
00100000
00010000
00100000
00000000
,
10000000
00100000
10000000
00000000
,
01000000
10000000
01000000
00000000
,
00010000
01000000
00010000
00000000
,
00001000
00010000
00011000
00000000
,
00000100
00001000
00000100
00001000
,
00000010
00000100
00000010
00000000
,
00010000
00001000
00010000
00001000
,
00100000
00010000
00100000
00000000
,
01000000
10000000
01000000
10000000
,
00100000
01000000
00100000
00000000
,
01000000
00001000
01000000
00001000
,
00010000
00010000
00010000
00000000
,
00000100
00001000
00000100
00000000
,
00000100
00000010
00000100
00000000
,
00000100
00001000
00000001
00000000
,
00000100
00001000
00010000
00000000
,
00100000
01000000
00100000
00000000
,
00100000
10000000
00010000
00000000
,
00010000
00100000
00001000
00000000
,
00010000
00010000
00020000
00030000
,
00000100
00001000
00000100
00000000
00000020
00000000
00000030
00000000
,
00000100
00001000
00000100
00000000
00020000
00000000
00030000
00000000
,
00001000
00100000
00010000
01000000
,
00200000
10300000
00200000
10300000
,
01000000
10000000
01000000
00000000
00200000
00000000
00300000
00000000
,
00001000
00010000
00001000
00000000
02000000
00000000
03000000
00000000
,
00010000
00100000
00001000
00010000
,
00000100
00000100
00001000
00000100
,
00000010
00000001
00000010
00000000
00000200
00000000
00000300
00000000
,
00010000
00001000
00010000
00000000
00002000
00000000
00003000
00000000
,
01000000
00010000
00100000
00010000
,
20000000
30100000
20000000
30100000
,
01000000
00010000
01000000
00000000
00002000
00000000
00003000
00000000
,
00010000
00001000
00010000
00000000
00000200
00000000
00000300
00000000
,
00001000
00000010
00000100
00000001
,
00000010
00000100
00000220
00000330
,
00001000
00000100
00020000
00000000
,
00031000
00100000
00010000
01000000
,
00200000
00000000
20300000
00000000
,
32000000
00000000
03010000
00001000
,
00000020
00000000
00000130
00000000
,
00000010
00000001
00001000
00000010
,
00000100
00000001
00001000
00000100
,
00010000
00000000
00001000
00010000
,
00001000
00100000
00020000
00000000
,
01030000
00100000
10000000
01000000
,
00200000
00000000
00302000
00000000
,
00023000
00000000
00030100
00001000
,
00000020
00000100
00000000
00000130
,
00000000
00000001
00000000
00001000
,
00000100
00010000
00001000
00100000
,
00010000
00000000
01000000
00000000
,
10010000
00000000
10000000
01000000
,
10000000
00000000
10000000
00100000
,
00010000
00000000
00010000
00001000
,
00010000
00000100
00001000
00000000
,
00001001
00000000
00000001
00000010
,
00000001
00000000
00000001
00000100
,
00001000
00000000
00001000
00010000
,
00200000
00300000
10000000
01000000
00000000
01000000
10000000
00010000
,
00000000
00010000
00100000
00001000
00000000
00001000
00010000
00010000
,
00000100
00001000
00000010
00001000
00000010
00000000
00000200
00000000
,
00000300
00000000
00000001
00001000
00000001
00000000
00000020
00000000
,
00000030
00000100
00010000
00001000
,
00100000
00020000
01030000
00020000
,
01030000
00000000
00100000
10000000
00100000
00000000
02000000
00000000
,
03000000
00000000
00010000
10000000
00010000
00000000
00200000
00000000
,
00300000
00001000
00010000
00000100
,
00001000
00002200
00003300
00000022
,
00000033
00000000
00001000
00000001
00001000
00000000
00000020
00000000
,
00000030
00000000
00010000
00001000
00010000
00000000
00002000
00000000
,
00003000
00100000
00010000
01000000
,
00100000
10000000
10000000
01000000
,
10000000
00010000
00100000
00002000
,
00000000
00013000
00000010
00001000
,
00000100
00000020
00000000
00000032
,
00000000
00000203
00000000
00001300
,
00010000
00002000
00100000
00000000
,
00103000
00000000
00100000
00000000
,
00010000
01000000
00100000
10000000
,
01000000
00010000
00010000
00001000
,
00011000
00000200
00000000
00000000
,
00000000
00000300
00000000
00000000
;

//--------------- dance-double - forcednature assist by extraordiberry ----------------
#NOTEDATA:;
#STEPSTYPE:dance-double;
#DESCRIPTION:forcednature assist by extraordiberry;
#CREDIT:forcednature assist by extraordiberry;
#DIFFICULTY:Hard;
#METER:15;
#RADARVALUES:0,0,0,0,0;
#NOTES:
00000000
00000000
00000000
00000000
,
00000000
00000000
00000000
00000000
,
00000000
00000000
00000000
00000000
,
00000000
00000000
00000000
00000000
,
00000000
00000000
00000000
00000000
,
00001000
00001000
00010000
00100000
,
00010000
00010000
00001000
00000010
,
00001000
00001000
00010000
01000000
,
01100000
01100000
01100000
00100000
,
00010000
01000000
10000000
01000000
,
00010000
01000000
10000000
01000000
,
00010000
00100000
00001000
01000000
,
00010000
00100000
00001000
01000000
,
00100000
00010000
00001000
00010000
,
00100000
00010000
00001000
00010000
,
00000100
00001000
00000010
00010000
,
00011000
00011000
00022000
00033000
,
00000100
00000000
00001000
00000000
00000010
00001000
00000010
00001000
,
00000001
00000000
00000010
00000100
00001000
00000000
00000100
00000000
,
00010000
00001000
00100000
00000000
00100000
00000000
00010000
00000000
,
01000000
00000000
00100000
10000000
00010000
00000000
01010000
00000000
,
10000000
00000000
00100000
01000000
00010000
00000000
00100000
00000000
,
00001000
00010000
00000100
00010000
00001000
00000000
00000010
00000000
,
00000110
00000000
00000100
00001000
00000001
00000000
00000100
00000000
,
00002000
00010000
00103000
00011000
,
01000000
00000000
00010000
10000000
00100000
10000000
00010000
00000000
,
00100000
00000000
00001000
00010000
00000100
00001000
00000010
00000000
,
00000100
00000001
00001000
00000000
00001000
00000001
00000010
00000000
,
00000100
00001000
00000100
00010000
00002000
00000000
00003000
00000000
,
00100000
00001000
00010000
00000000
00000010
00010000
00001000
00000000
,
02000000
03200000
02300000
03200000
,
00310000
00001000
00100000
00000000
00001000
00010000
00000010
00000000
,
00000200
00000320
00000230
00000320
,
00001030
00001000
00000100
00010000
,
00001000
00001000
00100000
00010000
,
01000000
01000000
00100000
10000000
,
01000000
01000000
00010000
00001000
,
00000010
00000010
00000100
00010000
,
00001000
00001000
00000010
00000001
,
00000100
00000100
00001000
00010000
,
00011000
00011000
00022000
00033000
,
00100000
00001000
00010000
00000000
00100000
00000000
00010000
00000000
,
00000010
00010000
00001000
00000000
00000010
00000000
00001000
00000000
,
01000000
00001000
00010000
00000000
01000000
00000000
00010000
00000000
,
00000100
00010000
00001000
00000000
00000100
00000000
00001000
00000000
,
00010000
00100000
00010000
00000000
00001000
00010000
00001000
00000000
,
00010000
01000000
00010000
00000000
00001000
00010000
00001000
00000000
,
00000010
00000100
00001000
00000000
00000010
00000100
00001000
00000000
,
00011000
00011000
00022000
00033000
,
00010000
00010000
00100000
00100000
,
10000000
10000000
01000000
01000000
,
00010000
00010000
00001000
00001000
,
00000010
00000100
00000220
00000330
,
00000001
00000001
00000100
00000100
,
00001000
00001000
00010000
00010000
,
01000000
01000000
10000000
10000000
,
00100000
01000000
02200000
03300000
,
10000000
01000000
00100000
00000000
00220000
00000000
00330000
00000000
,
00001000
00000100
00000010
00000000
00000022
00000000
00000033
00000000
,
00000001
00000100
00000010
00000000
00001000
00000100
00010000
00000000
,
00021000
00030010
00021000
00030010
,
00000001
00000100
00000010
00000000
00002020
00000000
00003030
00000000
,
00010000
01000000
00100000
00000000
20200000
00000000
30300000
00000000
,
00010000
00100000
01000000
00000000
00100000
00001000
00010000
00000000
,
00012000
00103000
00012000
00103000
,
10000000
00010000
01000000
00000000
02020000
00000000
03030000
00000000
,
00001000
00000001
00000100
00000000
00000202
00000000
00000303
00000000
,
00000001
00000010
00000001
00001000
00000100
00010000
00001000
00000000
,
00202000
00303000
00020020
00030030
,
00000001
00001000
00000010
00000000
00002020
00000000
00003030
00000000
,
00010000
10000000
00100000
00000000
20200000
00000000
30300000
00000000
,
10000000
01000000
10000000
00010000
00100000
00001000
00010000
00000000
,
00000010
00001000
00000001
00000000
00000010
00000000
00000110
00000000
,
00000100
00010000
00001000
00000000
00200000
00000000
00010000
00000000
,
01300000
10000000
00010000
00000000
01000000
00000000
00001000
00000000
,
00021000
00000010
00030200
00001000
,
00000320
00000001
00000230
00010300
,
00011000
00000000
00100000
00010000
00100000
00000000
01000000
10000000
,
01000000
00000000
00010000
00001000
00000010
00000000
00000100
00000000
,
00001100
00001000
00000011
00000001
,
00000220
00000000
00000330
00000000
,
00001000
00000010
00010000
00000000
00002000
00000000
00100000
00000000
,
00013000
00000100
00010000
00000000
00001000
00000000
01000000
00000000
,
00020000
00100000
20030000
00100000
,
32000000
00000000
00010000
00000000
03100000
00001000
00010000
00000100
,
00001000
00000000
00000010
00001000
00000010
00000000
00000100
00000010
,
00000100
00000000
00000001
00000100
00000001
00000000
00000010
00000000
,
00000110
00001000
00001100
00010000
,
00022000
00033000
02200000
03300000
,
10000000
01000000
10000000
00000000
00100000
00000000
00100000
00000000
,
01000000
00010000
01000000
00000000
00001000
00000000
00001000
00000000
,
00010000
00000010
00001000
00000000
00001000
00000001
00000010
00000000
,
00000100
00000110
00002002
00003003
,
00000001
00000100
00000001
00000000
00000010
00000000
00000010
00000000
,
00000100
00001000
00000100
00000000
00010000
00000000
00010000
00000000
,
00001000
00100000
00010000
00000000
00010000
10000000
00100000
00000000
,
02200000
00000000
03300000
00000000
10000000
00000000
01000000
00000000
00000000
10000000
00010000
00000000
00100000
00000000
00001000
00000000
,
00000000
00010000
00000100
00000000
00001000
00000000
00000010
00000100
00000010
00000000
00000100
00000000
00000001
00000000
00001000
00000000
,
00010000
10000000
00010000
10000000
01000000
00000000
00220000
00000000
,
00330000
00000000
00000001
00001000
00000100
00000000
00000022
00000000
,
00000033
00000000
00001000
00000010
00000100
00000010
00001000
00000100
,
00010000
00012000
00103000
00021000
,
00030010
00000000
00001000
00000001
00000100
00000000
00002020
00000000
,
00003030
00000000
10000000
00010000
01000000
00000000
20200000
00000000
,
30300000
00000000
00010000
00100000
00001000
00010000
00000100
00001000
,
00000010
00021000
01030000
00012000
,
00003100
00000000
00100000
00010000
01000000
00000000
20020000
00000000
,
30030000
00000000
00000010
00000001
00000100
00000000
00002002
00000000
,
00003003
00000000
00001000
00000100
00000010
00001000
00010000
00001000
,
00100000
00010000
01000000
00000000
10010000
00000000
00100000
00000000
,
01100000
00000000
10000000
01000000
00010000
00000000
00002000
00000000
,
00100000
00000000
00013000
00000100
00001000
00000000
00000010
00000000
,
00000110
00000201
00000010
00002300
,
00010000
00000000
00203000
00000000
01000000
00000000
00310000
10000000
,
01000000
00100000
00010000
00000000
00010000
01000000
00001000
00000000
,
00001000
00010000
00000010
00000000
00000010
00001000
00000100
00000000
,
00000010
00000011
00001000
00001100
,
00010000
00011000
00101000
00110000
,
01000000
20020000
00000000
00000000
,
00000000
30030000
00000000
00000000
;
