#VERSION:0.83;
#TITLE:Mächö Mönky;
#SUBTITLE:;
#ARTIST:kors k;
#TITLETRANSLIT:Macho Monky;
#SUBTITLETRANSLIT:;
#ARTISTTRANSLIT:;
#GENRE:JUNGLE TERROR;
#CREDIT:;
#MUSIC:Macho Monky.ogg;
#BANNER:Macho Monky.png;
#BACKGROUND:Macho Monky-bg.png;
#CDTITLE:./CDTitles/bm IIDX 26 Rootage.png;
#SAMPLESTART:13.807;
#SAMPLELENGTH:15.000;
#SELECTABLE:YES;
#OFFSET:0.585;
#BPMS:0.000=150.000;
#STOPS:;
#TIMESIGNATURES:0.000=4=4;
#BGCHANGES:0.000=Macho Monky.mp4=1.000=0=0=0=StretchNoLoop====,
99999.000=-nosongbg-=1.000=0=0=0=StretchNoLoop====
;
#FGCHANGES:;

//--------------- dance-single - forcednature ----------------
#NOTEDATA:;
#STEPSTYPE:dance-single;
#DESCRIPTION:forcednature;
#CREDIT:forcednature;
#DIFFICULTY:Beginner;
#METER:4;
#RADARVALUES:0,0,0,0,0;
#NOTES:
0000
0000
0000
0000
,
0000
0000
0000
0000
,
0000
0000
0000
0000
,
0000
0000
0000
0000
,
0000
0000
0000
0000
,
1000
0000
0000
0000
,
0100
0000
0000
0000
,
0010
0000
0010
0000
,
0002
0000
0000
0003
,
0100
0000
0010
0000
,
0100
0000
0000
0000
,
0010
0000
1000
0000
,
0001
0000
0001
0000
,
0010
0000
0100
0000
,
0010
0000
0000
0000
,
0100
0000
1000
0000
,
0002
0000
0000
0003
,
0100
0000
0010
0000
,
1000
0000
0010
0000
,
0100
0000
0010
0000
,
1000
0000
0000
0000
,
0100
0000
0010
0000
,
0001
0000
0010
0000
,
0100
0000
0010
0000
,
0001
0000
1000
0000
,
2002
0000
0000
0000
,
0000
0000
3003
0000
,
0220
0000
0000
0000
,
0000
0000
0330
0000
,
2002
0000
0000
0000
,
0000
0000
3003
0000
,
0220
0000
0000
0000
,
0000
0000
0330
0000
,
1001
0000
1000
0000
,
0100
0000
1000
0000
,
1001
0000
0001
0000
,
0100
0000
0001
0000
,
1001
0000
1000
0000
,
0010
0000
0100
0000
,
0001
0001
0001
0000
,
0010
0000
0100
0100
,
0000
1000
0000
1000
,
0000
1000
0000
0010
,
0000
0100
0000
0100
,
0000
0100
0001
1000
,
0000
0001
0000
0001
,
0000
0010
0000
0010
,
0000
0100
0000
0100
,
1000
0000
0010
0100
,
0000
0001
0001
0000
,
0001
0001
0000
0001
,
0000
1000
1000
0000
,
0010
0000
0100
0000
,
0001
0000
0010
0000
,
0100
0000
1000
0000
,
0010
0010
0010
0000
,
0200
0000
0300
0000
,
2002
0000
3003
0000
,
0220
0000
0330
0000
,
2002
0000
3003
0000
,
0220
0000
0330
0000
,
1001
0000
0100
0000
,
0110
0000
0010
0000
,
1001
0000
0100
0000
,
0220
0000
0000
0330
,
1001
0000
0000
1000
,
0010
0000
0000
0100
,
0001
0000
0000
0010
,
0200
0000
0000
0300
,
1000
0000
0010
0000
,
0100
0000
0001
0000
,
0010
0010
0010
0000
,
0100
1000
0001
0000
,
2002
0000
0000
0000
,
0000
0000
0000
3003
;

//--------------- dance-single - forcednature ----------------
#NOTEDATA:;
#STEPSTYPE:dance-single;
#DESCRIPTION:forcednature;
#CREDIT:forcednature;
#DIFFICULTY:Easy;
#METER:9;
#RADARVALUES:0,0,0,0,0;
#NOTES:
0000
0000
0000
0000
,
0000
0000
0000
0000
,
0000
0000
0000
0000
,
0000
0000
0000
0000
,
0000
0000
0000
0000
,
0001
0100
0010
0010
,
0100
0001
0010
0000
,
0100
1000
0010
0010
,
0200
0000
0000
0301
,
1001
1000
0100
0100
,
1000
0001
0010
0000
,
0001
1000
0010
0010
,
1000
0001
0100
1001
,
0001
1000
0100
0100
,
1000
0001
0010
0000
,
0001
1000
0010
0010
,
0200
0000
0001
0310
,
1001
1000
0100
1000
,
0010
1000
0100
1000
,
0001
0100
0001
0010
,
0001
0100
0001
1001
,
1000
0010
0100
0010
,
1000
0001
0100
0001
,
1000
0100
0010
0100
,
0020
0000
0031
1001
,
0000
1000
1000
1000
,
1000
1000
1000
0010
,
0110
0001
0001
0001
,
0001
0001
0001
0010
,
0110
1000
1000
1000
,
1000
1000
1000
0010
,
0110
0001
0001
0001
,
0010
0010
0010
0000
,
2001
0100
0001
0100
,
0001
0100
3001
0000
,
1002
0100
1000
0100
,
1000
0100
1003
0000
,
2001
0010
0001
0010
,
0001
0100
0001
3100
,
1000
0010
0100
0001
,
0010
0100
0010
0100
0010
0000
0110
0000
,
0000
1000
0001
0000
0100
0000
0100
0000
,
0001
1000
0001
0000
0100
0000
0100
0000
,
0000
0001
1000
0000
0100
0000
0100
0000
,
1000
0001
1000
0000
0100
0000
0110
0000
,
0000
1000
0001
0000
0010
0000
0010
0000
,
0001
1000
0001
0000
0010
0000
0010
0000
,
0000
0001
1000
0000
0100
0000
0100
0000
,
0220
0000
0330
1001
,
0000
1000
0100
0000
1000
0000
1000
0000
,
0010
1000
0010
0000
0100
0000
0100
0000
,
0000
0001
0010
0000
0001
0000
0001
0000
,
0100
0000
0100
0010
0000
0100
0010
0000
,
0000
1000
0100
0000
1000
0000
1000
0010
,
1000
0000
0100
0000
0010
0100
0010
0000
,
0002
0100
1000
0013
,
0001
1000
0001
1000
0001
0000
1001
0000
,
1000
0100
0000
0010
0100
0000
0010
0000
,
0001
0100
0000
0010
0100
0000
0010
0000
,
1000
0100
0000
0010
0100
0000
0010
0000
,
0001
0100
0000
0010
0100
0000
1001
0000
,
0110
0000
1000
0000
0001
0100
0001
0000
,
0110
0000
0000
0000
1000
0100
1000
0000
,
0110
0000
0001
0000
1000
0010
1000
0000
,
0000
0100
0010
0100
0010
0100
0010
0000
,
0110
0001
1000
1001
,
0110
1000
0001
1001
,
0110
0001
0010
1001
,
1000
0000
0100
1000
0000
0010
0100
0000
,
0001
0000
0000
0001
0000
0000
0010
0000
0100
0000
0000
0100
0000
0000
1000
0000
,
0010
0000
0000
0010
0000
0000
0100
0000
0001
0000
0000
0001
0000
0000
1000
0000
,
0100
0000
0010
0100
0010
0000
0001
0010
,
0001
0000
0100
0010
0100
0000
0110
0000
,
2002
0000
0000
0000
,
0000
0000
0000
3003
;

//--------------- dance-single - forcednature ----------------
#NOTEDATA:;
#STEPSTYPE:dance-single;
#DESCRIPTION:forcednature;
#CREDIT:forcednature;
#DIFFICULTY:Medium;
#METER:13;
#RADARVALUES:0,0,0,0,0;
#NOTES:
0000
0000
0000
0000
,
0000
0000
0000
0000
,
0000
0000
0000
0000
,
0000
0000
0000
0000
,
0000
0000
0000
0000
,
1000
0100
0010
0100
2000
0000
3002
0000
,
1003
0100
0010
0100
2000
0000
3000
0000
,
0001
0100
0010
0100
0002
0000
2003
0000
,
3010
0010
0100
0100
0010
0100
0110
0000
,
0001
1000
0100
0001
0100
0000
1100
0000
,
0001
1000
0100
0001
0100
0000
1000
0010
,
1000
0001
0100
1000
0100
0000
0101
0000
,
1000
0001
0100
1000
0100
0000
1001
0000
,
0001
1000
0010
0001
0010
0000
1010
0000
,
0001
1000
0010
0001
0010
0000
1000
0100
,
1000
0001
0010
1000
0010
0000
0011
0000
,
1000
0000
0000
0100
0000
0000
0010
0000
0001
0000
0001
0000
0100
0000
0000
0000
,
0001
0000
0010
0000
1000
0000
0010
0000
0001
0000
0000
0001
0000
0000
0100
0000
,
0001
0000
0010
0000
1000
0000
0010
0000
0001
0000
0000
0001
0000
0000
0000
0000
,
1000
0000
0010
0000
0001
0000
0010
0000
1000
0000
0000
1000
0000
0000
0100
0000
,
1000
0010
0001
0010
1000
0000
1001
0000
,
0001
0000
0100
0000
1000
0000
0100
0000
0001
0000
0000
0001
0000
0000
0010
0000
,
0001
0000
0100
0000
1000
0000
0100
0000
0001
0000
0000
0001
0000
0000
0000
0000
,
1000
0000
0100
0000
0001
0000
0100
0000
1000
0000
0000
1000
0000
0000
0010
0000
,
0200
0000
0001
0001
0301
0000
0010
0000
,
1002
0000
1003
0100
0010
0100
1000
0100
,
0010
0100
1000
0100
0010
0000
0110
0000
,
2001
0000
3001
0100
0010
0100
0001
0100
,
0010
0100
0001
0100
0010
0000
0110
0000
,
1002
0000
1003
0010
0100
0010
1000
0010
,
0100
0010
1000
0010
0100
0000
0110
0000
,
2001
0000
3001
0010
0100
0010
0001
0010
,
0100
0010
0001
0010
0100
0000
0110
0000
,
1002
0000
1003
0010
0100
0010
0001
0010
,
0100
0010
1000
0010
0100
0000
0110
0000
,
2001
0000
3001
0010
0100
0010
1000
0010
,
0100
0010
0001
0010
0100
0000
0110
0000
,
1002
0000
1003
0100
0001
0100
1000
0001
,
1000
0010
0001
0010
1000
0001
1000
0100
,
1000
0010
0100
0001
0010
0001
0100
0010
,
1000
0001
1000
0001
0100
0000
0110
0000
,
0000
0000
0000
0001
0000
0000
0010
0000
0000
0001
0000
0000
0100
0000
0000
0000
0000
0100
0000
0000
0000
0010
0000
0000
,
1000
0000
0000
0100
0000
0000
1000
0000
0000
0001
0000
0000
0010
0000
0000
0000
0000
0100
0000
0000
0000
0110
0000
0000
,
0000
0000
0000
1000
0000
0000
0001
0000
0000
0100
0000
0000
0000
0000
0100
0000
0000
0000
0010
0000
0000
1000
0000
0000
,
0001
0000
0000
0010
0000
0000
0100
0000
0000
1000
0000
0000
0000
0000
0010
0000
0000
0000
0110
0000
0000
0000
0000
0000
,
0000
0000
0000
1000
0000
0000
0100
0000
0000
1000
0000
0000
0001
0000
0000
0000
0000
0001
0000
0000
0000
0010
0000
0000
,
0001
0000
0000
1000
0000
0000
0001
0000
0000
0100
0000
0000
0110
0000
0000
0000
0000
0001
0000
0000
0000
1000
0000
0000
,
0000
0000
0000
0100
0000
0000
0100
0000
0000
1000
0000
0000
0010
0000
0000
0000
0000
0010
0000
0000
0000
1000
0000
0000
,
0001
0010
0100
0010
0001
0000
1001
0000
,
0000
0000
0000
1000
0000
0000
0100
0000
0000
1000
0000
0000
0010
0000
0000
0000
0000
0010
0000
0000
0000
0100
0000
0000
,
0001
0000
0000
0001
0000
0000
0010
0000
0000
0001
0000
0000
1000
0000
0000
0000
0000
0100
0000
0000
0000
1100
0000
0000
,
0000
0000
0000
0001
0000
0000
0100
0000
0000
0010
0000
0000
0000
0000
0010
0000
0000
0000
1000
0000
0000
0001
0000
0000
,
0010
0000
0100
0000
0000
0000
0010
0000
0000
0010
0000
0100
0000
0000
0000
0010
0000
0000
1001
0000
0000
0000
0000
0000
,
0001
0000
0000
0000
0000
0100
0001
0000
0000
0100
0000
0000
0010
0000
0000
0000
0000
1000
0010
0000
0000
1000
0000
0000
,
0100
0000
0000
0000
0000
0010
0100
0000
0000
0010
0000
0000
0001
0000
0000
0000
0000
0100
0010
0000
0000
1000
0000
0000
,
0001
0010
0100
1000
0001
0010
0100
1000
,
0010
0100
0001
0100
0010
0000
0110
0000
,
2000
3002
0003
0010
0010
0010
0010
0000
,
0002
2003
3000
0010
0010
0010
0010
0000
,
0200
0302
0003
0010
0010
0010
0010
0000
,
0200
2300
3000
0010
0010
0010
0010
0000
,
0110
0000
0000
0001
0000
0000
1000
0000
1000
0000
1000
0000
1000
0000
0000
0000
,
0010
0100
0000
0001
0001
0001
0001
0000
,
0010
0000
0000
0100
0000
0000
1000
0000
1000
0000
1000
0000
1000
0000
0000
0000
,
0020
0230
0320
0230
0320
0030
0110
0000
,
0001
0000
0000
0000
0000
0100
0001
0000
0000
0100
0000
0000
0010
0000
0000
1000
0000
0000
0001
0000
0000
0000
0000
0000
,
1000
0000
0000
0000
0000
0100
1000
0000
0000
0100
0000
0000
0010
0000
0000
0001
0000
0000
1000
0000
0000
0000
0000
0000
,
0010
0000
0000
0000
0000
0110
0000
0000
0000
0100
0000
0000
0001
0000
0000
1000
0000
0000
0010
0000
0000
0000
0000
0000
,
1000
0000
0001
1000
0000
0001
1000
0000
0100
0000
0010
0000
1001
0000
0000
0000
,
1000
0000
0100
1000
0000
0010
0000
0000
0100
0000
0001
0100
0000
0010
0000
0000
,
1000
0000
0001
0010
0000
0001
0000
0000
1000
0000
0100
0010
0000
0100
0000
0000
,
1000
0010
0100
1000
0100
0001
1000
0010
,
1000
0001
1000
0000
0010
0000
0100
0000
0001
0000
0010
0000
0110
0000
0000
0000
,
2002
0000
0000
0000
,
0000
0000
0000
3003
;

//--------------- dance-single - forcednature assist by extraordiberry ----------------
#NOTEDATA:;
#STEPSTYPE:dance-single;
#DESCRIPTION:forcednature assist by extraordiberry;
#CREDIT:forcednature assist by extraordiberry;
#DIFFICULTY:Hard;
#METER:16;
#RADARVALUES:0,0,0,0,0;
#NOTES:
0000
0000
0000
0000
,
0000
0000
0000
0000
,
0000
0000
0000
0000
,
0000
0000
0000
0000
,
0000
0000
0000
0000
,
0001
0000
0100
0000
0010
0000
0100
0000
0001
1000
0000
0000
1000
0001
0000
0000
,
1000
0000
0100
0000
0010
0000
0100
0000
1000
0001
0000
0000
1000
0000
0000
0000
,
0001
0000
0100
0000
0010
0000
0100
0000
0001
1000
0000
0000
1000
0001
0000
0000
,
0100
0010
0100
0010
0100
0010
0100
0010
0100
0010
0100
0010
2000
0000
0000
0000
,
3100
0000
0001
0000
0100
0000
1000
0000
0001
0010
0000
0000
0010
0001
0000
0000
,
0100
0000
1000
0000
0100
0000
0001
0000
1000
0010
0000
0000
1000
0000
0001
0000
,
0100
0000
1000
0000
0100
0000
0001
0000
1000
0010
0000
0000
0010
1000
0000
0000
,
0100
0000
0001
0000
0100
0000
1000
0000
0001
0010
0000
0000
MMMM
0000
0000
0000
,
0100
0000
1000
0000
0100
0000
0001
0000
1000
0010
0000
0000
0010
1000
0000
0000
,
0100
0000
0001
0000
0100
0000
1000
0000
0001
0010
0000
0000
0001
0000
0100
0000
,
0010
0000
0001
0000
0010
0000
1000
0000
0001
0100
0000
0000
0100
0001
0000
0000
,
2010
0000
0000
0010
3000
0000
0001
1000
0001
0000
0100
0000
0110
0000
1000
0000
,
0001
0000
0010
0000
0100
0000
0010
0000
0001
0100
0000
0100
0000
0010
1000
0000
,
0100
0000
0010
0000
0100
0000
1000
0000
0010
0100
0000
0001
0010
0001
0010
0000
,
0001
0000
0100
0000
0010
0000
0100
0000
0001
1000
0000
0010
1000
0010
1000
0000
,
0100
0000
0010
0000
0001
0000
0010
0000
0100
1000
0100
0000
MMMM
0000
0000
0000
,
0001
0000
0010
0000
1000
0000
0010
0000
0001
0000
0100
0010
0000
1000
0010
0000
,
1000
0000
0100
0000
0001
0000
0100
0000
1000
0000
0010
0100
0000
0001
0010
0001
,
0010
0000
0100
0000
1000
0000
0100
0000
0010
0000
0001
0100
0000
0010
0100
0010
,
0100
1000
0100
0001
0100
0000
0110
0000
,
2001
0000
0100
0100
0100
0100
0100
0100
,
0100
0100
0100
0100
3100
0000
MMMM
0000
,
1002
0000
0100
0100
0100
0100
0100
0100
,
0100
0100
0100
0100
0103
0000
MMMM
0000
,
2001
0000
0100
0001
0100
0001
0100
0001
,
0100
0001
0100
0001
3100
0000
MMMM
0000
,
1002
0000
0100
1000
0100
1000
0100
1000
,
0100
1000
0100
1000
0103
0000
MMMM
0000
,
2001
0000
0001
3010
2001
0100
0001
3010
,
2001
0100
0001
3010
1001
0000
MMMM
0000
,
1002
0000
1000
0013
1002
0100
1000
0013
,
1002
0100
1000
0013
1001
0000
MMMM
0000
,
2001
0000
3100
0110
0001
0100
0110
1000
,
0100
0110
0001
0010
0110
1000
1001
0010
,
0110
0000
0001
0100
0001
0000
1000
0100
1000
0000
0001
0010
0100
0000
1000
0020
,
0100
0100
0100
0100
0130
0000
MMMM
0000
,
0000
0000
1000
0100
0000
1000
0100
0000
0000
0010
0000
0000
0100
0000
0000
0010
0000
0001
0010
0000
0000
0001
0000
0100
,
0001
0000
0100
0001
0000
0000
0100
0000
0010
0100
0000
0000
0010
0000
1000
0010
0000
1000
0001
0000
0000
0100
0000
0000
,
0000
0000
0001
0010
0000
0001
0010
0000
0000
0100
0000
0010
0000
0000
0100
1000
0000
0100
1000
0000
0000
0001
0000
0000
,
0100
0000
0000
0010
0000
0100
0010
0000
1000
0010
0000
1000
0000
0000
0001
0010
0000
0100
1000
0000
0000
1000
0000
0000
,
0000
0000
0001
0100
0000
0000
0010
0000
0100
0010
0000
0100
0010
0000
1000
0100
0000
1000
0000
0000
0001
0100
0000
0001
,
0100
0000
0000
0010
0000
0100
0010
0000
0000
1000
0000
0100
0010
0000
0100
1000
0000
0100
0010
0000
0000
0001
0000
0000
,
0000
0000
0100
0001
0000
0100
0001
0000
0000
0100
0000
0010
0000
0000
1000
0100
0000
1000
0100
0000
0000
1000
0000
0002
,
0010
0010
0010
0010
0013
0000
MMMM
0000
,
0000
0000
1000
0100
0000
1000
0100
0000
0000
1000
0000
0000
0010
0000
0100
0010
0000
0100
0001
0000
0100
0010
0000
1000
,
0010
0000
1000
0100
0000
1000
0010
0000
0100
0010
0000
0100
0001
0000
0010
0001
0000
0010
0100
0000
0000
0110
0000
0000
,
0000
0000
1000
0100
0000
1000
0100
0000
0000
1000
0000
0010
0000
0000
0100
0010
0000
0100
0010
0000
0000
0110
0000
0000
,
0001
0000
0010
0100
0000
0100
1000
0000
0000
0001
0000
0010
0100
0000
0100
1000
0000
0000
0010
0000
0000
0110
0000
0000
,
0000
0000
1000
0001
0000
0100
0001
0000
0000
1000
0000
0000
0010
0000
1000
0100
0000
1000
0010
0000
0000
0110
0000
0000
,
0100
0000
0001
0010
0000
0100
0010
0000
0100
1000
0000
0010
0100
0000
0001
0010
0000
0100
1000
0000
0000
0110
0000
0000
,
0001
1000
0001
1000
0001
1000
0001
1000
0100
1000
0001
1000
0100
1000
0001
1000
,
0200
0010
0010
0010
0310
0000
MMMM
0000
,
1000
0000
1010
0000
0000
0000
0001
0100
0010
0100
0001
0100
0010
0100
0000
0000
,
0001
0000
0011
0000
0000
0000
1000
0100
0010
0100
1000
0100
0010
0100
0000
0000
,
1000
0000
1010
0000
0000
0000
0001
0100
0010
0100
0001
0100
0010
0100
0000
0000
,
2002
0000
0000
0000
0000
3003
MMMM
0000
,
1100
0000
0000
0001
0010
0000
0001
0100
0010
1000
0001
0100
0010
1000
0000
0000
,
0101
0000
1000
0000
0000
0000
0010
0100
0001
0100
0010
1000
0010
0100
0000
0000
,
0110
0000
0000
0001
1000
0000
0100
0010
0001
1000
0100
0010
0001
1000
0000
0000
,
0010
0000
1010
0000
1010
0000
0110
0000
0110
0000
1010
0000
0010
1000
0001
0100
,
0010
0000
0000
0000
0000
1000
0100
0000
0000
1001
0000
0000
0010
0000
0000
1001
0000
0000
0110
0000
0000
MMMM
0000
0000
,
0010
0000
0000
0000
0000
0001
0100
0000
0000
1001
0000
0000
0110
0000
0000
1001
0000
0000
0110
0000
0000
MMMM
0000
0000
,
1100
0000
0000
0000
0000
0000
0000
0000
0000
0000
1010
0000
0000
0000
0000
0000
0000
0000
0110
0000
0000
0000
0000
0000
0101
0000
0000
0000
0000
0000
0011
0000
0000
0000
0000
0000
0010
0000
0000
0100
0000
0000
1000
0000
0000
0001
0000
0000
,
0010
0000
0001
0100
0000
1000
0100
1000
0100
0000
0001
0000
MMMM
0000
0000
0000
,
0001
0100
0000
0010
0100
0010
0100
0000
0010
1000
0000
0100
1000
0100
1000
0000
,
0010
0100
0000
0001
0010
0001
0010
0000
0001
0000
0001
0100
0010
0000
1000
0000
,
0100
0000
0010
0001
0100
0000
0010
1000
0100
0000
0010
0001
0100
0000
0010
1000
,
0100
0010
0100
0010
0001
0010
0001
0010
0100
1000
0001
0100
0010
0000
MMMM
0000
,
2002
0000
0000
0000
,
0000
0000
0000
3003
;

//--------------- dance-double - forcednature ----------------
#NOTEDATA:;
#STEPSTYPE:dance-double;
#DESCRIPTION:forcednature;
#CREDIT:forcednature;
#DIFFICULTY:Easy;
#METER:9;
#RADARVALUES:0,0,0,0,0;
#NOTES:
00000000
00000000
00000000
00000000
,
00000000
00000000
00000000
00000000
,
00000000
00000000
00000000
00000000
,
00000000
00000000
00000000
00000000
,
00000000
00000000
00000000
00000000
,
00001000
00010000
00000100
00000100
,
00010000
00001000
00100000
00000000
,
00001000
00010000
00000010
00000010
,
00002000
00000000
00000000
00003100
,
00001001
00000001
00000010
00000010
,
00000001
00001000
00000100
00000000
,
00010000
00001000
00100000
00100000
,
00010000
01000000
00100000
10010000
,
10000000
01000000
00100000
00100000
,
00010000
00100000
00001000
00000000
,
00010000
00000010
00001000
00001000
,
00000002
00000000
00000103
00000110
,
00001001
00001000
00000100
00010000
,
00001000
00100000
00001000
00000000
,
00010000
00001000
01000000
00010000
,
01000000
00100000
10000000
00000000
,
00010000
00100000
00001000
00010000
,
00000100
00001000
00000010
00000000
,
00000100
00000001
00001000
00000100
,
00020000
00000000
00031000
00011000
,
00000000
00100000
00100000
00100000
,
00100000
00100000
00100000
00000000
,
00011000
00000010
00000010
00000010
,
00000010
00000010
00000010
00000000
,
00011000
01000000
01000000
01000000
,
01000000
01000000
01000000
00000000
,
00011000
00000100
00000100
00000100
,
00000010
00000010
00000110
00000000
,
00000100
00010000
00001000
00100000
,
00001000
00010000
00000100
00000000
,
01000000
00001000
00010000
00000010
,
00010000
00001000
01000000
00000000
,
00010000
00100000
00001000
00010000
,
00000100
00001000
00000010
00000100
,
00000001
00000010
00000100
00010000
,
00001000
00001000
00011000
00100000
,
00000000
00010000
01000000
00000000
00010000
00000000
00010000
00000000
,
10000000
00010000
10000000
00000000
00100000
00000000
00100000
00000000
,
00000000
01000000
00001000
00000000
00010000
00000000
00010000
00000000
,
00000100
00001000
00000100
00000000
00000010
00000000
00000110
00000000
,
00000000
00000001
00001000
00000000
00000010
00000000
00000010
00000000
,
00001000
00000001
00001000
00000000
00000010
00000000
00000010
00000000
,
00000000
00010000
00001000
00000000
01000000
00000000
01000000
00000000
,
00200000
00000000
00300000
10010000
,
00000000
10000000
01000000
00000000
10000000
00000000
10000000
00000000
,
00010000
00100000
00010000
00000000
00100000
00000000
00100000
00000000
,
00000000
00001000
00010000
00000000
00001000
00000000
00001000
00000000
,
00010000
00000000
00010000
00000100
00000000
00000100
00010000
00000000
,
00000000
00001000
00010000
00000000
00000010
00000000
00000010
00001000
,
00000010
00000000
00000100
00000000
00000001
00000100
00000001
00000000
,
00002000
00000100
00000100
00003010
,
00010000
00001000
00010000
00001000
00010000
00000000
00011000
00000000
,
00100000
00010000
00000000
01000000
00000000
01000000
00000000
00000000
,
00100000
10000000
00000000
00010000
00000000
00010000
00000000
00000000
,
01000000
00001000
00000000
00010000
00000000
00010000
00000000
00000000
,
00000200
00000000
00000000
00001000
00000000
00001000
00000300
00000000
,
00001001
00000000
00001000
00000000
00000100
00001000
00000100
00000000
,
00011000
00000000
00000000
00000000
00100000
00010000
00100000
00000000
,
01100000
00000000
10000000
00000000
00010000
01000000
00010000
00000000
,
00000000
00100000
00100000
00010000
00100000
00100000
00001000
00000000
,
00011000
00000100
00001000
00000010
,
00011000
01000000
00010000
10010000
,
01100000
00010000
00100000
00011000
,
00000100
00000000
00000100
00001000
00000000
00000100
00000010
00000000
,
00000001
00000000
00000000
00000001
00000000
00000000
00000100
00000000
00000010
00000000
00000000
00000010
00000000
00000000
00001000
00000000
,
00000100
00000000
00000000
00000100
00000000
00000000
00010000
00000000
00001000
00000000
00000000
00001000
00000000
00000000
00100000
00000000
,
00010000
00000000
01000000
00010000
01000000
00000000
00100000
01000000
,
00100000
00000000
10000000
00100000
10000000
00000000
01000000
00000000
,
20020000
00000000
00000000
00000000
,
00000000
00000000
00000000
30030000
;

//--------------- dance-double - forcednature ----------------
#NOTEDATA:;
#STEPSTYPE:dance-double;
#DESCRIPTION:forcednature;
#CREDIT:forcednature;
#DIFFICULTY:Medium;
#METER:13;
#RADARVALUES:0,0,0,0,0;
#NOTES:
00000000
00000000
00000000
00000000
,
00000000
00000000
00000000
00000000
,
00000000
00000000
00000000
00000000
,
00000000
00000000
00000000
00000000
,
00000000
00000000
00000000
00000000
,
00010000
00000010
00001000
00000010
00000200
00000300
00000200
00000300
,
00001000
00100000
00010000
00100000
02000000
03000000
00000000
00000000
,
00010000
00000100
00001000
00000100
00000020
00000030
00000020
00000030
,
00000001
00000001
00000100
00000100
00001000
00010000
00011000
00000000
,
00100000
00010000
10000000
01000000
00010000
00000000
00011000
00000000
,
00100000
00010000
10000000
01000000
00010000
00000000
00001000
00010000
,
00000010
00001000
00000001
00000100
00001000
00000000
00011000
00000000
,
00000010
00001000
00000001
00000100
00001000
00000000
00011000
00000000
,
01000000
00010000
10000000
00100000
00010000
00000000
00011000
00000000
,
01000000
00010000
10000000
00100000
00010000
00000000
00001000
00010000
,
00000100
00001000
00000001
00000010
00001000
00000000
00011000
00000000
,
00010000
00000000
00000000
01000000
00000000
00000000
10000000
00000000
00010000
00000000
00010000
00000000
00100000
00000000
00000000
00000000
,
00001000
00000000
00010000
00000000
00000100
00000000
00010000
00000000
00001000
00000000
00000000
00001000
00000000
00000000
00000010
00000000
,
00000001
00000000
00000100
00000000
00000001
00000000
00001000
00000000
00000010
00000000
00000000
00000010
00000000
00000000
00000100
00000000
,
00001000
00000000
00010000
00000000
00001000
00000000
00100000
00000000
00010000
00000000
00000000
00010000
00000000
00000000
01000000
00000000
,
00100000
10000000
00100000
00010000
00100000
00000000
10010000
00000000
,
10000000
00000000
01000000
00000000
00010000
00000000
01000000
00000000
00100000
00000000
00000000
00001000
00000000
00000000
00010000
00000000
,
00000100
00000000
00001000
00000000
00000010
00000000
00001000
00000000
00000001
00000000
00000000
00000010
00000000
00000000
00001000
00000000
,
00010000
00000000
00001000
00000000
00010000
00000000
01000000
00000000
10000000
00000000
00000000
00010000
00000000
00000000
00100000
00000000
,
00001000
00001000
00010000
00001000
00010000
00000000
00001010
00000000
,
00000201
00000000
00001300
00010000
00000010
00010000
00001000
00010000
,
00000100
00010000
00001000
00100000
00010000
00000000
00110000
00000000
,
12000000
00000000
03010000
00001000
00100000
00001000
00010000
00001000
,
01000000
00001000
00010000
00000010
00001000
00000000
00001010
00000000
,
00000201
00000000
00001300
00010000
00000010
00010000
00001000
00010000
,
00000100
00010000
00001000
00100000
00010000
00000000
00110000
00000000
,
12000000
00000000
03010000
00001000
00100000
00001000
00010000
00001000
,
01000000
00001000
00010000
00000010
00001000
00000000
00001010
00000000
,
00000102
00000000
00000013
00001000
00010000
00001000
01000000
00001000
,
00010000
00001000
00010000
00100000
10000000
00000000
10010000
00000000
,
21000000
00000000
30100000
00010000
00001000
00010000
00000100
00010000
,
00001000
00000010
00000001
00000010
00000100
00000000
00000110
00000000
,
00002001
00000000
00003001
00000100
00001000
00010000
00001000
00000100
,
00000001
00000010
00001000
00010000
00001000
00000010
00000001
00000100
,
00001000
00010000
00100000
01000000
00010000
00100000
01000000
10000000
,
00100000
00010000
00001000
00010000
00000100
00000000
00000110
00000000
,
00000000
00000010
00001000
00000010
00000001
00000001
00000100
00001000
,
00000000
00010000
00100000
10000000
01000000
00100000
00000000
01100000
,
00000000
00000000
00000000
01000000
00000000
00000000
10000000
00000000
00000000
00010000
00000000
00000000
00000000
00000000
00010000
00000000
00000000
00000000
00100000
00000000
00000000
00001000
00000000
00000000
,
00010000
00000000
00000000
00000100
00000000
00000000
00010000
00000000
00000000
00001000
00000000
00000000
00000000
00000000
00000010
00000000
00000000
00000000
00000110
00000000
00000000
00000000
00000000
00000000
,
00000000
00000000
00000000
00000100
00000000
00000000
00010000
00000000
00000000
00001000
00000000
00000000
00000010
00000000
00000000
00000000
00000000
00000010
00000000
00000000
00000000
00000001
00000000
00000000
,
00000100
00000000
00000000
00001000
00000000
00000000
00010000
00000000
00000000
00001000
00000000
00000000
00010000
00000000
00000000
00000000
00000000
00010000
00000000
00000000
00000000
00100000
00000000
00000000
,
00000000
00000000
00000000
10000000
00000000
00000000
10000000
00000000
00000000
01000000
00000000
00000000
10000000
00000000
00000000
00000000
00000000
10000000
00000000
00000000
00000000
00010000
00000000
00000000
,
00100000
01000000
00010000
00001000
00000010
00000000
00000110
00000000
,
00000000
00000000
00000000
00000100
00000000
00000000
00010000
00000000
00000000
00001000
00000000
00000000
00100000
00000000
00000000
00000000
00000000
00100000
00000000
00000000
00000000
00001000
00000000
00000000
,
00010000
01000000
00010000
00001000
00100000
00010000
01000000
10000000
,
00000000
00000000
00000000
01000000
00000000
00000000
00001000
00000000
00000000
00010000
00000000
00000000
00000000
00000000
00010000
00000000
00000000
00000000
00000010
00000000
00000000
00001000
00000000
00000000
,
00000001
00000000
00000020
00000000
00000000
00000000
00000130
00000000
00000000
00001000
00000000
00000020
00000000
00000000
00000000
00000130
00000000
00000000
00001001
00000000
00000000
00000000
00000000
00000000
,
00010000
00000000
00000000
00000000
00000000
00001000
00010000
00000000
00000000
00001000
00000000
00000000
00100000
00000000
00000000
00000000
00000000
00010000
00100000
00000000
00000000
00010000
00000000
00000000
,
01000000
00000000
00000000
00000000
00000000
00100000
01000000
00000000
00000000
01000000
00000000
00000000
00010000
00000000
00000000
00000000
00000000
00010000
00100000
00000000
00000000
00010000
00000000
00000000
,
10000000
00100000
01000000
00010000
00001000
00000010
00000100
00000001
,
00000010
00000100
00010000
00001000
00010000
00000000
00011000
00000000
,
00200000
00320000
00030000
10000000
10000000
10000000
10000000
00000000
,
02000000
03020000
00030000
00001000
00001000
00001000
00001000
00000000
,
00000020
00000230
00000300
00010000
00010000
00010000
00010000
00000000
,
00000020
00001030
00000000
00000001
00000001
00000001
00000100
00000000
,
00000110
00000000
00000000
00001000
00000000
00000000
00000100
00000000
00000100
00000000
00000100
00000000
00000100
00000000
00000000
00000000
,
00010000
00001000
00000000
00100000
00100000
00100000
00100000
00000000
,
00010000
00000000
00000000
01000000
00000000
00000000
10000000
00000000
10000000
00000000
10000000
00000000
10000000
00000000
00000000
00000000
,
02000000
03020000
20030000
30020000
00230000
00300000
00011000
00000000
,
00000100
00000000
00000000
00000000
00000000
00001000
00000100
00000000
00000000
00001000
00000000
00000000
00000010
00000000
00000000
00000100
00000000
00000000
00000001
00000000
00000000
00000000
00000000
00000000
,
00000010
00000000
00000000
00000000
00000000
00001000
00010000
00000000
00000000
00001000
00000000
00000000
00100000
00000000
00000000
00010000
00000000
00000000
01000000
00000000
00000000
00000000
00000000
00000000
,
00100000
00000000
00000000
00000000
00000000
10010000
00000000
00000000
00000000
10000000
00000000
00000000
01000000
00000000
00000000
10000000
00000000
00000000
00010000
00000000
00000000
00000000
00000000
00000000
,
00100000
00000000
00001000
00010000
00000000
00001000
00010000
00000000
00000100
00000000
00000000
00000000
00001001
00000000
00000000
00000000
,
00000001
00000000
00000000
00000100
00000000
00000100
00001000
00000000
00010000
00000000
00000000
00001000
00000000
00001000
00100000
00000000
,
00010000
00000000
00000000
10000000
00000000
10000000
00100000
00000000
01000000
00000000
01000000
00000000
00010000
00000000
10000000
00000000
,
01000000
00010000
01000000
00010000
00001000
00000010
00001000
00000010
,
00000001
00000100
00001000
00010000
01000000
10000000
00100000
00000000
,
20020000
00000000
00000000
00000000
,
00000000
00000000
00000000
30030000
;

//--------------- dance-double - forcednature assist by extraordiberry ----------------
#NOTEDATA:;
#STEPSTYPE:dance-double;
#DESCRIPTION:forcednature assist by extraordiberry;
#CREDIT:forcednature assist by extraordiberry;
#DIFFICULTY:Hard;
#METER:17;
#RADARVALUES:0,0,0,0,0;
#NOTES:
00000000
00000000
00000000
00000000
,
00000000
00000000
00000000
00000000
,
00000000
00000000
00000000
00000000
,
00000000
00000000
00000000
00000000
,
00000000
00000000
00000000
00000000
,
00001000
00000000
00010000
00000000
01000000
00000000
00010000
00000000
00001000
00100000
00000000
00000000
00001000
00100000
00000000
00000000
,
00001000
00000000
00010000
00000000
01000000
00000000
00010000
00000000
00001000
00100000
00000000
00000000
00001000
00000000
00000000
00000000
,
00010000
00000000
00001000
00000000
00000100
00000000
00001000
00000000
00010000
00000010
00000000
00000000
00010000
00000010
00000000
00000000
,
00000100
00000010
00000100
00000010
00000100
00000010
00000100
00000010
00000100
00000010
00000100
00000010
00002000
00000000
00000000
00000000
,
00003001
00000000
00000100
00000000
00001000
00000000
00010000
00000000
00100000
10000000
00000000
00000000
00100000
10000000
00000000
00000000
,
00010000
00000000
00100000
00000000
01000000
00000000
00010000
00000000
00001000
00100000
00000000
00000000
00010000
00000000
00000000
00000000
,
10000000
00000000
01000000
00000000
00010000
00000000
00001000
00000000
00000010
00000001
00000000
00000000
00000010
00000001
00000000
00000000
,
00001000
00000000
00000010
00000000
00000100
00000000
00001000
00000000
00010000
00000010
00000000
00000000
MMMMMMMM
00000000
00000000
00000000
,
00000001
00000000
00000100
00000000
00001000
00000000
00010000
00000000
00100000
10000000
00000000
00000000
00100000
10000000
00000000
00000000
,
00010000
00000000
00100000
00000000
01000000
00000000
00010000
00000000
00001000
00100000
00000000
00000000
00010000
00000000
00000000
00000000
,
10000000
00000000
01000000
00000000
00010000
00000000
00001000
00000000
00000010
00000001
00000000
00000000
00000010
00000001
00000000
00000000
,
00000201
00000000
00000000
00000010
00000300
00000000
00001000
00000010
00001000
00000000
00000100
00000000
00011000
00000000
00000000
00000000
,
00100000
00000000
00010000
00000000
01000000
00000000
00010000
00000000
10000000
00100000
00000000
00100000
00000000
01000000
10000000
00000000
,
01000000
00000000
00010000
00000000
00100000
00000000
00001000
00000000
00010000
00000100
00000000
00001000
00000010
00001000
00000010
00000000
,
00000100
00000000
00001000
00000000
00000100
00000000
00000001
00000000
00000010
00000001
00000000
00001000
00000010
00001000
00000010
00000000
,
00010000
00000000
00001000
00000000
01000000
00000000
00010000
00000000
00100000
00010000
00100000
00000000
MMMMMMMM
00000000
00000000
00000000
,
10000000
00000000
00010000
00000000
00001000
00000000
00010000
00000000
10000000
00000000
01000000
00010000
00000000
00001000
00010000
00000000
,
00000001
00000000
00001000
00000000
00010000
00000000
00001000
00000000
00000001
00000000
00000100
00001000
00000000
00010000
00001000
00010000
,
00001000
00000000
00010000
00000000
10000000
00000000
00010000
00000000
00001000
00000000
00100000
00010000
00000000
00100000
01000000
00100000
,
01000000
10000000
01000000
00010000
00000100
00000010
00000110
00000000
,
00002001
00000000
00010000
00010000
00010000
00010000
00010000
00010000
,
00010000
00010000
00010000
00010000
00013000
00000000
MMMMMMMM
00000000
,
10020000
00000000
00001000
00001000
00001000
00001000
00001000
00001000
,
00001000
00001000
00001000
00001000
00031000
00000000
MMMMMMMM
00000000
,
00002001
00000100
00010000
01000000
,
00010000
00000100
00013000
MMMMMMMM
,
10020000
00000000
01000000
00000000
00001000
00000000
00000100
00030000
,
00010000
00000100
00001000
01000000
00010000
00000000
MMMMMMMM
00000000
,
21000000
00000000
30020000
01000000
10000000
00100000
00032000
00000100
,
00000001
00000010
00023000
01000000
00130000
00000000
MMMMMMMM
00000000
,
00000102
00000000
00002003
00000100
00000001
00000010
00023000
01000000
,
10000000
00100000
00032000
00000100
00003010
00000000
MMMMMMMM
00000000
,
21000000
00000000
30010000
00110000
00001000
00010000
00011000
00000100
,
00001000
00001100
00000001
00000010
00000011
00001000
00001100
00010000
,
00011000
00000000
01000000
00010000
01000000
00000000
00100000
01000000
00100000
00000000
10000000
00010000
00100000
00000000
00001000
00020000
,
00001000
00000100
00001000
00000010
00030001
00000000
MMMMMMMM
00000000
,
00000000
00000000
01000000
00010000
00000000
01000000
00100000
00000000
00000000
10000000
00000000
00000000
01000000
00000000
00000000
10000000
00000000
00010000
00100000
00000000
00000000
00001000
00000000
00010000
,
00001000
00000000
00010000
00001000
00000000
00000000
00000010
00000000
00000100
00001000
00000000
00000000
00000010
00000000
00000100
00000010
00000000
00000100
00000001
00000000
00000000
00000010
00000000
00000000
,
00000000
00000000
00000100
00001000
00000000
00000100
00010000
00000000
00000000
00001000
00000000
00010000
00000000
00000000
00001000
00100000
00000000
00010000
00100000
00000000
00000000
01000000
00000000
00000000
,
10000000
00000000
00000000
00100000
00000000
01000000
00010000
00000000
01000000
00001000
00000000
00010000
00000000
00000000
00000100
00001000
00000000
00000010
00000100
00000000
00000000
00000110
00000000
00000000
,
00000000
00000000
00000001
00000010
00000000
00000000
00000100
00000000
00000010
00000100
00000000
00000010
00000100
00000000
00010000
00001000
00000000
00011000
00000000
00000000
00100000
00010000
00000000
00100000
,
00010000
00000000
00000000
01000000
00000000
00100000
10000000
00000000
00000000
01000000
00000000
00010000
00001000
00000000
00010000
01000000
00000000
00010000
00001000
00000000
00000000
00000010
00000000
00000000
,
00000000
00000000
00000100
00001000
00000000
00000100
00001000
00000000
00000000
00000001
00000000
00000100
00000000
00000000
00001000
00000100
00000000
00001000
00010000
00000000
00000000
00100000
00000000
20000000
,
00010000
01000000
00010000
00100000
30001000
00000000
MMMMMMMM
00000000
,
00000000
00000000
10000000
01000000
00000000
10000000
01000000
00000000
00000000
00010000
00000000
00000000
00001000
00000000
00100000
00001000
00000000
00010000
00000100
00000000
00010000
00001000
00000000
00000010
,
00000100
00000000
00000100
00001000
00000000
00000001
00000010
00000000
00000100
00000010
00000000
00000100
00010000
00000000
00010000
00001000
00000000
00100000
00010000
00000000
00000000
01100000
00000000
00000000
,
00000000
00000000
10000000
01000000
00000000
00100000
01000000
00000000
00000000
00100000
00000000
00001000
00000000
00000000
00010000
00001000
00000000
00001000
00010000
00000000
00000000
00011000
00000000
00000000
,
00000010
00001000
00000010
00000100
00000001
00000100
00000010
00000000
00000000
00000010
00001000
00000010
00000100
00000001
00000100
00000010
00000000
00000000
00000110
00000000
00000000
00001000
00000000
00000000
,
00000000
00000000
00000100
00010000
00000000
00001000
00010000
00000000
00001000
00100000
00000000
00000000
00010000
00000000
10000000
01000000
00000000
10000000
00100000
00000000
00000000
01100000
00000000
00000000
,
10000000
00000000
10000000
01000000
00000000
01000000
00010000
00000000
00010000
00001000
00000000
00001000
00000100
00000000
00000100
00000001
00000000
00000001
00000010
00000000
00000000
00000110
00000000
00000000
,
00001000
00000100
00001000
00000100
00010000
00001000
00010000
00001000
00100000
00010000
01000000
00010000
00100000
00010000
01000000
00010000
,
20000000
00100000
00010000
01000000
30001000
00000000
MMMMMMMM
00000000
,
00011000
00000000
00010100
00000000
00000000
00000000
00100000
00001000
00010000
00000100
00100000
00001000
00010000
00000100
00000000
00000000
,
00011000
00000000
01001000
00000000
00000000
00000000
00000010
00010000
00001000
01000000
00000010
00010000
00001000
01000000
00000000
00000000
,
00011000
00000000
00101000
00000000
00000000
00000000
00000100
00010000
00001000
00100000
00000100
00010000
00001000
00100000
00000000
00000000
,
00021000
00000000
00000010
00000000
00000000
00030000
00001000
00000100
00000001
00000100
00001000
00000100
MMMM0001
00000010
00000000
00000000
,
00001100
00000000
00001010
00000000
00000000
00000000
00000010
00000100
00001000
00010000
00000010
00000100
00001000
00010000
00000000
00000000
,
01010000
00000000
00110000
00000000
00000000
00000000
00100000
01000000
00010000
00001000
00100000
01000000
00010000
00001000
00000000
00000000
,
00001010
00000000
00001100
00000000
00000000
00000000
00000100
00000010
00001000
00010000
00000100
00000010
00001000
00010000
00000000
00000000
,
01000000
00000000
11000000
00000000
10100000
00000000
01100000
00000000
01001000
00000000
00011000
00000000
00010000
00000010
00001000
00000010
,
00000001
00000000
00000000
00000000
00000000
00000000
00000000
00000000
00000000
00000000
00000010
00000000
00001000
00000000
00000000
00000000
00000000
00000000
00001100
00000000
00000000
00000000
00000000
00000000
00010100
00000000
00000000
00000000
00000000
00000000
00011000
00000000
00000000
00000000
00000000
00000000
0010MMMM
00000000
00000000
00010000
00000000
00000000
0010MMMM
00000000
00000000
01000000
00000000
00000000
,
10000000
00000000
00000000
00000000
00000000
00000000
00000000
00000000
00000000
00000000
00010000
00000000
01000000
00000000
00000000
00000000
00000000
00000000
01001000
00000000
00000000
00000000
00000000
00000000
00011000
00000000
00000000
00000000
00000000
00000000
00010100
00000000
00000000
00000000
00000000
00000000
MMMM0100
00000000
00000000
00001000
00000000
00000000
MMMM0010
00000000
00000000
00000100
00000000
00000000
,
00000001
00000000
00000000
00000000
00000000
00000000
00000000
00000000
00000000
00000000
00000011
00000000
00000000
00000000
00000000
00000000
00000000
00000000
00001100
00000000
00000000
00000000
00000000
00000000
00010100
00000000
00000000
00000000
00000000
00000000
00011000
00000000
00000000
00000000
00000000
00000000
0010MMMM
00000000
00000000
00010000
00000000
00000000
0100MMMM
00000000
00000000
00100000
00000000
00000000
,
10000000
00000000
01000000
00010000
00001000
00010000
00001000
00000010
00000001
00000000
00000100
00000010
MMMM0110
00000000
0000MMMM
00000000
,
00001000
00000100
00001000
00000100
00010000
00001000
00100000
00010000
01000000
00100000
01000000
00100000
10000000
01000000
00100000
00010000
,
01000000
00001000
01000000
00001000
00010000
00000010
00001000
00000100
00000010
00000001
00000010
00000001
00000100
00000010
00001000
00000100
,
00010000
00001000
00100000
00001000
00010000
00001000
01000000
00001000
00010000
00000100
00001000
00000100
00010000
00001000
00010000
00000010
,
00001000
00000100
00010000
00001000
00100000
00010000
01000000
00100000
10000000
01000000
00010000
00001000
00100000
00000000
MMMMMMMM
00000000
,
00020200
00000000
00000000
00000000
,
00000000
00000000
00000000
00000000
00000000
00030000
MMMM0300
00000000
;
