#VERSION:0.83;
#TITLE:Little Star;
#SUBTITLE:;
#ARTIST:REDALiCE feat. Ayumi Nomiya;
#TITLETRANSLIT:;
#SUBTITLETRANSLIT:;
#ARTISTTRANSLIT:;
#GENRE:J-CORE;
#CREDIT:;
#MUSIC:Little Star.ogg;
#BANNER:Little Star.png;
#BACKGROUND:Little Star-bg.png;
#CDTITLE:./CDTitles/bm IIDX 20 tricoro.png;
#SAMPLESTART:36.646;
#SAMPLELENGTH:15.000;
#SELECTABLE:YES;
#OFFSET:1.373;
#BPMS:0.000=183.000;
#STOPS:116.000=0.984
,249.000=0.984
;
#TIMESIGNATURES:0.000=4=4,
112.000=5=4,
117.000=4=4,
245.000=5=4,
250.000=4=4
;
#BGCHANGES:1.000=Little Star.mp4=1.000=0=0=0=StretchNoLoop====,
99999.000=-nosongbg-=1.000=0=0=0=StretchNoLoop====
;
#FGCHANGES:;

//--------------- dance-single - forcednature ----------------
#NOTEDATA:;
#STEPSTYPE:dance-single;
#DESCRIPTION:forcednature;
#CREDIT:forcednature;
#DIFFICULTY:Beginner;
#METER:2;
#RADARVALUES:0,0,0,0,0;
#NOTES:
0000
0000
0000
0000
,
0000
0000
0000
0000
,
0000
0000
0000
0000
,
0000
0000
0000
0000
,
0000
0000
0000
0000
,
0000
0000
0000
0000
,
0001
0000
0000
0000
,
0000
0000
0000
0000
,
1000
0000
0000
0000
,
0100
0000
0100
0000
,
1000
0000
0000
0000
,
0000
0000
0000
0000
,
0010
0000
0000
0000
,
0100
0000
0000
0000
,
0010
0000
0000
0000
,
0000
0000
0000
0000
,
0100
0000
0000
0000
,
0001
0000
0000
0000
,
1000
0000
0000
0000
,
0000
0000
0000
0000
,
0100
0000
0000
0000
,
1000
0000
0000
0000
,
0001
0000
0000
0000
,
0000
0000
0000
0000
,
0100
0000
0000
0000
,
0010
0000
0000
0000
,
1000
0000
0000
0000
,
0001
0000
0000
0000
,
0010
0000
0000
0000
,
1001
1000
0000
0000
,
0000
1000
0000
0000
,
0000
0001
0000
0000
,
0000
0100
0000
0000
,
0000
0001
0000
0000
,
0000
0001
0000
0000
,
0000
0010
0000
0000
,
0000
0100
0000
0000
,
0000
1000
0000
0000
,
0000
0010
0000
0000
,
0000
1000
0000
0000
,
0000
0001
0000
0000
,
0000
0010
0000
0000
,
0000
0010
0000
0000
,
0000
0001
0000
0000
,
0000
0100
0000
0000
,
0000
1001
0000
0000
,
0000
2000
0000
0000
,
0000
0000
0000
0000
,
0000
0000
0000
0000
,
0000
0000
0000
3000
,
0000
0002
0000
0000
,
0000
0000
0000
0000
,
0000
0000
0000
0000
,
0000
0000
0000
0003
,
0000
0200
0000
0000
,
0000
0000
0000
0300
,
0000
0020
0000
0000
,
0000
0000
0000
0030
,
0000
1000
0000
0000
,
0000
1000
0000
0000
,
0000
0001
0000
0001
,
0000
0010
0000
0010
,
0000
0001
1000
0000
,
0000
0000
0010
0000
,
0000
0000
1000
0000
,
0000
0000
0001
0000
,
0000
0000
0100
0000
,
0000
0000
0001
0000
,
0000
0000
0010
0000
,
0000
0000
0100
0000
,
0000
0000
0010
0000
,
0000
0000
0001
0000
,
0000
0000
1000
0000
,
0000
0000
0010
0000
,
0000
0000
1000
0000
,
0000
0000
0001
0000
,
0000
0000
0100
0000
,
0000
0000
0010
0000
,
0000
0000
1001
0000
,
0000
0000
0001
0000
,
0000
0000
0000
0000
,
0000
0000
0010
0000
,
0010
0000
0001
0000
,
0000
0000
0100
0000
,
0000
0000
0010
0000
,
0000
0000
1000
0000
,
1000
0000
0100
0000
,
0010
0000
0000
0000
;

//--------------- dance-single - forcednature ----------------
#NOTEDATA:;
#STEPSTYPE:dance-single;
#DESCRIPTION:forcednature;
#CREDIT:forcednature;
#DIFFICULTY:Easy;
#METER:6;
#RADARVALUES:0,0,0,0,0;
#NOTES:
0000
0000
0000
0000
,
0000
0000
0000
0000
,
0000
0000
0000
0000
,
0000
0000
0000
0000
,
0000
0000
0000
0000
,
0000
0000
0000
0000
,
1001
0000
0001
0000
,
0100
0001
0100
0000
,
0010
1000
0001
1000
,
0100
0010
0110
0000
,
1000
0000
1000
0000
,
0001
0100
0010
0000
,
0100
0000
0100
0000
,
0001
1000
0000
1000
,
0001
0000
0010
0000
,
0001
1000
0001
0000
,
1000
0000
0100
0000
,
0010
0100
0000
0100
,
0010
0000
0001
0000
,
0100
0000
0001
0000
,
1000
0000
0100
0000
,
1000
0001
1000
0000
,
0010
0000
0100
0000
,
0001
0000
0100
0000
,
0010
0000
0000
0010
0000
0000
0000
0000
,
1000
0000
0000
0001
0000
0000
0000
0000
,
0100
0000
0000
0100
0000
0000
0000
0000
,
0001
0000
0000
1000
0000
0000
0002
0000
,
0000
0010
0000
1003
,
1000
0001
0000
1001
,
0000
1000
0000
1001
,
0000
0001
0010
0100
,
0000
0010
0001
1000
,
0000
0100
0000
1001
,
0000
0010
0000
1001
,
0000
1000
0010
0100
,
0000
0001
0001
1000
,
0000
0100
0000
1001
,
0000
0010
0000
1001
,
0000
1000
0010
0100
,
0000
0001
1000
0100
,
0000
0000
0010
0000
0000
0010
0000
0000
,
0001
0000
0000
0001
0000
0000
0100
0000
,
0000
0110
0000
1000
,
0000
1000
0001
1000
,
0000
2002
0000
0000
,
3003
0002
0000
0000
,
0000
0000
0000
0000
,
0003
0020
0000
0000
,
0030
0200
0000
0000
,
0300
2000
0000
0000
,
0000
0000
0000
0000
,
3000
0020
0000
0000
,
0030
0000
0100
0000
0000
0100
0000
0000
,
0100
0001
0000
1000
,
0000
0001
0001
0010
,
0000
0001
0000
1000
,
0000
0100
1000
0100
,
0000
1001
0000
1000
,
0000
0110
0000
0001
,
0000
1001
0000
0110
,
0000
0001
0001
1000
,
0100
0010
1001
0000
,
0110
0000
1001
0000
,
0110
0000
0001
1000
,
0100
0000
1000
0001
,
0010
0000
1001
0000
,
0110
0000
1001
0000
,
0110
0000
0001
1000
,
0010
0000
0100
0100
,
0100
0000
0110
0000
,
1001
0000
0110
0000
,
1001
0000
0001
1000
,
0100
0000
1000
0001
,
0100
0000
0000
0000
0010
0000
0000
0010
,
0000
0000
1000
0000
0000
1000
0000
0000
,
0001
0000
1001
0000
,
1000
0000
0100
0100
,
0010
0000
0220
0000
,
0000
0330
1001
0000
,
1000
0000
0100
0100
,
1000
0000
0010
0100
,
0010
0000
0100
0100
,
0001
0000
1001
0000
,
1000
0000
0100
0010
,
0001
0000
0010
0001
,
0100
0000
0010
0010
,
2000
0000
3000
0000
;

//--------------- dance-single - forcednature ----------------
#NOTEDATA:;
#STEPSTYPE:dance-single;
#DESCRIPTION:forcednature;
#CREDIT:forcednature;
#DIFFICULTY:Medium;
#METER:10;
#RADARVALUES:0,0,0,0,0;
#NOTES:
0000
0000
0000
0000
,
0000
0000
0000
0000
,
0000
0000
0000
0000
,
0000
0000
0000
0000
,
0000
0000
0000
0000
,
0000
0000
0000
0000
,
1001
0000
1000
0010
,
1000
0001
0010
0100
,
0010
0001
1000
0010
,
1000
0000
0000
0001
0000
0000
1000
0000
0002
0000
0000
0000
0003
0000
0000
0000
,
0100
0000
0110
0000
,
0010
0010
1000
0000
,
0001
0000
1001
0000
,
1000
0001
1000
0000
0000
0000
0010
0000
,
0110
0000
0001
0000
,
0010
0010
0001
0000
,
0100
0010
0110
0000
,
0001
0000
0000
1000
0000
0000
0001
0000
0000
0000
0000
0000
1000
0000
0000
0000
,
1100
0001
0010
0100
,
0110
0001
1000
0010
,
0100
0010
0100
0000
0001
0000
1000
0000
,
0100
0000
0100
1000
0000
0000
0010
0000
,
0110
0001
0010
0100
,
1001
1000
0010
0100
,
0001
0000
0000
0010
0000
0000
0200
0000
0000
0000
0000
0000
0300
0000
0000
0000
,
1000
0000
0000
0010
0000
0000
0200
0000
0000
0000
0000
0000
0300
0000
0000
0000
,
0001
0000
0000
1000
0000
0000
0200
0000
0000
0000
0000
0000
0300
0000
0000
0000
,
1000
0000
0000
0001
0000
0000
0100
0000
0000
0001
0000
0000
0100
0000
0020
0000
,
0000
0000
1030
0001
,
1001
0000
0001
0010
0000
0010
0000
0001
,
0100
0000
0010
1000
0000
1000
0000
0001
,
0100
0000
0010
0000
1000
0000
0001
1000
,
0001
0010
0100
2000
,
0000
0000
3100
0010
0000
0010
0000
0001
,
1000
0000
0010
0100
0000
0100
0000
0001
,
1000
0000
0100
0000
0100
0010
0000
0001
,
0000
0100
0000
0110
0000
1001
0000
0000
,
0000
0000
1000
0010
0000
0010
0000
1000
,
0001
0000
0100
0010
0000
0010
0000
1000
,
0001
0000
0010
0000
0001
1000
0000
1000
,
0100
0000
0010
0000
0100
0010
0001
0000
,
1000
0000
0010
0010
0000
0100
0010
0000
,
1000
1000
0000
0001
1000
0000
0001
0000
,
0010
0210
0000
1300
,
0100
0000
1000
0000
0010
0100
0010
0000
,
0100
2002
0000
0000
,
3003
0002
0000
0000
,
0000
0203
0000
0320
,
0000
1030
0001
1000
,
0001
0020
0000
0230
,
0000
2300
0000
0000
,
0000
3020
0000
0230
,
0000
0302
0000
0000
,
0000
0003
1000
0001
0000
0001
1000
0000
,
0010
0210
0000
0302
,
0000
2003
0000
3010
,
1000
2001
0000
3001
,
0010
0110
1000
0001
,
0100
0110
0010
1000
,
0010
0110
0100
0001
,
0100
0110
1000
1001
,
0001
0000
0010
0001
0010
0000
0100
0010
,
0100
0000
1001
0000
1000
0100
0000
0100
,
0000
1000
0010
0000
1000
0001
0000
0001
,
0000
0100
0010
0000
1000
0000
0001
0000
,
0010
0001
0010
0000
0100
0010
0100
0000
,
1000
0000
0001
0000
0100
0010
0000
0010
,
0000
1000
0001
0000
0010
0100
0000
0100
,
0000
1000
0001
0000
0100
0000
0100
0001
,
0000
1000
0000
0010
0000
0110
0000
1001
,
0000
0000
0000
0000
0001
0010
0000
0010
,
0000
0001
1000
0000
0100
0010
0000
0010
,
0000
0001
1000
0000
0010
0000
0100
0000
,
0001
0100
0001
0000
0010
0001
0010
0000
,
0100
0000
1000
0000
0010
0100
0000
0100
,
0100
0000
0001
1000
0000
1000
1000
0000
,
0001
0010
0210
0000
,
1300
0000
0001
0000
0100
0001
0100
0000
,
0010
1000
0010
0000
2002
0000
0000
0000
,
0000
0000
3003
0000
1000
0000
0000
0100
,
1000
0000
0010
0000
0100
0001
0100
0000
,
0001
0000
0000
0000
0010
0000
0000
0000
0001
0000
0000
0001
0000
0000
1000
0000
,
0001
0000
0000
0100
0000
0000
0010
0000
1000
0000
0000
1000
0000
0000
0001
0000
,
2000
3000
1100
0001
,
0010
0000
0100
0010
0100
0000
1000
0000
,
0001
0000
0100
0001
0100
0000
0010
0000
,
0110
0000
0000
0000
1000
0000
0000
0000
0001
0000
0000
0001
0000
0000
1000
0000
,
0200
0000
0300
0000
;

//--------------- dance-single - forcednature ----------------
#NOTEDATA:;
#STEPSTYPE:dance-single;
#DESCRIPTION:forcednature;
#CREDIT:forcednature;
#DIFFICULTY:Hard;
#METER:13;
#RADARVALUES:0,0,0,0,0;
#NOTES:
0000
0000
0000
0000
,
0000
0000
0000
0000
,
0000
0000
0000
0000
,
0000
0000
0000
0000
,
0000
0000
0000
0000
,
0001
0000
0000
1000
0000
0000
0001
0000
1001
0000
0000
0000
0000
0000
0000
0000
,
1010
0000
0001
0100
0010
0100
0000
0001
,
1000
0000
1010
0000
0001
0010
1000
0000
,
0010
0001
0100
0001
1000
0100
1000
0010
,
0100
0000
0000
0100
0000
0000
0010
0000
0220
0000
0000
0000
0330
0000
0000
0000
,
1001
0000
0000
1000
0100
0000
1000
0000
,
0010
0000
0000
0010
0000
0000
1000
0000
0001
0000
0000
0000
0100
0000
0001
0000
,
0100
0001
0011
1000
,
0100
0100
0100
0000
0010
0000
0001
0000
,
0011
0000
1000
0001
1000
0000
0010
0000
,
0100
0000
0000
0100
0000
0000
0001
0000
0100
0000
0000
0000
0010
0000
1000
0000
,
0001
0000
0010
0000
0011
0000
1000
0001
,
0010
0000
0000
0100
0000
0000
0110
0000
0000
0000
0000
0000
1000
0000
0001
1000
,
0001
0100
0010
1000
0000
0100
1000
0001
,
1000
0010
0100
0001
0000
0010
0001
1000
,
0010
0100
0001
0010
0000
0100
1000
0000
,
1100
0000
1000
1010
0000
0010
0100
0001
,
0010
0001
1000
0100
0000
1000
0001
0100
,
0010
1000
0001
0010
0000
0100
0010
0010
,
0001
0000
0000
0100
0000
0000
2002
0000
0000
0000
0000
0000
3003
0000
0000
0000
,
1000
0000
0000
0010
0000
0000
2002
0000
0000
0000
0000
0000
3003
0000
0000
0000
,
0001
0000
0000
0010
0000
0000
2200
0000
0000
0000
0000
0000
3300
0000
0000
0000
,
1000
0000
0000
0010
0000
0000
0110
0000
0000
0001
0000
0000
0010
0000
0200
0000
,
0000
1000
0000
1000
0000
0310
0001
0000
,
1001
0000
1000
0010
0100
0101
0000
0001
,
1000
0100
0010
0001
0100
0110
0000
0010
,
1000
0001
0010
0100
0110
0000
0001
1000
,
1001
0000
0001
0100
1000
0100
0001
0010
,
1000
0000
0010
0001
0100
0101
0000
1000
,
0010
0100
0010
1000
0001
0011
0000
1000
,
0001
0100
0110
0000
0010
1000
0000
0100
,
0000
0110
0000
1001
0000
0101
0000
1000
,
0010
0001
0010
1000
0100
1100
0000
0001
,
0010
1000
0010
0001
0100
0110
0000
0010
,
1000
0001
0010
0100
1100
0000
1000
0010
,
1010
0000
1000
0100
0001
0100
1000
0010
,
0001
0000
0010
1010
0000
1000
1100
0000
,
0010
0110
0000
1000
1001
0000
0001
0010
,
0100
2000
0010
0000
0001
0000
3100
1000
,
0001
0010
0100
0100
1000
0010
1000
0001
,
0100
0001
0100
0000
0020
0000
0000
0000
0000
0000
0000
0000
0000
0000
0000
0000
,
0030
2001
0000
0000
,
3200
0320
0000
0032
,
0000
0203
0320
2030
,
3002
0203
0000
0320
,
0030
2000
0000
0000
,
3002
0023
0000
0230
,
0000
2300
0000
0000
,
3000
0000
0001
1000
0001
0000
0100
0000
0000
0000
0100
0000
0010
0000
0000
0000
,
0110
0000
2000
0001
0000
0001
0000
3010
,
0000
1000
0200
0010
0000
0010
0000
1300
,
0000
0010
0002
0100
0000
0100
0000
1003
,
0000
0010
0110
0000
1001
0000
1010
0000
,
0001
1000
1001
0000
0001
0010
0100
0010
,
0001
0000
1001
0000
1000
0010
0100
0010
,
1000
0000
0001
0010
0100
0010
0001
0100
,
0010
0100
0001
1000
0100
0001
0100
1000
,
0001
1000
0001
0000
0010
0000
0000
0000
0100
0000
1000
0000
0010
0000
1010
0000
,
0000
0001
0100
1000
0100
0001
0010
0011
,
0000
1000
0010
0100
0001
0010
0011
0000
,
1000
0010
1010
0000
0001
0010
1000
0010
,
0001
0000
0100
0001
0100
0000
0000
0000
0010
0000
1000
0000
0100
0000
1100
0000
,
0000
1000
0010
0100
0001
0010
0100
0110
,
0000
0001
0100
1000
1100
0000
0100
0001
,
0000
0010
0000
0101
0000
1010
0000
1100
,
0000
0000
0001
0000
0010
0000
1000
0000
0000
0000
0010
0001
0010
0000
0000
0000
,
0100
1000
0010
0100
0001
0010
0100
0110
,
0000
0010
0001
1000
0010
0100
0101
0000
,
0001
0010
0110
0000
0100
1000
0010
0001
,
0010
0000
1000
0010
1000
0000
0000
0000
0001
0000
0101
0000
0000
0000
1000
0000
,
1010
0000
0100
0110
0000
0001
1001
0000
,
1000
0000
0001
1000
0001
0000
0020
0000
0100
0000
0000
0000
0001
0000
0000
0000
,
0130
1000
0001
0010
0001
0100
0010
0100
,
0001
0000
1000
0000
0100
1000
0100
0000
0020
0000
0000
0000
0000
0000
0000
0000
,
0000
0000
0030
0000
1001
0000
1000
0010
,
0100
0000
0000
0100
0000
0000
0001
0000
1000
0001
1000
0000
0001
0000
0010
0000
,
0000
0000
0100
0000
0010
0000
0000
0000
0110
0000
0000
1000
0000
0000
1000
0000
,
0010
0000
0000
0100
0000
0000
0100
0000
0001
0000
0000
0001
0000
0000
0010
0000
,
0011
0000
0000
0000
1000
0001
1000
0000
0010
0000
0100
0000
0010
0000
1000
0000
,
0001
0000
0100
0000
0010
0000
0100
0001
0100
0000
0001
0000
0010
0000
0001
0000
,
1000
0100
1000
0001
0010
0010
0100
0010
,
0001
0000
1000
0000
0010
0000
1000
0001
1000
0000
0000
0010
0000
0000
0100
0000
,
0220
0000
0330
0000
;

//--------------- dance-single - forcednature ----------------
#NOTEDATA:;
#STEPSTYPE:dance-single;
#DESCRIPTION:forcednature;
#CREDIT:forcednature;
#DIFFICULTY:Challenge;
#METER:16;
#RADARVALUES:0,0,0,0,0;
#NOTES:
0000
0000
0000
0000
,
0000
0000
0000
0000
,
0000
0000
0000
0000
,
0000
0000
0000
0000
,
0000
0000
0000
0000
,
1001
0000
0000
1001
0000
0000
1100
0000
0001
0000
0000
0000
0010
0100
0010
0100
,
0001
0000
0100
0000
1000
0000
0001
0000
0010
0000
0100
0000
0010
0000
0001
1000
,
0010
0000
0100
0010
0100
0000
0001
0100
0001
0000
1000
0000
0010
0000
0000
0000
,
0100
0000
0001
0000
0010
0000
0001
0000
1000
0001
1000
0001
1000
0100
1000
0000
,
0011
0000
0000
0011
0000
0000
1000
0000
1010
0000
0000
0000
0010
0100
0010
0100
,
1000
0000
0100
0001
1000
0000
0010
0000
,
0100
0000
0000
0100
0000
0000
0001
0000
1000
0000
0000
0000
0100
0000
1000
0000
,
0001
0000
0010
0000
0011
0000
1000
0100
,
0110
0000
0110
0000
0110
0000
0000
0000
0001
0000
1000
0001
1000
0000
0010
0000
,
0110
0000
0001
1000
0100
0000
0001
0000
,
0100
0000
0000
0100
0000
0000
1000
0000
0001
0000
0000
0000
0010
0000
0001
0000
,
0100
0000
1000
0100
0001
0000
1000
0000
,
0110
0000
0000
0110
0000
0000
0101
0000
0000
0000
0000
0000
0001
1000
0001
1000
,
0010
0000
0100
0000
0001
0000
0010
0000
0001
0000
1000
0100
0010
0000
0001
0000
,
1000
0000
0010
0000
0100
0000
0010
0000
1000
0000
0100
0010
0001
0000
1000
0000
,
0010
0000
0001
0000
0010
0000
1000
0000
0001
0000
0100
0010
1000
0000
0001
0000
,
1001
0000
0000
0000
0110
0000
0101
0000
0000
0000
0001
0000
0010
0100
0010
0100
,
1000
0000
0001
0000
0010
0000
1000
0000
0010
0000
0001
1000
0100
0000
0010
0000
,
0001
0000
0100
0000
1000
0000
0100
0000
0001
0100
0001
0100
0001
0000
1000
0000
,
1010
0000
0000
0101
0000
0000
0012
0000
0000
0000
1000
0000
1003
0000
0000
0000
,
1100
0000
0000
1010
0000
0000
0210
0000
0000
0000
0001
0000
0301
0000
0000
0000
,
0011
0000
0000
1010
0000
0000
2100
0000
0000
0000
0001
0000
3001
0000
0000
0000
,
0011
0000
0000
0101
0000
0000
0110
0000
0000
1010
0000
0000
1100
0000
1002
0000
,
0000
0000
0013
0100
0010
0100
1000
0100
1000
0100
0010
0001
0010
0001
0100
0010
,
1000
0000
0000
0000
0001
0000
0100
0000
1000
0000
0100
0000
0001
0000
0010
0001
,
0100
0000
0010
1000
0001
0000
0010
0000
1000
0000
0010
0000
0001
0000
1000
0100
,
0010
0000
0100
1000
0001
0000
0100
0000
0010
0100
0010
0100
0010
0000
1000
0000
,
0001
0010
0001
0010
0200
0000
1000
0000
0320
0000
0001
0000
0130
0000
1000
0100
,
1000
0000
0010
0000
0100
0000
1000
0000
0100
0000
0001
0000
0010
0000
0100
1000
,
0010
0000
0100
0001
1000
0000
0100
0000
0001
0000
0100
0000
0010
0000
0001
1000
,
0010
0000
0100
0001
1000
0000
0000
0000
1100
0000
1100
0000
0000
0000
1010
0000
,
0000
0000
0101
0000
0000
0000
0011
0000
0000
0000
1001
0000
0000
0000
0001
0010
,
0100
0000
1000
0000
0010
0000
0100
0000
1000
0000
0100
0000
0001
0000
0010
0001
,
0100
0000
0010
1000
0001
0000
0010
0000
1000
0000
0010
0000
0001
0000
1000
0100
,
0010
0000
0100
1000
0010
0000
0100
0000
0001
0010
0001
0010
0001
0000
1000
0000
,
0010
0100
0010
0100
0020
0000
1000
0000
0230
0000
0001
0000
0310
0000
1000
0001
,
1000
0000
1100
1100
0000
1010
1010
0000
,
0110
0000
0101
0000
0000
0000
0011
0000
1001
0000
0000
0000
1000
0000
0100
0010
,
0001
0100
0020
1000
1000
1000
0130
0001
,
1000
0000
0010
0000
1000
0001
1000
0000
0001
0010
0001
0000
0010
0100
0010
0100
,
1000
0100
0010
0001
0200
0000
0000
0000
0000
0000
0000
0000
0000
0000
0000
0000
,
0300
0020
1000
1000
,
2030
3200
0010
2300
,
0001
3020
0230
0302
,
0023
0230
1000
0320
,
0031
0201
0010
0010
,
0302
2003
0100
3002
,
0010
0203
1000
0010
,
0301
0000
1000
0001
1000
0000
1001
0000
0000
0000
0101
0000
0101
0000
0000
0000
,
1000
0000
0010
0100
0020
0000
1000
0000
0000
0000
1000
0000
0000
0000
1030
0000
,
0001
0100
0002
0010
0000
0013
0200
1000
,
0300
1100
1020
0000
0230
0000
0302
0000
,
1003
0100
1100
0000
0011
0000
0101
0000
,
1000
0010
0110
0001
1000
0100
1000
0001
,
1000
0100
0110
1000
0001
0100
0001
1000
,
0001
0000
0100
0000
0010
1000
0010
1000
0010
0000
1000
0000
0100
1000
0100
1000
,
0100
0000
0010
0000
0001
1000
0010
0000
1000
0001
0010
0000
0100
1000
0100
1000
,
0010
0100
0001
0010
0100
0000
0000
0000
0001
0000
0100
0000
1000
0000
0001
0000
,
0010
0000
0100
1000
0010
0000
0100
0001
1000
0000
0100
0000
0010
0000
1000
0000
,
0010
0000
0001
0100
0010
0000
1000
0100
0010
0000
0001
0000
0100
0001
0100
0001
,
0100
0000
0010
0000
1000
0001
1000
0001
0020
0000
0100
0000
0032
0000
1000
0000
,
0103
0000
0010
1000
0001
0000
0010
0000
1000
0000
0010
0000
0001
0000
1000
0000
,
0100
0000
0010
0001
0100
0000
0010
1000
0100
0000
0001
0000
0100
0000
1000
0000
,
0010
0000
0100
0001
1000
0000
0100
0010
0001
0000
0000
0000
0011
0000
0011
0000
,
0000
0101
0000
1010
0000
1100
0000
1001
,
0000
0000
1000
0000
0000
0000
0100
0000
0000
0000
0001
0100
1000
0000
0100
0000
,
1000
0000
0010
0100
0001
0000
0010
0100
1000
0000
0010
0000
0001
0000
0010
0000
,
0100
0000
0001
1000
0100
0000
0010
0001
0100
0000
0010
0000
1000
0100
1000
0100
,
1000
0000
0001
0000
0010
0100
0010
0100
0020
0000
0001
0000
0230
0000
1000
0000
,
0310
0000
0001
1000
0001
0000
0000
0000
0101
0000
0101
0000
0000
0000
1010
0000
,
1010
0000
1100
1001
0000
0101
0110
0000
,
0010
0000
1000
0001
1000
0000
0100
0000
0020
0000
0001
0000
0001
0000
0001
0000
,
0130
0000
1000
0000
0010
0000
1000
0000
0001
0010
0001
0000
0100
0001
0100
0000
,
0010
1000
0010
1000
0001
0010
0100
1000
0020
0000
0000
0000
0000
0000
0000
0000
,
0000
0000
0000
0000
0030
0000
0000
0000
1001
0000
0000
0000
1000
0000
0100
1000
,
0001
0000
0000
0011
0000
0000
1000
0000
0010
0100
0001
0000
0100
0000
0010
0000
,
0000
0000
1000
0000
1000
0000
0100
0000
1100
0000
0000
1001
0000
0000
0010
0000
,
0011
0000
0000
0101
0000
0000
1000
0000
1010
0000
0000
1010
0000
0000
0110
0000
,
1002
0000
0000
0000
0013
0100
0010
0100
0001
0000
0100
0000
0010
0000
0100
0000
,
1000
0000
0010
0100
0010
0000
0100
0001
1000
0000
0100
0000
1000
0000
0001
0000
,
0100
0000
0010
1000
0010
0000
1000
0100
0010
0000
0001
0000
0011
0000
1000
0000
,
1100
0000
0001
0000
0101
0000
1000
0000
1010
0000
0000
1010
0000
0000
0110
0000
,
2002
0000
3003
0000
;

//--------------- dance-double - forcednature ----------------
#NOTEDATA:;
#STEPSTYPE:dance-double;
#DESCRIPTION:forcednature;
#CREDIT:forcednature;
#DIFFICULTY:Easy;
#METER:7;
#RADARVALUES:0,0,0,0,0;
#NOTES:
00000000
00000000
00000000
00000000
,
00000000
00000000
00000000
00000000
,
00000000
00000000
00000000
00000000
,
00000000
00000000
00000000
00000000
,
00000000
00000000
00000000
00000000
,
00000000
00000000
00000000
00000000
,
00011000
00000000
00010000
00000000
,
00000100
00001000
00000100
00000000
,
00000010
00000001
00001000
00000001
,
00000010
00000100
00000110
00000000
,
00001000
00000000
00001000
00000000
,
00000100
00010000
00001000
00000000
,
00010000
00000000
00010000
00000000
,
00001000
00100000
00000000
00100000
,
00010000
00000000
01000000
00000000
,
00010000
10000000
00010000
00000000
,
10000000
00000000
01000000
00000000
,
00100000
01000000
00000000
01000000
,
00100000
00000000
00010000
00000000
,
01000000
00000000
00001000
00000000
,
00010000
00000000
00000100
00000000
,
00010000
00001000
00010000
00000000
,
00000010
00000000
00001000
00000000
,
00000010
00000000
00000100
00000000
,
00000001
00000000
00000000
00000001
00000000
00000000
00000000
00000000
,
00001000
00000000
00000000
00001000
00000000
00000000
00000000
00000000
,
00000100
00000000
00000000
00000100
00000000
00000000
00000000
00000000
,
00010000
00000000
00000000
00001000
00000000
00000000
00020000
00000000
,
00000000
00001000
00000000
00031000
,
00011000
00100000
00000000
00011000
,
00000000
01000000
00000000
00011000
,
00000000
00000010
00001000
00000010
,
00000000
00001000
00000100
00001000
,
00000000
00000100
00000000
00011000
,
00000000
00000010
00000000
00011000
,
00000000
00000010
00001000
00000010
,
00000000
00010000
00010000
00001000
,
00000000
00100000
00000000
00011000
,
00000000
00000010
00000000
00011000
,
00000000
01000000
00010000
01000000
,
00000000
00001000
00010000
00001000
,
00000000
00000000
00010000
00000000
00000000
00010000
00000000
00000000
,
00000100
00000000
00000000
00000100
00000000
00000000
00001000
00000000
,
00000000
00001001
00000000
00000001
,
00000000
00000100
00000001
00000100
,
00000000
00000220
00000000
00000000
,
00000330
00002000
00000000
00000000
,
00000000
00000000
00000000
00000000
,
00003000
00000200
00000000
00000000
,
00000300
00020000
00000000
00000000
,
00030000
00002000
00000000
00000000
,
00000000
00000000
00000000
00000000
,
00003000
00200000
00000000
00000000
,
00300000
00000000
00010000
00000000
00000000
00010000
00000000
00000000
,
00010000
01000000
00000000
00100000
,
00000000
01000000
01000000
00100000
,
00000000
10000000
00000000
00010000
,
00000000
10000000
01000000
10000000
,
00000000
10010000
00000000
00010000
,
00000000
00100000
00000000
00001000
,
00000000
00011000
00000000
00011000
,
00000000
00001000
00001000
00010000
,
00001000
00011000
00000010
00000000
,
00011000
00000000
00000100
00000000
,
00011000
00000000
00100000
00010000
,
00100000
00000000
00010000
01000000
,
00010000
00000000
01000000
00000000
,
00011000
00000000
00100000
00000000
,
00011000
00000000
00100000
00010000
,
00100000
00000000
00001000
00001000
,
00010000
00000000
00000010
00000000
,
00011000
00000000
00100000
00000000
,
00011000
00000000
00000100
00001000
,
00000100
00000000
00010000
00001000
,
00010000
00000000
00000000
00000000
00001000
00000000
00000000
00001000
,
00000000
00000000
01000000
00000000
00000000
01000000
00000000
00000000
,
00010000
00000000
10010000
00000000
,
10000000
00000000
01000000
10000000
,
01000000
00000000
02200000
00000000
,
00000000
03300000
10010000
00000000
,
00010000
00000000
00100000
00100000
,
00010000
00000000
01000000
00010000
,
01000000
00000000
00001000
00001000
,
00010000
00000000
00011000
00000000
,
00000100
00000000
00001000
00000100
,
00000010
00000000
00000001
00001000
,
00000001
00000000
00000100
00000100
,
00000020
00000000
00000030
00000000
;

//--------------- dance-double - forcednature ----------------
#NOTEDATA:;
#STEPSTYPE:dance-double;
#DESCRIPTION:forcednature;
#CREDIT:forcednature;
#DIFFICULTY:Medium;
#METER:10;
#RADARVALUES:0,0,0,0,0;
#NOTES:
00000000
00000000
00000000
00000000
,
00000000
00000000
00000000
00000000
,
00000000
00000000
00000000
00000000
,
00000000
00000000
00000000
00000000
,
00000000
00000000
00000000
00000000
,
00000000
00000000
00000000
00000000
,
00011000
00000000
00000100
00001000
,
00000100
00000010
00000001
00000010
,
00000100
00001000
00000100
00010000
,
00001000
00000000
00000000
00010000
00000000
00000000
00001000
00000000
00020000
00000000
00000000
00000000
00030000
00000000
00000000
00000000
,
00001000
00000000
00011000
00000000
,
01000000
01000000
00010000
00000000
,
01000000
00000000
10010000
00000000
,
00010000
10000000
00010000
00000000
00000000
00000000
00100000
00000000
,
01100000
00000000
01000000
00000000
,
10000000
10000000
00100000
00000000
,
10000000
01000000
01100000
00000000
,
00100000
00000000
00000000
00010000
00000000
00000000
00100000
00000000
00000000
00000000
00000000
00000000
00001000
00000000
00000000
00000000
,
00011000
00010000
00000100
00001000
,
00001001
00000001
00000100
00000010
,
00000100
00000010
00000100
00000000
00000010
00000000
00001000
00000000
,
00000100
00000000
00000100
00010000
00000000
00000000
00001000
00000000
,
00011000
00100000
00010000
01000000
,
01100000
00100000
10000000
01000000
,
00100000
00000000
00000000
00010000
00000000
00000000
00200000
00000000
00000000
00000000
00000000
00000000
00300000
00000000
00000000
00000000
,
00001000
00000000
00000000
00010000
00000000
00000000
00002000
00000000
00000000
00000000
00000000
00000000
00003000
00000000
00000000
00000000
,
00010000
00000000
00000000
00000100
00000000
00000000
00020000
00000000
00000000
00000000
00000000
00000000
00030000
00000000
00000000
00000000
,
00000010
00000000
00000000
00001000
00000000
00000000
00000010
00000000
00000000
00000100
00000000
00000000
00000001
00000000
00000200
00000000
,
00000000
00000000
00000000
00000300
,
00001001
00000000
00001000
00000100
00000000
00000100
00000000
00010000
,
00001000
00000000
00100000
00010000
00000000
00010000
00000000
01000000
,
00100000
00000000
10000000
00000000
01000000
00000000
10000000
00010000
,
10000000
00010000
00100000
00002000
,
00000000
00000000
00013000
00000100
00000000
00000100
00000000
00001000
,
00000010
00000000
00000100
00000001
00000000
00000001
00000000
00000010
,
00000100
00000000
00001000
00000000
00001000
00000010
00000000
00010000
,
00000000
00001000
00000000
00011000
00000000
00101000
00000000
00000000
,
00000000
00000000
00100000
00010000
00000000
00010000
00000000
01000000
,
00100000
00000000
10000000
01000000
00000000
01000000
00000000
10000000
,
00010000
00000000
00100000
00000000
00010000
00100000
00000000
00100000
,
00001000
00000000
00010000
00000000
00001000
00010000
00000100
00000000
,
00001000
00000000
00000010
00000010
00000000
00000100
00000010
00000000
,
00001000
00001000
00000000
00000001
00001000
00000000
00000100
00000000
,
00000010
00000220
00000000
00000330
,
00001000
00000000
00000001
00000000
00001000
00000010
00001000
00000000
,
00000100
00022000
00000000
00000000
,
00033000
00200000
00000000
00000000
,
00000000
00320000
00000000
02030000
,
00000000
03100000
10000000
00100000
,
10000000
00020000
00030000
00200000
,
00300000
00002000
00000000
00000000
,
00000000
00023000
00000000
00030200
,
00000000
00002300
00000000
00000000
,
00000000
00003000
00000001
00001000
00000000
00001000
00000001
00000000
,
00000010
00000210
00000000
00001000
,
00000000
00000010
00000000
00001300
,
00000100
00011000
00000000
00100000
,
00000000
01000000
01000000
10000000
,
00100000
01100000
00000000
01000000
,
00001000
00011000
00000000
00000100
,
00001000
00000010
00000010
00000100
,
00000010
00000000
00001000
00000001
00001000
00000000
00000100
00001000
,
00000100
00000000
00011000
00000000
00001000
01000000
00000000
01000000
,
00000000
00001000
00010000
00000000
00000010
00001000
00000000
00001000
,
00000000
00000100
00000010
00000000
00000001
00000000
00000100
00000000
,
00000001
00001000
00000001
00000000
00001000
00000000
00000010
00000000
,
00020000
00000000
00000000
00000000
00031000
01000000
00000000
01000000
,
00000000
00010000
00100000
00000000
01000000
10000000
00000000
10000000
,
00000000
00100000
01000000
00000000
00010000
00000000
00010000
00100000
,
00000000
00001000
00000000
00010000
00000000
00011000
00000000
00010010
,
00000000
00000000
00000000
00000000
00000010
00001000
00000000
00001000
,
00000000
00000100
00000010
00000000
00000001
00000100
00000000
00000100
,
00000000
00000001
00001000
00000000
00000010
00000000
00001000
00000010
,
00000000
00000010
00010000
00000000
00001000
00000000
00010000
00001000
,
01000000
00000000
00010000
00000000
00100000
00100000
00000000
01000000
,
00100000
00000000
00010000
00010000
00000000
10000000
00010000
00000000
,
01000000
00100000
02200000
00000000
,
03300000
00000000
00010000
00000000
10000000
00000000
00010000
00100000
,
00010000
01000000
00022000
00000000
,
00000000
00000000
00033000
00000000
00001000
00000000
00000000
00001000
,
00010000
00000000
00000100
00000000
00001000
00000100
00001000
00000000
,
00000010
00000000
00000000
00000000
00000100
00000000
00000000
00000000
00000001
00000000
00000000
00000001
00000000
00000000
00001000
00000000
,
00000001
00000000
00000000
00000010
00000000
00000000
00000100
00000000
00001000
00000000
00000000
00001000
00000000
00000000
00000100
00000000
,
00020000
00030000
00011000
00100000
,
00010000
00000000
01000000
00010000
01000000
00000000
00100000
00000000
,
10000000
00000000
01000000
00100000
01000000
00000000
00100000
00000000
,
01100000
00000000
00000000
00000000
00010000
00000000
00000000
00000000
01000000
00000000
00000000
01000000
00000000
00000000
00001000
00000000
,
00020000
00000000
00030000
00000000
;

//--------------- dance-double - forcednature ----------------
#NOTEDATA:;
#STEPSTYPE:dance-double;
#DESCRIPTION:forcednature;
#CREDIT:forcednature;
#DIFFICULTY:Hard;
#METER:14;
#RADARVALUES:0,0,0,0,0;
#NOTES:
00000000
00000000
00000000
00000000
,
00000000
00000000
00000000
00000000
,
00000000
00000000
00000000
00000000
,
00000000
00000000
00000000
00000000
,
00000000
00000000
00000000
00000000
,
00010000
00000000
00000000
00001000
00000000
00000000
00010000
00000000
00011000
00000000
00000000
00000000
00000000
00000000
00000000
00000000
,
00001100
00000000
00010000
00000010
00001000
00000010
00000000
00000100
,
00000001
00000000
00000011
00000000
00000010
00000100
00010000
00000000
,
00001000
00100000
00010000
00100000
01000000
10000000
00100000
10000000
,
01000000
00000000
00000000
00010000
00000000
00000000
00001000
00000000
00022000
00000000
00000000
00000000
00033000
00000000
00000000
00000000
,
00011000
00000000
00000000
00000100
00001000
00000000
00000010
00000000
,
00000001
00000000
00000000
00000001
00000000
00000000
00000010
00000000
00001000
00000000
00000000
00000000
00000100
00000000
00001000
00000000
,
00000100
00010000
00011000
00100000
,
00010000
00010000
00010000
00000000
01000000
00000000
00100000
00000000
,
01100000
00000000
10000000
00010000
10000000
00000000
01000000
00000000
,
00100000
00000000
00000000
00100000
00000000
00000000
10000000
00000000
00100000
00000000
00000000
00000000
00010000
00000000
00100000
00000000
,
00010000
00000000
01000000
00000000
00011000
00000000
00001000
00010000
,
00000100
00000000
00000000
00001000
00000000
00000000
00001001
00000000
00000000
00000000
00000000
00000000
00000001
00000000
00000010
00000001
,
00000010
00000001
00000100
00000010
00000000
00001000
00000100
00000010
,
00001000
00010000
00000100
00010000
00000000
00001000
00100000
00010000
,
00100000
00001000
00010000
01000000
00000000
10000000
01000000
00000000
,
11000000
00000000
10100000
10100000
00000000
00100000
01000000
01000000
,
00010000
00100000
01000000
00010000
00000000
00001000
00010000
00001000
,
00000010
00000100
00000010
00000001
00000000
00000100
00000010
00000010
,
00001000
00000000
00000000
00000100
00000000
00000000
00022000
00000000
00000000
00000000
00000000
00000000
00033000
00000000
00000000
00000000
,
01000000
00000000
00000000
00100000
00000000
00000000
20020000
00000000
00000000
00000000
00000000
00000000
30030000
00000000
00000000
00000000
,
00010000
00000000
00000000
00100000
00000000
00000000
00022000
00000000
00000000
00000000
00000000
00000000
00033000
00000000
00000000
00000000
,
00000100
00000000
00000000
00001000
00000000
00000000
00001010
00000000
00000000
00000001
00000000
00000000
00000100
00000000
00000020
00000000
,
00000000
00001000
00000000
00001000
00000000
00010030
00001000
00000000
,
00011000
00000000
00010000
00100000
10000000
10100000
00000000
00100000
,
01000000
00010000
00100000
01000000
00010000
00011000
00000000
00001000
,
00000010
00000100
00000010
00000001
00000011
00000000
00000001
00000100
,
00000101
00000000
00001000
00000010
00000100
00000100
00001000
00010000
,
00001000
00000000
00010000
01000000
10000000
11000000
00000000
01000000
,
00100000
00010000
01000000
00001000
00010000
00011000
00000000
00001000
,
00000010
00000001
00000011
00000000
00000001
00000100
00000000
00001000
,
00000000
00011000
00000000
00101000
00000000
01010000
00000000
00010000
,
00100000
10000000
00100000
00010000
01000000
01010000
00000000
00001000
,
00010000
00100000
00010000
00001000
00010000
00011000
00000000
00001000
,
00000010
00000100
00001000
00000001
00000101
00000000
00000001
00000010
,
00000110
00000000
00000100
00010000
00001000
00000010
00000001
00001000
,
00000100
00000000
00010000
00011000
00000000
00110000
00110000
00000000
,
00001000
00011000
00000000
00001010
00001010
00000000
00000010
00000100
,
00000001
00002000
00000010
00000000
00000001
00000000
00003100
00010000
,
00001000
00100000
00010000
00010000
01000000
00010000
10000000
00100000
,
01000000
00100000
01000000
00000000
00020000
00000000
00000000
00000000
00000000
00000000
00000000
00000000
00000000
00000000
00000000
00000000
,
00030000
20010000
00000000
00000000
,
32000000
03020000
00000000
00032000
,
00000000
00003020
00000230
00000320
,
00000032
00002003
00000000
00003020
,
00000030
00000200
00000000
00000000
,
00000302
00000203
00000000
00002300
,
00000000
00023000
00000000
00000000
,
00030000
00000000
00001000
00010000
00001000
00000000
00100000
00000000
00000000
00000000
00100000
00000000
00010000
00000000
00000000
00000000
,
10010000
00000000
20000000
01000000
00000000
01000000
00000000
30010000
,
00000000
00100000
00002000
00010000
00000000
00010000
00000000
01003000
,
00000000
00001000
00020000
00000100
00000000
00000100
00000000
00031000
,
00000000
00000010
00001010
00000000
00010100
00000000
01001000
00000000
,
00010000
00100000
00110000
00000000
00010000
10000000
01000000
00010000
,
00001000
00000000
00011000
00000000
00010000
00000010
00000100
00001000
,
00000100
00000000
00000001
00000010
00000100
00000010
00001000
00010000
,
01000000
00100000
01000000
10000000
00100000
10000000
01000000
00010000
,
00001000
00010000
00001000
00000000
00010000
00000000
00000000
00000000
00001000
00000000
00000010
00000000
00000001
00000000
00000011
00000000
,
00000000
00000010
00000100
00001000
00000010
00000100
00001000
00011000
,
00000000
00010000
00100000
01000000
00100000
10000000
10100000
00000000
,
10000000
01000000
11000000
00000000
00010000
00100000
01000000
01000000
,
00010000
00001000
00010000
00000000
00001000
00000100
00000001
00000101
,
00000000
00000100
00000010
00001000
00000100
00010000
00001000
00011000
,
00000000
00010000
00100000
10000000
10100000
00000000
10000000
01000000
,
00000000
00010000
00000000
00011000
00000000
00010010
00000000
00001100
,
00000000
00001000
00000010
00000001
00000010
00001000
00000100
00001100
,
00000000
00010000
00001000
00000010
00001000
00010000
00001000
00011000
,
00000000
00010000
00100000
01000000
00010000
10000000
11000000
00000000
,
10000000
00100000
01100000
00000000
01000000
00001000
00010000
00100000
,
10000000
00010000
01000000
00000000
00001000
00011000
00000000
00001010
,
00001010
00000000
00010000
00011000
00000000
00110000
00110000
00000000
,
00100000
01000000
10000000
00020000
00100000
00000000
10000000
00000000
,
01030000
00001000
00010000
00000010
00001000
00001000
00000100
00001000
,
00000001
00000000
00000010
00000000
00000100
00000010
00000100
00000000
00002000
00000000
00000000
00000000
00000000
00000000
00000000
00000000
,
00000000
00000000
00003000
00000000
00001001
00000000
00000001
00000100
,
00000001
00000000
00000000
00000001
00000000
00000000
00000010
00000000
00000100
00000010
00000100
00000000
00001000
00000000
00000100
00000000
,
00000000
00000000
00010000
00000000
00001000
00000000
00000000
00000000
00011000
00000000
00000000
00100000
00000000
00000000
00100000
00000000
,
00010000
00000000
00000000
01000000
00000000
00000000
01000000
00000000
00010000
00000000
00000000
10000000
00000000
00000000
00100000
00000000
,
01100000
00000000
00000000
00000000
10000000
00010000
10000000
00000000
01000000
00000000
00100000
00000000
01000000
00000000
00010000
00000000
,
00001000
00000000
00010000
00000000
00000100
00000000
00001000
00000100
00001000
00000000
00000010
00000000
00000100
00000000
00000010
00000000
,
00000001
00000010
00001000
00000100
00010000
00010000
00001000
00010000
,
00100000
00000000
01000000
00000000
00100000
00000000
10000000
00010000
10000000
00000000
00000000
01000000
00000000
00000000
00100000
00000000
,
02200000
00000000
03300000
00000000
;

//--------------- dance-double - forcednature ----------------
#NOTEDATA:;
#STEPSTYPE:dance-double;
#DESCRIPTION:forcednature;
#CREDIT:forcednature;
#DIFFICULTY:Challenge;
#METER:16;
#RADARVALUES:0,0,0,0,0;
#NOTES:
00000000
00000000
00000000
00000000
,
00000000
00000000
00000000
00000000
,
00000000
00000000
00000000
00000000
,
00000000
00000000
00000000
00000000
,
00000000
00000000
00000000
00000000
,
00011000
00000000
00000000
00011000
00000000
00000000
00000010
00000000
00001000
00000000
00000000
00000000
00000100
00000010
00000100
00000010
,
00000001
00000000
00000100
00000000
00001000
00000000
00000100
00000000
00000001
00000000
00000010
00000000
00001000
00000000
00010000
00001000
,
00010000
00000000
00100000
00000000
01000000
00000000
00010000
01000000
00010000
00000000
10000000
00000000
00100000
00000000
00000000
00000000
,
01000000
00000000
00010000
00000000
00100000
00000000
00001000
00000000
00010000
00001000
00010000
00001000
00010000
00000100
00001000
00000000
,
00001100
00000000
00000000
00001100
00000000
00000000
00000010
00000000
00002001
00000000
00000000
00000000
00003010
00000100
00000010
00000100
,
00000001
00000000
00000001
00000100
00001000
00000000
00010000
00000000
,
00100000
00000000
00000000
00100000
00000000
00000000
01000000
00000000
00100000
00000000
00000000
00000000
10000000
00000000
01000000
00000000
,
00010000
00000000
00001000
00000000
00011000
00000000
00000100
00001000
,
00001010
00000000
00001010
00000000
00001010
00000000
00000000
00000000
00000001
00000000
00000100
00000001
00000100
00000000
00000010
00000000
,
00000110
00000000
00000001
00001000
00000100
00000000
00000001
00000000
,
00000100
00000000
00000000
00000100
00000000
00000000
00010000
00000000
00001000
00000000
00000000
00000000
00100000
00000000
00010000
00000000
,
01000000
00000000
10000000
01000000
00010000
00000000
00100000
00000000
,
00110000
00000000
00000000
00101000
00000000
00000000
00011000
00000000
00000000
00000000
00000000
00000000
00010000
00001000
00010000
00001000
,
01000000
00000000
00010000
00000000
00100000
00000000
00010000
00000000
10000000
00000000
00100000
01000000
00010000
00000000
00100000
00000000
,
00001000
00000000
00010000
00000000
00100000
00000000
00010000
00000000
00001000
00000000
00000100
00000010
00001000
00000000
00000001
00000000
,
00000010
00000000
00001000
00000000
00000010
00000000
00000001
00000000
00000100
00000000
00001000
00010000
00001000
00000000
00010000
00000000
,
00011000
00000000
00000000
00000000
00101000
00000000
00110000
00000000
00000000
00000000
00010000
00000000
01000000
00100000
01000000
00100000
,
10000000
00000000
01000000
00000000
00010000
00000000
01000000
00000000
00100000
00000000
00001000
00010000
00001000
00000000
00000010
00000000
,
00000100
00000000
00010000
00000000
00000010
00000000
00001000
00000000
00000001
00000100
00000001
00000100
00000001
00000000
00000010
00000000
,
00000011
00000000
00000000
00000110
00000000
00000000
00001200
00000000
00000000
00000000
00010000
00000000
00010300
00000000
00000000
00000000
,
00101000
00000000
00000000
01010000
00000000
00000000
20100000
00000000
00000000
00000000
01000000
00000000
31000000
00000000
00000000
00000000
,
00110000
00000000
00000000
00101000
00000000
00000000
00010200
00000000
00000000
00000000
00000010
00000000
00000310
00000000
00000000
00000000
,
00000011
00000000
00000000
00000101
00000000
00000000
00000110
00000000
00000000
00001010
00000000
00000000
00001100
00000000
00020100
00000000
,
00000000
00000000
00031000
00100000
00001000
00100000
00010000
00100000
00010000
00100000
01000000
10000000
01000000
10000000
00010000
01000000
,
00100000
00000000
00000000
00000000
10000000
00000000
01000000
00000000
00010000
00000000
01000000
00000000
00100000
00000000
00010000
01000000
,
00001000
00000000
00010000
00001000
00010000
00000000
00000010
00000000
00001000
00000000
00000010
00000000
00000100
00000000
00000001
00000010
,
00000100
00000000
00000010
00000001
00001000
00000000
00000010
00000000
00000100
00000001
00000100
00000001
00000100
00000000
00001000
00000000
,
00010000
00001000
00010000
00001000
00200000
00000000
20300000
00000000
30200000
00000000
00320000
00000000
01030000
00000000
00100000
10000000
,
00100000
00000000
01000000
00000000
10000000
00000000
01000000
00000000
00010000
00000000
00100000
00000000
00001000
00000000
00010000
00001000
,
00010000
00000000
00000100
00001000
00000010
00000000
00000100
00000000
00001000
00000000
00000100
00000000
00000001
00000000
00000010
00000001
,
00001000
00000000
00000100
00010000
00001000
00000000
00000000
00000000
00011000
00000000
00011000
00000000
00000000
00000000
00101000
00000000
,
00000000
00000000
01010000
00000000
00000000
00000000
01100000
00000000
00000000
00000000
10100000
00000000
00000000
00000000
10000000
01000000
,
00100000
00000000
00010000
00000000
01000000
00000000
10000000
00000000
01000000
00000000
00010000
00000000
00100000
00000000
00010000
00100000
,
00001000
00000000
00010000
00000100
00001000
00000000
00000010
00000000
00000100
00000000
00000001
00000000
00000010
00000000
00000100
00001000
,
00000001
00000000
00000100
00000010
00001000
00000000
00000100
00000000
00010000
00001000
00010000
00001000
00010000
00000000
00000010
00000000
,
00001000
00000010
00001000
00000010
00000200
00000000
00002300
00000000
00003200
00000000
00000302
00000000
00000013
00000000
00000001
00001000
,
00000001
00000000
00001100
00001100
00000000
00011000
00011000
00000000
,
00110000
00000000
01010000
00000000
00000000
00000000
01100000
00000000
10100000
00000000
00000000
00000000
10000000
00000000
01000000
00100000
,
00010000
01000000
00002000
00000000
00100000
00100000
00103000
00001000
,
00010000
00000000
00000100
00000000
00001000
00000010
00001000
00000000
00000010
00000100
00000010
00000000
00000100
00000001
00000100
00000001
,
00001000
00000010
00010000
00001000
00020000
00000000
00000000
00000000
00000000
00000000
00000000
00000000
00000000
00000000
00000000
00000000
,
00030000
00200000
10000000
10000000
,
20300000
32000000
00100000
03020000
,
00001000
00030020
00002030
00003002
,
00000203
00002300
00010000
00003020
,
00000130
00002100
00000010
00000010
,
00003002
00000203
00000010
00002300
,
00010000
00203000
10000000
01000000
,
00310000
00000000
10000000
00010000
10000000
00000000
10010000
00000000
00000000
00000000
01010000
00000000
01010000
00000000
00000000
00000000
,
00010000
00000000
00100000
00001000
00020000
00000000
00000100
00000000
00000000
00000000
00000100
00000000
00000000
00000000
00030100
00000000
,
00010000
00001000
00000020
00000100
00000000
00000130
00000002
00001000
,
00000003
00000101
00000120
00000000
00002030
00000000
00023000
00000000
,
01030000
00100000
01100000
00000000
10100000
00000000
11000000
00000000
,
00010000
00100000
00110000
00001000
00010000
01000000
00010000
00001000
,
00000010
00000100
00001100
00010000
00001000
00000100
00001000
00010000
,
00100000
00000000
01000000
00000000
00010000
10000000
00010000
10000000
00010000
00000000
00100000
00000000
00001000
00010000
00001000
00010000
,
00001000
00000000
00010000
00000000
00000100
00001000
00000001
00000000
00000010
00000001
00001000
00000000
00000010
00001000
00000010
00001000
,
00000100
00010000
00001000
00100000
00010000
00000000
00000000
00000000
10000000
00000000
01000000
00000000
00010000
00000000
01000000
00000000
,
10000000
00000000
00100000
01000000
00010000
00000000
00100000
00001000
00010000
00000000
00100000
00000000
00010000
00000000
00001000
00000000
,
00000100
00000000
00000010
00001000
00000001
00000000
00000010
00000100
00001000
00000000
00000010
00000000
00010000
00001000
00010000
00001000
,
00100000
00000000
00010000
00000000
01000000
00100000
01000000
00100000
20000000
00000000
32000000
00000000
03020000
00000000
02030000
00000000
,
03100000
00000000
00010000
00100000
00001000
00000000
00010000
00000000
00000010
00000000
00000100
00000000
00001000
00000000
00000100
00000000
,
00000001
00000000
00000010
00000100
00001000
00000000
00000010
00010000
00001000
00000000
01000000
00000000
00010000
00000000
00100000
00000000
,
01000000
00000000
00010000
01000000
10000000
00000000
00010000
00100000
01000000
00000000
00000000
00000000
00110000
00000000
00110000
00000000
,
00000000
00011000
00000000
00001100
00000000
00001010
00000000
00000011
,
00000000
00000000
00000001
00000000
00000000
00000000
00001000
00000000
00000000
00000000
00000001
00000100
00001000
00000000
00000100
00000000
,
00000010
00000000
00001000
00000001
00000100
00000000
00000010
00010000
00001000
00000000
00100000
00000000
00010000
00000000
00100000
00000000
,
01000000
00000000
00010000
01000000
10000000
00000000
00100000
10000000
00010000
00000000
00100000
00000000
00001000
00010000
00001000
00010000
,
00000010
00000000
00001000
00000000
00000100
00001000
00000100
00001000
00000002
00000000
00000023
00000000
00002030
00000000
00003020
00000000
,
00000031
00000000
00001000
00000001
00000100
00000000
00000000
00000000
00001010
00000000
00001010
00000000
00000000
00000000
00001100
00000000
,
00001100
00000000
00011000
00101000
00000000
00110000
01010000
00000000
,
00100000
00000000
10000000
00010000
10000000
00000000
01000000
00000000
00200000
00000000
00000000
00000000
00001000
00000000
00001000
00000000
,
00301000
00000000
00010000
00000000
00000100
00000000
00001000
00000000
00000010
00001000
00000010
00000000
00000100
00000010
00000100
00000000
,
00000001
00001000
00000001
00001000
00000010
00010000
00001000
01000000
00020000
00000000
00000000
00000000
00000000
00000000
00000000
00000000
,
00000000
00000000
00000000
00000000
00030000
00000000
00000000
00000000
10010000
00000000
00000000
00000000
10000000
00000000
01000000
10000000
,
00010000
00000000
00000000
00110000
00000000
00000000
00001000
00000000
00010000
00001000
00010000
00000000
00000100
00000000
00001000
00000000
,
00000000
00000000
00000010
00000000
00000010
00000000
00000100
00000000
00000101
00000000
00000000
00000011
00000000
00000000
00001000
00000000
,
00001100
00000000
00000000
00001010
00000000
00000000
00010000
00000000
00011000
00000000
00000000
00011000
00000000
00000000
00101000
00000000
,
00120000
00000000
00000000
00000000
01030000
00100000
01000000
00100000
10000000
00000000
01000000
00000000
00100000
00000000
01000000
00000000
,
10000000
00000000
00100000
01000000
00100000
00000000
01000000
00001000
00010000
00000000
00000010
00000000
00001000
00000000
00000010
00000000
,
00010000
00000000
00000100
00001000
00000100
00000000
00001000
00000001
00000010
00000000
00000100
00000000
00000110
00000000
00001000
00000000
,
00001100
00000000
00010000
00000000
00011000
00000000
00100000
00000000
00110000
00000000
00000000
00110000
00000000
00000000
01010000
00000000
,
20200000
00000000
30300000
00000000
;
