#VERSION:0.83;
#TITLE:Lisrim;
#SUBTITLE:;
#ARTIST:onoken;
#TITLETRANSLIT:;
#SUBTITLETRANSLIT:;
#ARTISTTRANSLIT:;
#GENRE:;
#CREDIT:;
#MUSIC:Lisrim.ogg;
#BANNER:Lisrim.png;
#BACKGROUND:Lisrim-bg.png;
#CDTITLE:;
#SAMPLESTART:56.679;
#SAMPLELENGTH:15.000;
#SELECTABLE:YES;
#OFFSET:0.523;
#BPMS:0.000=172.000;
#STOPS:;
#BGCHANGES:0.000=Lisrim.mp4=1.000=0=0=0=StretchNoLoop====,
99999.000=-nosongbg-=1.000=0=0=0=StretchNoLoop====
;
#FGCHANGES:;

//--------------- dance-single - forcednature ----------------
#NOTEDATA:;
#STEPSTYPE:dance-single;
#DESCRIPTION:forcednature;
#DIFFICULTY:Beginner;
#METER:3;
#RADARVALUES:0,0,0,0,0;
#CREDIT:forcednature;
#NOTES:
0000
0000
0000
0000
,
0000
0000
0000
0000
,
0000
0000
0000
0000
,
0000
0000
0000
0000
,
0000
0000
0000
0000
,
0000
0000
0000
0000
,
0000
0000
0000
0000
,
0000
0000
0000
0000
,
0000
0000
0000
0000
,
1001
0000
0000
0000
,
0000
0000
0000
0000
,
1000
0000
0000
0000
,
0100
0000
0000
0000
,
0010
0000
0000
0000
,
0000
0000
0000
0000
,
0001
0000
0000
0000
,
1000
0000
0000
0000
,
1001
0000
0000
0000
,
0001
0000
0000
0000
,
0100
0000
0000
0000
,
0001
0000
0000
0000
,
0010
0000
0000
0000
,
0001
0000
0000
0000
,
0010
0000
0000
0000
,
0100
0000
0000
0000
,
1001
0000
0000
0000
,
1000
0000
1000
0000
,
0010
0000
0000
0000
,
0100
0000
0000
0000
,
0001
0000
0000
0000
,
0010
0000
0001
0000
,
0010
0000
0000
0000
,
0100
0000
0000
0000
,
1001
0000
0000
0000
,
1000
0000
0010
0000
,
1000
0000
0000
0000
,
0001
0000
0000
0000
,
0010
0000
0000
0000
,
0100
0000
1000
0000
,
0100
0000
0000
0000
,
0020
0000
0030
0000
,
1001
0000
0000
0000
,
0001
0000
0000
0000
,
0100
0000
0001
0000
,
0100
0000
0010
0000
,
1000
0000
0000
0000
,
0001
0000
0000
0000
,
1000
0000
0100
0000
,
1000
0000
0001
0000
,
0010
0000
0000
0000
,
0100
0000
0000
0000
,
1000
0000
0001
0000
,
0100
0000
0001
0000
,
1000
0000
1000
0000
,
0002
0000
0003
0000
,
1001
0000
0000
0000
,
0000
0000
0000
0000
,
0001
0000
0000
0000
,
0100
0000
0000
0000
,
0010
0000
0000
0000
,
1000
0000
0000
0000
,
0001
0000
1000
0000
,
0001
0000
0000
0000
,
1001
0000
0000
0000
,
1000
0000
0000
0000
,
0100
0000
0000
0000
,
0010
0000
0000
0000
,
0001
0000
0001
0000
,
1000
0000
1000
0000
,
0010
0000
0200
0000
,
0300
0000
0000
0000
,
2002
0000
0000
0000
,
0000
0000
0000
0000
,
0000
0000
0000
0000
,
3003
0000
0000
0000
,
0001
0000
0000
0000
,
0100
0000
0000
0000
,
0010
0000
0000
0000
,
1000
0000
0000
0000
,
1001
0000
0000
0000
,
0001
0000
0001
0000
,
0010
0000
0000
0000
,
0100
0000
1000
0000
,
0001
0000
0000
0001
,
1000
0000
0000
1000
,
0001
0000
0100
0000
,
0020
0000
0030
0000
,
2002
0000
0000
0000
,
0000
0000
0000
0000
,
3003
0000
0000
0000
,
0000
0000
0000
0000
,
1000
0000
0000
0000
,
0001
0000
0000
0000
,
0100
0000
0000
0000
,
0010
0000
0000
0000
;

//--------------- dance-single - forcednature ----------------
#NOTEDATA:;
#STEPSTYPE:dance-single;
#DESCRIPTION:forcednature;
#DIFFICULTY:Easy;
#METER:8;
#RADARVALUES:0,0,0,0,0;
#CREDIT:forcednature;
#NOTES:
0000
0000
0000
0000
,
0000
0000
0000
0000
,
0000
0000
0000
0000
,
0000
0000
0000
0000
,
0000
0000
0000
0000
,
0000
0000
0000
0000
,
0000
0000
0000
0000
,
0000
0000
0000
0000
,
0000
0000
0001
0000
0000
2002
0000
3003
,
0000
1000
0000
0100
,
0000
1000
0001
0100
,
0000
0010
0000
1000
,
0000
0001
0010
0100
,
0000
1000
0000
0001
,
0000
0100
0010
1000
,
0000
0100
0000
0010
,
0000
0000
0001
0000
0000
2002
0000
3003
,
1000
1000
0100
0000
,
1000
0010
0100
0000
,
0001
0010
0100
1000
,
0100
0010
0001
0000
,
0100
0001
0100
0001
,
1000
0010
1000
0010
,
0100
0100
0100
0002
,
0000
0000
0003
0000
0000
2002
0000
3003
,
1000
0100
0010
0100
,
1000
0001
0010
0110
,
0001
0100
0010
0100
,
0001
0010
0200
0300
,
1000
0001
0100
0001
,
1000
0100
0010
0001
,
0200
0300
0010
1000
,
0001
0010
0100
0000
,
1001
0000
1000
0010
,
1000
0001
0010
0001
,
1001
0000
0001
0100
,
0001
1000
0200
0300
,
0010
0001
0010
0100
,
1000
0001
0100
0010
,
1000
1000
0001
1000
,
0020
0000
0030
0000
,
1001
0000
1000
0000
0100
1000
0100
0000
,
0010
0000
0001
0000
0100
0001
0100
0000
,
0010
1000
0001
0010
,
0200
0000
1300
0001
,
0100
0000
0010
0000
1000
0010
1000
0000
,
0100
0000
1000
0000
0001
1000
0001
0000
,
0010
0001
0100
0010
,
2000
0000
3100
0010
,
0110
0000
0100
0000
1000
0100
1000
0000
,
0010
0000
1000
0000
0010
0100
0010
0000
,
0100
0001
0010
0100
,
0020
0000
0031
0100
,
0010
0010
1000
0010
,
0100
0000
0001
0000
0000
2002
0000
3003
,
1000
0000
0100
0000
,
1000
1000
0010
0000
,
0100
0000
0001
0000
,
0010
0010
0001
0000
,
0100
0000
0010
0000
,
1000
1000
0100
0000
,
0010
0001
0010
0000
,
0001
0000
0100
0000
0000
2002
0000
3003
,
0001
0100
0001
0100
,
0000
0010
1000
0100
,
0010
0001
0100
0010
,
1000
0100
1000
0000
,
1001
0000
0001
0100
,
0001
0001
0100
0010
,
1000
1000
0010
0200
,
0000
0000
0300
0000
,
2001
0000
0000
3000
,
0200
0000
0000
0300
,
0020
0000
0000
0030
,
0002
0000
0000
0003
,
0200
0000
0000
0300
,
0020
0000
0000
0030
,
2000
0000
0000
3000
0002
0000
0000
0003
,
0020
0000
0200
0330
,
1001
1000
0100
1000
,
0001
1000
0001
0000
0100
0000
0001
0000
,
1000
0001
1000
0000
0010
0000
0100
0000
,
0001
0010
0100
1000
,
0010
0000
0100
0010
0000
0100
0010
0000
,
1000
0000
0001
1000
0000
0001
1000
0000
,
0001
1000
0100
0010
,
0001
0000
1000
0001
0000
2002
0000
3003
,
0200
0000
0000
0000
,
0000
0000
0000
0000
,
0300
0000
0000
0000
,
0000
0000
0001
1000
,
0000
0010
0000
0100
,
0000
0001
0010
0100
,
0000
1000
0000
0001
,
0000
0100
0000
0000
;

//--------------- dance-single - forcednature ----------------
#NOTEDATA:;
#STEPSTYPE:dance-single;
#DESCRIPTION:forcednature;
#DIFFICULTY:Medium;
#METER:12;
#RADARVALUES:0,0,0,0,0;
#CREDIT:forcednature;
#NOTES:
0000
0000
0000
0000
,
0000
0000
0000
0000
,
0000
0000
0000
0000
,
0000
0000
0000
0000
,
0000
0000
0000
0000
,
0000
0000
0000
0000
,
0000
0000
0000
0000
,
0000
0000
0000
0000
,
0000
0001
1000
0001
0000
2002
0000
3003
,
0000
1000
0100
1000
0000
0100
0000
0010
,
0000
0001
0010
0001
0000
0100
0001
1000
,
0000
0010
1000
0010
0000
0100
0000
0001
,
0000
0010
0001
0010
0000
0100
1000
0010
,
0000
1000
0001
1000
0000
0001
0010
0100
,
0000
0010
0001
0010
0000
0100
1000
0001
,
0000
0100
0010
1000
0000
0100
1000
0100
,
0000
0010
0001
0100
0000
2002
0000
3003
,
1000
0010
1000
0010
0100
0001
0010
0000
,
0100
0010
0001
0100
0010
1000
0200
0000
,
1300
0010
1000
0000
0001
0010
0100
1000
,
0001
0100
0010
1000
0000
0001
1000
0001
,
0010
0100
0010
0100
1000
0100
0010
0001
,
0100
0010
0100
0010
1000
0010
0100
0001
,
1000
0100
1000
0001
0100
0001
1000
0020
,
0000
0000
0030
0000
0000
2002
0000
3003
,
1000
0100
1000
0001
0000
0100
0001
1000
,
0010
1000
0000
0001
0010
0000
0110
0000
,
0001
0100
0001
1000
0000
0100
1000
0001
,
0010
0001
0000
1000
0020
0000
0230
0000
,
0301
1000
0100
1000
0000
0001
0100
0001
,
1000
0100
0000
0010
0001
0000
0100
0000
,
1001
0000
1000
0010
0100
0010
1000
0000
,
0001
0010
0100
0000
0010
0001
1000
0000
,
1001
0000
0001
0100
0001
1000
0100
1000
,
0001
0010
0001
1000
0010
0000
0110
0000
,
1001
0000
1000
0100
1000
0001
0100
0001
,
1000
0010
1000
0001
0020
0000
0130
0000
,
1001
0000
1000
0010
0100
0001
0010
0100
,
1000
0001
0100
0001
1000
0000
1001
0000
,
0001
0010
0001
0010
0100
1000
0001
0100
,
0010
0010
0010
0000
1000
0002
0000
0003
,
1001
0000
1000
0200
0000
0301
0100
0000
,
1000
0000
0010
0002
0000
0013
1000
0001
,
0100
0010
0000
0110
0000
0100
0001
1000
,
0100
0010
0001
0010
0100
1000
0001
0000
,
1001
0000
1000
0020
0000
0031
0010
0000
,
1001
0000
0001
0200
0000
1300
0100
0001
,
0200
0000
0310
2000
0000
3001
0020
0000
,
0130
1000
0010
0100
0001
0010
0100
0000
,
1001
0000
1000
0200
0000
0301
0100
0000
,
1001
0000
0001
0020
0000
1030
0010
0001
,
0100
0010
1000
0100
0010
0001
0100
0000
,
0010
1000
0001
0010
0001
1000
0010
0000
,
0100
0001
0100
0001
0010
0100
1000
0000
,
0010
0100
0001
0100
0000
2002
0000
3003
,
1000
0000
0100
1000
0000
0010
1000
0000
,
0100
0010
0000
0001
0100
0001
1000
0100
,
0000
0010
0001
0010
0000
0001
0100
0001
,
1000
0000
0100
1000
0000
0010
0100
0001
,
0010
0000
0001
0010
0000
0001
1000
0000
,
0010
0000
0100
0001
0000
0100
0010
1000
,
0000
0100
1000
0001
0100
0002
0000
0013
,
0200
0000
1300
0010
0000
2002
0000
3003
,
0001
0010
0100
0010
0001
1000
0001
0100
,
0010
0000
1000
0001
0000
0001
0020
0000
,
0130
1000
0001
1000
0100
0010
0001
0100
,
0010
1000
0001
2000
0000
3000
0010
0100
,
0001
1000
0100
1000
0100
0010
0001
0100
,
0010
1000
0001
1000
0001
0010
0100
1000
,
0020
0000
0100
0000
1030
0000
0001
2002
,
0000
0000
0000
3003
,
2000
0000
0000
3200
0000
0000
0310
0000
,
0002
0000
0000
0023
0000
0130
1000
0001
,
0100
0002
0000
2003
0000
0000
0000
0000
,
0000
0000
0000
3000
0000
0000
0010
0000
,
0200
0000
0000
0302
0000
0000
0013
0000
,
0200
0000
0000
2300
0000
0000
3010
0100
,
0002
0000
0000
2003
0000
0000
3200
0000
,
0320
0001
0230
0300
,
1001
0000
1000
0010
0100
0010
1000
0100
,
0001
0000
0100
1000
0010
0100
0001
0010
,
1000
0000
0010
0001
0100
0001
1000
0100
,
0010
0001
0100
0010
1000
0000
1001
0000
,
0001
0100
1000
0100
0001
1000
0020
0000
,
1030
0100
0001
0100
1000
0001
0020
0000
,
0130
1000
0010
0100
0001
0010
0100
1000
,
0001
0100
1000
0200
0000
0301
0010
0000
,
2002
0000
0000
0000
,
0000
0000
0003
0000
,
3000
0000
0000
0000
,
0000
0000
0000
1000
0100
1000
0001
0010
,
0000
0001
0100
0001
0000
1000
0100
1000
,
0000
0010
0200
0000
0301
0010
0100
1000
,
0000
0100
0010
0001
0000
1000
0010
0100
,
0000
0001
1000
0100
0000
0000
0000
0000
;

//--------------- dance-single - forcednature ----------------
#NOTEDATA:;
#STEPSTYPE:dance-single;
#DESCRIPTION:forcednature;
#DIFFICULTY:Hard;
#METER:16;
#RADARVALUES:0,0,0,0,0;
#CREDIT:forcednature;
#NOTES:
0000
0000
0000
0000
,
0000
0000
0000
0000
,
0000
0000
0000
0000
,
0000
0000
0000
0000
,
0000
0000
0000
0000
,
0000
0000
0000
0000
,
0000
0000
0000
0000
,
0000
0000
0000
0000
,
0000
1000
0001
0100
0000
0220
0000
0330
,
0000
1000
0010
1000
0000
0001
0010
0001
,
0000
1000
0100
0000
1000
0001
0100
0010
,
0000
1000
0001
0010
0000
0001
1000
0010
,
0000
0000
0100
0000
0001
0000
0000
0100
0010
0000
1000
0000
0001
0000
0010
0000
,
0000
0100
0010
0001
0000
0100
0010
1000
,
0000
0010
0100
0000
0010
1000
0001
0010
,
0000
0100
1000
0001
0000
0100
0010
1000
,
0000
0100
0010
0001
0000
0220
0000
0330
,
1000
0001
0100
0001
1000
0100
1000
0001
,
0010
0000
0100
0000
0010
0000
0000
0000
0001
0000
0100
0000
0001
1000
0010
1000
,
0001
1000
0001
0000
0010
0100
1000
0100
,
0001
0000
0100
0000
1000
0000
0001
0000
0000
0000
0100
0001
0100
0000
0001
1000
,
0010
0000
1000
0000
0100
0000
1000
0000
0010
0000
1000
0000
0100
0000
1000
0001
,
0010
0001
0100
0001
0010
0001
0100
0010
,
1000
0100
1000
0100
0010
0001
0010
0001
1000
0100
1000
0001
0100
0001
2000
0000
,
0000
0000
3010
0000
0100
2002
0000
3003
,
0001
0010
0100
0010
0001
0100
0010
0100
,
0001
0010
0100
1000
0010
0100
0110
0000
,
1000
0010
0100
0010
1000
0100
0010
0100
,
1000
0000
0000
0010
0000
0000
0100
0000
0000
0001
0000
0000
0010
0000
0001
0000
1000
0000
0001
0000
0000
0000
0000
0000
,
1000
0100
0010
0100
1000
0001
1000
0010
,
0100
0000
0000
0010
0000
0000
1000
0000
0000
0001
0000
0000
0200
0000
0000
0000
0000
0000
0310
0000
1000
0000
0001
0000
,
2000
0000
3100
0020
0000
0031
0200
0000
,
0301
0000
1000
0000
0100
1000
0001
1000
0100
0000
0010
0001
1000
0000
0010
0000
,
1001
0000
1000
0010
0100
1000
0100
0010
,
1000
0001
1000
0010
1010
0000
0101
0000
,
1001
0000
0001
0010
0100
0001
0100
0010
,
0001
0000
0000
1000
0000
0000
0001
0000
0000
0010
0000
0000
0100
0000
1000
0000
0001
0000
1000
0000
0000
0000
0000
0000
,
1001
0000
1000
0100
0010
1000
0010
0100
,
1000
0001
0010
0001
1001
0000
0110
0000
,
0001
0000
1000
0100
1000
0000
0001
0100
0001
0000
1000
0100
0010
0000
0001
0000
,
0100
0001
0100
0001
1000
0010
1000
0001
0010
0000
0200
0000
0000
0000
0000
0000
,
1300
0000
0001
1000
0001
0000
0020
0000
0000
0000
0031
1000
0001
0000
1000
0000
,
0010
0000
0100
0001
1000
0000
0200
0000
0000
0000
0310
0000
0001
0000
0100
0000
,
0010
1000
0000
1200
0000
0310
0001
1000
,
0010
0000
0000
1000
0000
0000
0010
0000
0000
1000
0000
0000
0001
0000
0000
0100
0000
0000
0001
0000
0000
1000
0000
0000
0100
0000
0000
0000
0000
0000
0010
0000
0000
0000
0000
0000
0001
0000
0000
0000
1000
0000
0000
0000
0001
0000
0000
0000
,
0100
0000
0001
1000
0001
0000
0020
0000
0000
0000
0031
1000
0001
0000
0100
0000
,
0010
0000
1000
0001
0010
0000
0200
0000
0000
0000
0310
0000
0001
0000
1000
0000
,
0010
0100
0010
0000
1000
0000
0100
0010
0100
0000
1000
0000
0010
0100
0001
0000
,
1000
0000
0000
0000
0001
0000
0000
0000
1000
0000
0000
0000
0100
0000
0000
0000
0000
0000
0010
0000
0000
0000
0000
0000
0001
0000
0000
1000
0000
0000
0010
0000
0000
1000
0000
0000
0001
0000
0000
0010
0000
0000
0100
0000
0000
1000
0000
0000
,
0001
0000
0100
0010
1000
0000
0002
0000
0000
0000
0013
0100
0010
0000
0001
0000
,
1000
0000
0010
0100
0001
0000
0020
0000
0000
0000
0130
0000
1000
0000
0001
0000
,
0100
0000
0010
1000
0010
0000
0100
0000
0001
1000
0001
0000
0010
0000
0100
0000
,
1000
0001
0100
0001
1000
0100
0010
0001
1000
0000
0010
0100
0002
0000
0000
0000
,
1003
0100
0001
0100
1000
0010
0001
0010
,
1000
0001
0100
0001
1000
0100
0010
0001
0100
0000
0220
0000
0000
0000
0330
0000
,
1001
0000
1000
0001
0000
0010
0100
0000
,
1000
0001
0100
0001
1000
0100
0010
0001
,
0000
0100
0001
0100
0000
0010
1000
0001
,
0010
0000
0100
0000
1000
0000
0000
0100
1000
0000
0010
0000
0100
0000
0002
0000
,
0000
0013
0001
0010
0000
0001
0100
0010
,
1000
0000
0100
1000
0000
0010
0100
0001
,
0000
0010
0001
1000
0010
2000
0000
3001
,
0020
0000
0130
1000
0000
0220
0000
0330
,
1001
0000
0001
0010
0001
1000
0010
0100
,
0001
0000
1000
0000
0100
0000
0001
0000
0000
0000
0100
0000
1000
0100
0010
0001
,
1000
0001
1001
0000
1000
0001
0100
1000
,
0100
0000
0010
0000
0100
0000
0001
0100
0000
0000
0001
0000
1000
0000
0100
0000
,
0010
0000
0001
0000
0100
0000
0001
0000
0010
0000
0001
0000
0100
0000
0001
1000
,
0010
1000
0100
1000
0010
1000
0100
0010
,
0001
0100
0001
0100
0010
1000
0010
1000
0001
0010
0001
1000
0010
1000
0200
0000
,
0000
0000
0000
0300
,
1002
0000
0000
0203
0000
0000
0310
0000
,
2000
0000
0000
3200
0000
0310
0001
1000
,
0001
0020
0000
0230
0000
0000
0000
0000
,
0000
0000
0000
0300
0000
0000
0010
0000
,
0002
0000
0000
2003
0000
0000
3010
0000
,
0200
0000
0000
0302
0000
0000
1003
0100
,
0020
0000
0000
0032
0000
0000
0203
0000
,
0310
0000
1000
0000
0001
0000
1000
0001
2000
0000
0000
0000
3200
0000
0000
0000
,
0310
0000
0001
0010
0100
0000
1000
0000
0010
1000
0001
0000
0010
0000
0000
0000
,
0100
0000
1000
0100
0010
0000
0002
0000
0000
0000
0103
0000
1000
0000
0100
0000
,
0001
1000
0001
0010
0100
1000
0100
0010
0001
0100
0010
1000
,
0001
0010
0001
0010
0100
1000
0001
0100
0002
0000
0000
0000
2003
0000
0000
0000
,
3001
0000
0100
0010
0100
0000
0001
0000
0010
0100
0010
0000
0001
0000
0100
0010
,
1000
0000
0100
0010
0100
0000
1000
0000
0010
0100
0010
0000
1000
0000
0001
0000
,
1000
0100
1000
0001
0100
0001
1000
0100
1000
0001
0010
0100
1000
0100
0010
0001
,
2000
3020
0230
0302
0003
0220
0000
0330
,
2002
0000
0000
0000
,
0000
0000
0003
0000
,
3000
0000
0000
0000
,
0000
0000
0000
0001
0100
0010
1000
0001
,
0000
0010
0001
1000
0010
1000
0001
0010
,
0000
0100
2000
0000
3001
0100
0010
0100
,
0000
0010
1000
0001
0000
0010
0001
1000
,
0000
0001
1000
1001
0000
0000
0000
0000
;

//--------------- dance-double - forcednature ----------------
#NOTEDATA:;
#STEPSTYPE:dance-double;
#DESCRIPTION:forcednature;
#DIFFICULTY:Easy;
#METER:8;
#RADARVALUES:0,0,0,0,0;
#CREDIT:forcednature;
#NOTES:
00000000
00000000
00000000
00000000
,
00000000
00000000
00000000
00000000
,
00000000
00000000
00000000
00000000
,
00000000
00000000
00000000
00000000
,
00000000
00000000
00000000
00000000
,
00000000
00000000
00000000
00000000
,
00000000
00000000
00000000
00000000
,
00000000
00000000
00000000
00000000
,
00000000
00000000
00001000
00000000
00000000
00022000
00000000
00033000
,
00000000
00010000
00000000
00100000
,
00000000
01000000
00100000
01000000
,
00000000
00100000
00000000
10000000
,
00000000
00010000
10000000
01000000
,
00000000
00100000
00000000
01000000
,
00000000
00100000
00001000
00010000
,
00000000
00001000
00000000
01000000
,
00000000
00000000
00001000
00000000
00000000
00022000
00000000
00033000
,
00010000
00010000
00001000
00000000
,
00010000
00000100
00001000
00000000
,
00000010
00001000
00000001
00000100
,
00000001
00001000
00000010
00000000
,
00010000
00001000
00010000
00001000
,
00100000
00010000
00100000
00010000
,
01000000
01000000
01000000
00200000
,
00000000
00000000
00300000
00000000
00000000
20020000
00000000
30030000
,
10000000
01000000
00100000
01000000
,
00100000
00001000
00010000
00011000
,
00000100
00001000
00000100
00000010
,
00000001
00000100
00000020
00000030
,
00001000
00000100
00010000
00000100
,
00001000
00000010
00010000
00001000
,
02000000
03000000
00010000
10000000
,
01000000
00100000
01000000
00000000
,
01100000
00000000
00100000
00001000
,
00010000
00000100
00010000
00001000
,
00011000
00000000
00000010
00001000
,
00000010
00000100
00000002
00000003
,
00000010
00000001
00000010
00000100
,
00001000
00000010
00001000
00000100
,
00010000
00010000
00001000
00010000
,
00002000
00000000
00003000
00000000
,
00011000
00000000
00010000
00000000
00001000
00010000
00001000
00000000
,
00100000
00000000
00010000
00000000
01000000
00010000
01000000
00000000
,
00100000
10000000
01000000
00100000
,
00002000
00000000
00013000
00001000
,
00010000
00000000
00000100
00000000
00001000
00000100
00001000
00000000
,
00000010
00000000
00001000
00000000
00000010
00000100
00000010
00000000
,
00000100
00000001
00000010
00000100
,
00002000
00000000
00003010
00010000
,
00011000
00000000
00001000
00000000
01000000
00001000
01000000
00000000
,
00010000
00000000
00100000
00000000
01000000
00100000
01000000
00000000
,
10000000
00100000
01000000
00001000
,
00020000
00000000
00030100
00001000
,
00000010
00000010
00001000
00000010
,
00000100
00000000
00000001
00000000
00000000
00002002
00000000
00003003
,
00001000
00000000
00000100
00000000
,
00010000
00010000
00001000
00000000
,
01000000
00000000
00010000
00000000
,
00100000
00100000
00010000
00000000
,
10000000
00000000
00100000
00000000
,
01000000
01000000
00010000
00000000
,
00100000
00010000
00100000
00000000
,
00001000
00000000
00010000
00000000
00000000
00022000
00000000
00033000
,
00001000
00010000
00000100
00010000
,
00000000
00001000
00010000
00001000
,
00010000
00000010
00001000
00000010
,
00010000
00001000
00010000
00000000
,
00011000
00000000
00100000
00010000
,
10000000
10000000
00010000
00100000
,
01000000
01000000
00100000
00002000
,
00000000
00000000
00003000
00000000
,
00020000
00000000
00000000
00030000
,
00000200
00000000
00000000
00000300
,
00002000
00000000
00000000
00003000
,
00000002
00000000
00000000
00000003
,
00000200
00000000
00000000
00000300
,
00000020
00000000
00000000
00000030
,
00002000
00000000
00000000
00003000
00000200
00000000
00000000
00000300
,
00020000
00000000
00002000
00033000
,
00011000
00001000
01000000
00010000
,
01000000
00100000
01000000
00000000
00100000
00000000
10000000
00000000
,
00010000
10000000
00010000
00000000
00100000
00000000
00001000
00000000
,
00010000
00000100
00010000
00001000
,
00000010
00000000
00000100
00000010
00000000
00000100
00000010
00000000
,
00000001
00000000
00001000
00000001
00000000
00001000
00000001
00000000
,
00000100
00000010
00000100
00001000
,
00010000
00000000
00001000
00010000
00000000
00022000
00000000
00033000
,
02000000
00000000
00000000
00000000
,
00000000
00000000
00000000
00000000
,
00000000
00000000
00000000
00000000
,
03000000
00000000
00010000
10000000
,
00000000
01000000
00000000
00100000
,
00000000
00010000
00100000
00001000
,
00000000
00010000
00000000
00000100
,
00000000
00001000
00000000
00000000
;

//--------------- dance-double - forcednature ----------------
#NOTEDATA:;
#STEPSTYPE:dance-double;
#DESCRIPTION:forcednature;
#DIFFICULTY:Medium;
#METER:12;
#RADARVALUES:0,0,0,0,0;
#CREDIT:forcednature;
#NOTES:
00000000
00000000
00000000
00000000
,
00000000
00000000
00000000
00000000
,
00000000
00000000
00000000
00000000
,
00000000
00000000
00000000
00000000
,
00000000
00000000
00000000
00000000
,
00000000
00000000
00000000
00000000
,
00000000
00000000
00000000
00000000
,
00000000
00000000
00000000
00000000
,
00000000
00001000
00010000
00001000
00000000
00022000
00000000
00033000
,
00000000
00010000
00100000
00010000
00000000
00100000
00000000
10000000
,
00000000
01000000
10000000
01000000
00000000
00010000
00000000
01000000
,
00000000
00010000
00001000
00010000
00000000
00001000
00000000
00000010
,
00000000
00000001
00000010
00000001
00000000
00000010
00000001
00000100
,
00000000
00000010
00000100
00000010
00000000
00000100
00001000
00010000
,
00000000
00001000
00010000
00001000
00000000
00010000
00100000
01000000
,
00000000
00100000
10000000
00010000
00000000
00100000
00010000
00100000
,
00000000
01000000
00100000
00001000
00000000
00022000
00000000
00033000
,
00010000
00000100
00001000
00000100
00010000
00001000
00000010
00000000
,
00000100
00001000
00000001
00000100
00000001
00001000
00000020
00000000
,
00000130
00001000
00000100
00000000
00001000
00010000
00100000
01000000
,
00100000
10000000
00010000
01000000
00000000
00010000
10000000
00010000
,
00100000
01000000
00100000
01000000
10000000
01000000
00010000
00000000
,
00001000
00000010
00001000
00000010
00000001
00000100
00000010
00000000
,
00001000
00000100
00001000
00000010
00010000
00001000
00010000
00200000
,
00000000
00000000
00300000
00000000
00000000
02200000
00000000
03300000
,
01000000
00010000
01000000
00100000
00000000
10000000
01000000
10000000
,
00010000
00100000
00000000
00001000
00010000
00000000
00011000
00000000
,
00000100
00001000
00000100
00000010
00000000
00000001
00000100
00000001
,
00001000
00000100
00000000
00010000
00002000
00000000
00203000
00000000
,
00310000
01000000
00010000
10000000
00000000
01000000
00100000
00010000
,
00100000
01000000
00000000
00010000
00001000
00000000
00011000
00000000
,
00010100
00000000
00000100
00001000
00000010
00001000
00000001
00000000
,
00000100
00001000
00010000
00000000
00001000
00010000
00000010
00000000
,
00011000
00000000
00001000
00100000
00010000
00100000
01000000
10000000
,
01000000
00100000
00010000
00100000
00001000
00000000
00101000
00000000
,
00010100
00000000
00010000
00000010
00001000
00000010
00000100
00000001
,
00000100
00000010
00001000
00000010
00020000
00000000
00031000
00000000
,
00011000
00000000
00001000
01000000
00010000
01000000
00100000
10000000
,
00100000
01000000
00010000
01000000
00001000
00000000
00011000
00000000
,
00010000
00000100
00001000
00000100
00000010
00000001
00001000
00000010
,
00000100
00000100
00000100
00000000
00000010
00020000
00000000
00030000
,
00011000
00000000
00001000
02000000
00000000
03010000
01000000
00000000
,
00100000
00000000
10000000
02000000
00000000
03100000
01000000
00100000
,
00001000
00010000
00000000
00011000
00000000
00001000
00010000
00000010
,
00001000
00000100
00000010
00000001
00000100
00001000
00010000
00000000
,
00011000
00000000
00010000
00000200
00000000
00001300
00000100
00000000
,
00000010
00000000
00000001
00000200
00000000
00000310
00000100
00000010
,
00010000
00001000
00000000
00011000
00000000
00010000
00001000
00100000
,
00010000
01000000
10000000
01000000
00010000
00100000
00001000
00000000
,
00011000
00000000
00010000
00200000
00000000
00310000
00001000
00000000
,
00011000
00000000
00001000
00000020
00000000
00001030
00010000
00001000
,
01000000
00100000
10000000
01000000
00100000
00001000
00010000
00000000
,
00000010
00001000
00000100
00000010
00000001
00000100
00001000
00000000
,
00010000
00001000
00010000
00100000
01000000
00100000
10000000
00000000
,
01000000
00010000
00001000
00010000
00000000
00022000
00000000
00033000
,
00001000
00000000
00010000
00001000
00000000
00000010
00000100
00000000
,
00000010
00000001
00000000
00000100
00000001
00001000
00000100
00001000
,
00000000
00000010
00001000
00000010
00000000
00010000
00001000
00010000
,
00100000
00000000
01000000
00100000
00000000
10000000
00010000
00100000
,
01000000
00000000
10000000
01000000
00000000
00010000
01000000
00000000
,
00010000
00000000
00001000
00010000
00000000
00001000
00000010
00000001
,
00000000
00000010
00000100
00010000
00001000
00000020
00000000
00001030
,
00020000
00000000
00031000
00100000
00000000
02200000
00000000
03300000
,
01000000
10000000
00100000
10000000
01000000
00010000
00001000
00010000
,
00001000
00000000
00000010
00000100
00000000
00000010
00000002
00000000
,
00000103
00001000
00000100
00000000
00000001
00000100
00000010
00001000
,
00000100
00000010
00000100
00020000
00000000
00030000
00001000
00100000
,
00010000
01000000
00010000
01000000
00100000
10000000
01000000
00100000
,
00010000
01000000
00010000
01000000
00001000
00010000
00000010
00001000
,
00000200
00000000
00000010
00000000
00001300
00000000
00000001
00002002
,
00000000
00000000
00000000
00003003
,
00002000
00000000
00000000
00003020
00000000
00000000
00000130
00000000
,
00000002
00000000
00000000
00000023
00000000
00000130
00010000
00001000
,
00010000
00002000
00000000
00203000
00000000
00000000
00000000
00000000
,
00000000
00000000
00000000
00300000
00000000
00000000
01000000
00000000
,
20000000
00000000
00000000
30200000
00000000
00000000
01300000
00000000
,
00020000
00000000
00000000
00230000
00000000
00000000
01300000
00100000
,
00002000
00000000
00000000
00023000
00000000
00000000
00030200
00000000
,
00002300
00000010
00003002
00000003
,
00001001
00000000
00001000
00000010
00000100
00000010
00001000
00000001
,
00000100
00000000
00001000
00010000
00001000
01000000
00010000
00100000
,
01000000
00000000
10000000
01000000
00010000
01000000
10000000
00100000
,
01000000
00001000
00010000
00000010
00001000
00000000
00001001
00000000
,
00000001
00000010
00000100
00010000
00001000
00100000
02000000
00000000
,
13000000
00100000
01000000
00001000
00010000
00000010
00000200
00000000
,
00000301
00000010
00000001
00001000
00000010
00000100
00001000
00010000
,
00100000
01000000
00100000
02000000
00000000
03010000
10000000
00000000
,
20020000
00000000
00000000
00000000
,
00000000
00000000
00030000
00000000
,
30000000
00000000
00000000
00000000
,
00000000
00000000
00000000
00010000
01000000
00010000
00100000
00001000
,
00000000
00010000
00001000
00010000
00000000
00000010
00001000
00000010
,
00000000
00000100
00000020
00000000
00000130
00000001
00000010
00000100
,
00000000
00001000
00000010
00010000
00000000
00001000
00100000
00001000
,
00000000
00010000
00001000
01000000
00000000
00000000
00000000
00000000
;

//--------------- dance-double - forcednature ----------------
#NOTEDATA:;
#STEPSTYPE:dance-double;
#DESCRIPTION:forcednature;
#DIFFICULTY:Hard;
#METER:16;
#RADARVALUES:0,0,0,0,0;
#CREDIT:forcednature;
#NOTES:
00000000
00000000
00000000
00000000
,
00000000
00000000
00000000
00000000
,
00000000
00000000
00000000
00000000
,
00000000
00000000
00000000
00000000
,
00000000
00000000
00000000
00000000
,
00000000
00000000
00000000
00000000
,
00000000
00000000
00000000
00000000
,
00000000
00000000
00000000
00000000
,
00000000
00010000
00001000
00000010
00000000
00000220
00000000
00000330
,
00000000
00000100
00001000
00000100
00000000
00010000
00001000
00010000
,
00000000
00100000
01000000
00000000
00100000
10000000
00010000
00100000
,
00000000
01000000
00010000
00001000
00000000
00100000
00001000
00010000
,
00000000
00000000
00000100
00000000
00001000
00000000
00000000
00000010
00001000
00000000
00000010
00000000
00000100
00000000
00000001
00000000
,
00000000
00000010
00000100
00001000
00000000
00000001
00000100
00001000
,
00000000
00010000
00001000
00000000
00010000
00100000
10000000
01000000
,
00000000
00100000
00001000
00010000
00000000
00000010
00001000
00000001
,
00000000
00000100
00001000
00010000
00000000
00022000
00000000
00033000
,
00001000
00100000
00010000
00100000
00001000
00010000
01000000
10000000
,
00100000
00000000
01000000
00000000
00100000
00000000
00000000
00000000
00010000
00000000
00001000
00000000
01000000
00010000
01000000
00001000
,
00010000
00000010
00010000
00000000
00001000
00000010
00000001
00000100
,
00000010
00000000
00001000
00000000
00010000
00000000
00001000
00000000
00000000
00000000
00000010
00001000
00000010
00000000
00000100
00000001
,
00001000
00000100
00000010
00000100
00010000
00000100
00000010
00001000
,
00010000
00100000
01000000
00100000
00010000
00001000
00010000
01000000
,
00100000
01000000
00100000
01000000
00100000
00010000
00100000
00010000
10000000
01000000
00100000
00010000
00100000
00001000
00020000
00000000
,
00000000
00000000
00030100
00000000
00000000
00022000
00000000
00033000
,
00001000
00000100
00000010
00000001
00000010
00000100
00001000
00010000
,
00100000
01000000
00100000
00010000
00001000
00000000
00011000
00000000
,
00010000
01000000
00100000
10000000
00100000
01000000
00010000
00001000
,
00000010
00000000
00000000
00000100
00000000
00000000
00000010
00000000
00000000
00001000
00000000
00000000
00010000
00000000
00001000
00000000
00010000
00000000
00000100
00000000
00000000
00000000
00000000
00000000
,
00010000
00001000
00000100
00000010
00000001
00000010
00000100
00001000
,
00010000
00000000
00000000
00100000
00000000
00000000
01000000
00000000
00000000
00100000
00000000
00000000
00020000
00000000
00000000
00000000
00000000
00000000
00031000
00000000
00010000
00000000
00001000
00000000
,
00200000
00000000
01300000
20000000
00000000
30010000
02000000
00000000
,
03100000
00000000
00010000
00000000
00001000
00010000
00001000
00010000
00001000
00000000
00010000
00000100
00001000
00000000
00000010
00000000
,
00001001
00000000
00001000
00000001
00000100
00000010
00001000
00010000
,
00000100
00001000
00010000
01000000
00100000
00000000
01100000
00000000
,
10010000
00000000
00010000
10000000
01000000
00100000
00010000
00001000
,
01000000
00000000
00000000
00010000
00000000
00000000
00001000
00000000
00000000
00000100
00000000
00000000
00000010
00000000
00000100
00000000
00000010
00000000
00001000
00000000
00000000
00000000
00000000
00000000
,
00001001
00000000
00000001
00000010
00000100
00001000
00010000
00000010
,
00001000
00010000
00000010
00001000
00010000
00000000
01100000
00000000
,
10000000
00000000
00100000
00000000
00010000
00000000
00100000
00000000
10000000
00000000
01000000
10000000
00010000
00000000
00100000
00000000
,
00001000
00010000
00001000
00010000
00000100
00001000
00000001
00000100
00000001
00000000
00000020
00000000
00000000
00000000
00000000
00000000
,
00000130
00000000
00010000
00001000
00010000
00000000
00000020
00000000
00000000
00000000
00010030
00001000
00010000
00000000
00001000
00000000
,
00100000
00000000
00010000
01000000
00100000
00000000
20000000
00000000
00000000
00000000
30100000
00000000
00010000
00000000
00001000
00000000
,
00100000
01000000
00000000
21000000
00000000
30010000
01000000
00001000
,
00010000
00000000
00000000
00000100
00000000
00000000
00001000
00000000
00000000
00000100
00000000
00000000
00010000
00000000
00000000
00001000
00000000
00000000
00010000
00000000
00000000
00000010
00000000
00000000
00001000
00000000
00000000
00000000
00000000
00000000
00000010
00000000
00000000
00000000
00000000
00000000
00000100
00000000
00000000
00000000
00000001
00000000
00000000
00000000
00000010
00000000
00000000
00000000
,
00000100
00000000
00010000
00001000
00010000
00000000
00200000
00000000
00000000
00000000
01300000
00100000
01000000
00000000
00100000
00000000
,
10000000
00000000
01000000
00100000
00010000
00000000
02000000
00000000
00000000
00000000
03001000
00000000
00010000
00000000
00000010
00000000
,
00001000
00000100
00010000
00000000
00001000
00000000
00010000
00000010
00001000
00000000
00000001
00000000
00000100
00000010
00000100
00000000
,
00001000
00000000
00000000
00000000
00010000
00000000
00000000
00000000
00001000
00000000
00000000
00000000
01000000
00000000
00000000
00000000
00000000
00000000
00100000
00000000
00000000
00000000
00000000
00000000
10000000
00000000
00000000
01000000
00000000
00000000
00100000
00000000
00000000
00010000
00000000
00000000
01000000
00000000
00000000
00010000
00000000
00000000
01000000
00000000
00000000
00001000
00000000
00000000
,
00010000
00000000
00001000
00010000
00001000
00000000
00000020
00000000
00000000
00000000
00001030
00010000
00001000
00000000
00010000
00000000
,
00100000
00000000
01000000
00100000
10000000
00000000
02000000
00000000
00000000
00000000
03100000
00000000
01000000
00000000
10000000
00000000
,
01000000
00000000
00010000
00001000
00010000
00000000
00000100
00000000
00010000
00001000
00010000
00000000
00000010
00000000
00001000
00000000
,
00000001
00000010
00000001
00001000
00000010
00001000
00000001
00000010
00000100
00000000
00001000
00000100
00020000
00000000
00000000
00000000
,
00031000
00000010
00000100
00000010
00000001
00000010
00001000
00010000
,
00001000
01000000
00010000
01000000
00001000
00010000
00001000
01000000
00010000
00000000
02200000
00000000
00000000
00000000
03300000
00000000
,
10010000
00000000
10000000
01000000
00000000
00100000
01000000
00000000
,
00100000
00001000
00010000
00001000
00000100
00000010
00000100
00000001
,
00000000
00000010
00000001
00000010
00000000
00000100
00001000
00000001
,
00000100
00000000
00001000
00000000
00010000
00000000
00000000
00001000
00010000
00000000
00100000
00000000
01000000
00000000
00020000
00000000
,
00000000
01030000
00100000
10000000
00000000
01000000
10000000
01000000
,
00100000
00000000
00010000
01000000
00000000
00001000
00010000
00001000
,
00000000
00000010
00000100
00000010
00000001
00000200
00000000
00001300
,
00020000
00000000
00130000
10000000
00000000
02200000
00000000
03300000
,
10010000
00000000
10000000
00010000
00100000
00010000
10000000
00100000
,
00010000
00000000
00001000
00000000
00010000
00000000
00000100
00000000
00000000
00000000
00001000
00000000
00000100
00000010
00000001
00001000
,
00000010
00001000
00000001
00000000
00000001
00000010
00000100
00000001
,
00000100
00000000
00010000
00000000
00001000
00000000
00010000
00001000
00000000
00000000
00100000
00000000
01000000
00000000
10000000
00000000
,
00010000
01000000
00100000
01000000
00001000
01000000
00100000
00010000
,
00001000
00000010
00000100
00000010
00001000
00010000
00001000
00000100
,
00000010
00000100
00000010
00000100
00000010
00001000
00000010
00001000
00000001
00000100
00000010
00001000
00000010
00010000
00002000
00000000
,
00000000
00000000
00000000
00003000
,
00020000
00000000
00000000
02030000
00000000
00000000
13000000
00000000
,
00200000
00000000
00000000
20300000
00000000
31000000
00010000
00001000
,
00010000
00002000
00000000
00003020
00000000
00000000
00000000
00000000
,
00000000
00000000
00000000
00000030
00000000
00000000
00000001
00000000
,
00000200
00000000
00000000
00002300
00000000
00000000
00013000
00000000
,
02000000
00000000
00000000
03020000
00000000
00000000
00031000
00010000
,
00002000
00000000
00000000
00003020
00000000
00000000
00000032
00000000
,
00000103
00000000
00000001
00000000
00001000
00000000
00000001
00001000
00000002
00000000
00000000
00000000
00000023
00000000
00000000
00000000
,
00000130
00000000
00010000
00001000
00010000
00000000
00000010
00000000
00010000
00001000
00010000
00000000
00100000
00000000
00000000
00000000
,
01000000
00000000
00100000
01000000
00010000
00000000
20000000
00000000
00000000
00000000
31000000
00000000
00100000
00000000
00010000
00000000
,
01000000
00010000
01000000
00100000
00010000
00001000
00010000
00001000
00000100
00000010
00000100
00000001
,
00000010
00000001
00000010
00000001
00001000
00000100
00010000
00001000
00020000
00000000
00000000
00000000
00032000
00000000
00000000
00000000
,
00103000
00000000
00001000
00010000
00001000
00000000
00000100
00000000
00001000
00010000
00001000
00000000
00100000
00000000
00010000
00100000
,
01000000
00000000
00010000
00001000
00010000
00000000
00000010
00000000
00010000
00001000
00010000
00000000
00100000
00000000
01000000
00000000
,
00010000
01000000
00010000
01000000
00001000
00010000
00001000
01000000
00010000
01000000
00001000
00010000
00000010
00001000
00000010
00010000
,
00002000
00003200
00000302
00000023
00000030
00000220
00000000
00000330
,
00002002
00000000
00000000
00000000
,
00000000
00000000
00000003
00000000
,
00003000
00000000
00000000
00000000
,
00000000
00000000
00000000
00001000
00000001
00000100
00001000
00000100
,
00000000
00001000
00010000
00001000
00010000
00100000
10000000
00010000
,
00000000
10000000
02000000
00000000
03100000
01000000
00100000
00001000
,
00000000
00010000
00000010
00010000
00000000
00000100
00010000
00000100
,
00000000
00010000
00001000
00000010
00000000
00000000
00000000
00000000
;
