#VERSION:0.83;
#TITLE:Light and Cyber・・・;
#SUBTITLE:;
#ARTIST:Tatsh;
#TITLETRANSLIT:Light and Cyber;
#SUBTITLETRANSLIT:;
#ARTISTTRANSLIT:;
#GENRE:HAPPY HARDCORE;
#CREDIT:;
#MUSIC:Light and Cyber.ogg;
#BANNER:Light and Cyber.png;
#BACKGROUND:Light and Cyber-bg.png;
#CDTITLE:./CDTitles/bm IIDX 20 tricoro.png;
#SAMPLESTART:19.985;
#SAMPLELENGTH:15.000;
#SELECTABLE:YES;
#OFFSET:1.224;
#BPMS:0.000=181.000
,160.000=90.500
,174.833=181.000
;
#STOPS:174.833=0.387;
#TIMESIGNATURES:0.000=4=4;
#BGCHANGES:0.000=Light and Cyber.mp4=1.000=0=0=0=StretchNoLoop====,
99999.000=-nosongbg-=1.000=0=0=0=StretchNoLoop====
;
#FGCHANGES:;

//--------------- dance-single - forcednature ----------------
#NOTEDATA:;
#STEPSTYPE:dance-single;
#DESCRIPTION:forcednature;
#CREDIT:forcednature;
#DIFFICULTY:Beginner;
#METER:4;
#RADARVALUES:0,0,0,0,0;
#NOTES:
0000
0000
0000
0000
,
0000
0000
0000
0000
,
0000
1001
0000
0000
,
0000
1000
0000
0000
,
0000
0100
0000
0000
,
0000
0000
0000
0000
,
0000
0010
0000
0001
,
0000
0000
0000
0000
,
1001
0000
0000
0000
,
1000
0000
0000
0000
,
0010
0000
0000
0000
,
0100
0000
0000
0000
,
0001
0000
0000
0000
,
0010
0000
0000
0000
,
0100
0000
0100
0000
,
1000
0000
0000
0000
,
1001
0000
0000
0000
,
0001
0000
0000
0000
,
0100
0000
0010
0000
,
1000
0000
0001
0000
,
0000
0100
0000
0100
,
0000
0010
0000
1000
,
0000
0000
0000
0000
,
0001
0000
0010
0000
,
1001
0000
0000
0000
,
1000
0000
0000
0000
,
0100
0000
0000
0000
,
1000
0000
0000
0000
,
0010
0000
0000
0000
,
0100
0000
0000
0000
,
0001
0000
0000
0000
,
0010
0000
0100
0000
,
1000
0000
0000
0000
,
0010
0000
0000
0000
,
0100
0000
0100
0000
,
0001
0000
0000
0000
,
1001
0000
0000
0000
,
1000
0000
0100
0000
,
1000
0000
1000
0000
,
0010
0000
0000
0000
,
1001
0000
0000
0000
,
0001
0000
0000
0000
,
0010
0000
0100
0000
,
1000
0000
0010
0000
,
1001
0000
0000
0000
,
0001
0000
0001
0000
,
0100
0000
0000
0000
,
0010
0000
1000
0000
,
0001
0000
0000
0000
,
1000
0000
1000
0000
,
0100
0000
0000
0000
,
0010
0000
0001
0000
,
1000
0000
0000
0000
,
0010
0000
0100
0000
,
0110
0000
0000
0000
,
0001
0000
0000
0000
,
0010
0000
0010
0000
,
0001
0000
0100
0000
,
0110
0000
0000
0000
,
0010
0000
0000
0000
,
1000
0000
1000
0000
,
0100
0000
1000
0000
,
1001
0000
0000
0000
,
0001
0000
0010
0000
,
0100
0000
0000
0000
,
1000
0000
0010
0000
,
0110
0000
0000
0000
,
0001
0000
0000
0000
,
0010
0000
0010
0000
,
0100
0000
1000
0000
,
0010
0000
0000
0000
,
0100
0000
0000
0000
,
0001
0000
0001
0000
,
1000
0000
0000
0000
,
1001
0000
0000
0000
,
0001
0000
0010
0000
,
0100
0000
0010
0000
,
0001
0000
0000
0000
,
0110
0000
0000
0000
,
1001
0000
0000
0000
,
1000
0000
1000
0000
,
0010
0000
0010
0000
,
1000
0000
0100
0000
,
1000
0000
0001
0000
,
0010
0000
0100
0000
,
2002
0000
0000
0000
,
0000
0000
0000
0000
,
0000
0000
0000
0000
,
3003
0000
0000
0000
;

//--------------- dance-single - forcednature ----------------
#NOTEDATA:;
#STEPSTYPE:dance-single;
#DESCRIPTION:forcednature;
#CREDIT:forcednature;
#DIFFICULTY:Easy;
#METER:9;
#RADARVALUES:0,0,0,0,0;
#NOTES:
0000
0000
0000
0000
,
0000
0000
0000
0000
,
0000
0001
0001
0001
,
0000
1000
1000
1000
,
0000
0010
0100
0001
,
0100
0000
0010
0000
,
0010
0000
1000
0001
,
0010
0100
0000
0110
,
1001
1000
0100
0000
,
1000
0010
0100
0001
,
0010
0001
0010
0000
,
0100
1000
0001
0100
,
0010
1000
0010
0000
,
1000
0001
0010
0100
,
0010
0010
0001
0001
,
1000
0010
0100
0001
,
1001
0100
1000
0020
,
0000
0130
0001
0100
,
0010
0000
0000
0010
0000
0000
1000
0000
,
0001
0010
0100
1000
,
0000
1001
0000
0110
,
0000
0001
0001
1000
,
0100
0000
0010
0000
,
0100
1000
0001
0100
,
0110
0000
1000
1000
,
0001
0010
0100
1000
,
0001
0000
1000
1000
,
0010
0100
0001
1000
,
0100
0000
0010
0001
,
1001
0000
0010
1000
,
1001
0000
0001
0010
,
0100
0100
1000
0001
,
1001
0000
1000
0010
,
0100
0010
1000
0001
,
1001
0000
0001
0010
,
0100
0010
0001
1000
,
0100
0100
1000
1000
,
0010
0100
0001
0010
,
1001
0100
1001
0010
,
0110
1001
1001
0110
,
2000
0000
0000
0000
,
3002
0000
0000
0000
,
0023
0000
0230
0000
,
2300
0000
0000
0000
0000
0000
0000
0000
0000
0000
0000
0000
3020
0000
0000
0000
0000
0030
0000
0000
0000
0000
0000
0000
,
1000
0100
1000
0010
,
0110
0001
1000
0000
,
0001
0100
0001
0010
,
0110
1000
0001
0000
,
0010
0100
1000
0100
,
0110
0001
1000
0000
,
0010
0010
0100
0001
,
2000
0000
3010
0010
,
1000
0000
0001
0000
,
0010
0100
0010
0110
,
1001
0000
1000
0000
0100
1000
0100
0000
,
0010
0000
0001
0000
0100
0001
0100
0000
,
0010
0000
1000
0000
0001
1000
0001
0000
,
0010
0100
1000
0010
,
0110
0000
0001
0000
1000
0100
1000
0000
,
0010
0000
0100
0000
0001
0100
0001
0000
,
1000
0000
0100
0000
1000
0001
1000
0000
,
0010
0100
0001
0010
,
1001
0000
0100
0000
1000
0010
1000
0000
,
0001
0010
0100
1000
,
0110
0000
0001
0000
0100
0010
0100
0000
,
0001
1000
0100
0010
,
0001
1000
0000
0000
0001
1000
0000
0000
,
0010
0100
0000
0000
0010
0100
0000
0000
,
1000
0001
0000
0000
1000
0001
0000
0000
,
0010
0100
0000
0000
1000
0000
0001
0000
,
1001
0100
1000
0001
,
0010
0100
1000
0010
,
0110
0001
1001
0100
,
0110
1001
1000
0001
,
0010
0100
0010
0000
0100
0000
1000
0000
,
0010
1000
0010
0000
0100
0000
0001
0000
,
0010
0001
0010
0000
0100
0000
1000
0000
,
0001
0000
0100
0000
0000
0010
0010
0000
,
1000
0001
1000
0000
0100
0000
0010
0000
,
0001
1000
0001
0000
0100
0000
0001
0000
,
1000
0010
1000
0000
0001
0000
0010
0000
,
0100
1000
0100
0000
1000
0000
0010
0000
,
0110
1000
1001
0100
,
0001
1000
0001
0000
0010
0000
0110
0000
,
1000
0001
1000
0000
0010
0000
0110
0000
,
0002
0000
0003
1000
0002
0000
0000
0000
,
0000
0000
0000
0000
,
0000
0000
0000
0000
,
0003
0000
0000
0000
;

//--------------- dance-single - forcednature ----------------
#NOTEDATA:;
#STEPSTYPE:dance-single;
#DESCRIPTION:forcednature;
#CREDIT:forcednature;
#DIFFICULTY:Medium;
#METER:12;
#RADARVALUES:0,0,0,0,0;
#NOTES:
0000
0000
0000
0000
,
0000
0000
0000
0000
,
0000
0000
1001
0000
1000
0000
0100
1000
,
0001
0000
0010
0000
0100
0000
0010
0001
,
0100
0000
0000
0010
0000
0010
0000
1000
,
0000
0002
0000
0010
0000
0010
0000
0100
,
0000
0103
0000
0010
1000
0001
0010
0001
,
0000
0100
0020
0000
0000
1030
0001
0000
,
0011
0000
0110
0000
0001
1000
0100
0000
,
1100
0000
1010
0000
0001
0100
0010
0000
,
1010
0000
1001
0000
0001
0010
0100
0000
,
0110
0000
0011
0000
0001
1000
0100
1000
,
0100
0000
1001
0000
0001
0010
0100
0000
,
0010
0000
0011
0000
0001
1000
0010
0000
,
0100
0001
0000
0001
0000
0010
0000
0100
,
1000
0001
1000
0001
0100
0010
0100
0000
,
0010
1000
0100
2000
0000
3002
0000
0023
,
0000
0000
0100
0000
0100
0030
0100
1000
,
0002
0000
0103
0020
0000
1030
0002
0000
,
0013
0000
0000
0100
0000
0000
1000
0000
0002
0000
0000
0000
0203
0000
0000
0000
,
0310
1010
1100
1010
,
0110
0101
0011
0110
,
1000
0100
0000
0100
1000
0010
0000
0010
,
1000
0001
1000
0001
0100
0010
0100
0000
,
1001
0000
0001
0010
0100
1000
0001
0000
,
0200
0320
2030
3001
,
1001
0000
1000
0100
0010
0001
1000
0000
,
0020
0230
0302
0013
,
1001
0000
0001
0100
0010
1000
0100
0000
,
1001
0000
1000
0100
0010
0001
0100
0000
,
1001
0000
0001
0010
0001
1000
0010
0000
,
0100
0001
0100
0000
0001
0010
0001
0000
,
0110
0000
1000
0100
1000
0000
1000
0010
,
1000
0000
1000
0001
0100
0010
1000
0000
,
1001
0000
0001
0100
0001
0000
0001
0010
,
0001
0000
0001
0100
0010
1000
0001
0000
,
0010
0100
0000
0100
1000
0001
0000
0001
,
0100
0010
0100
0010
1000
0001
1000
0000
,
1100
0001
0011
1000
,
0010
0100
0010
0100
0001
1000
0010
0100
,
0002
0000
0000
0000
,
0023
0000
0000
0000
,
0230
0000
2300
0000
,
3020
0000
0000
0000
0000
0000
0000
0000
0000
0000
0000
0000
0230
0000
0000
0000
0000
0300
0000
0000
0000
0000
0000
0000
,
0001
0000
0000
0001
0000
0000
0010
0000
0000
0001
0000
0000
0100
0000
0000
0000
,
0010
0000
0000
1000
0000
0000
0001
0000
0000
0100
0000
0000
0010
0000
0000
0000
,
1000
0000
0000
1000
0000
0000
0100
0000
0000
1000
0000
0000
0001
0000
0000
0000
,
0010
0000
0000
0100
0000
0000
1000
0000
0000
0001
0000
0000
0100
0000
0000
0000
,
0010
0000
0000
0010
0000
0000
1000
0000
0000
0001
0000
0000
0010
0000
0000
0000
,
0100
0000
0000
1000
0000
0000
0001
0000
0000
0100
0000
0000
0010
0000
0000
0000
,
1000
0000
0000
0100
0000
0000
1000
0000
0000
0001
0000
0000
0010
0000
0000
0000
,
0200
0000
0300
1000
0001
1000
0001
0000
,
0100
0000
0100
0010
1000
0000
1000
0100
,
0010
0000
0001
0000
0100
0010
0110
0000
,
1001
0000
1100
0000
0001
0010
0100
0000
,
0010
0001
0100
0001
1000
0000
0010
0000
,
0100
0001
1000
0100
0010
0000
0001
0000
,
0100
0010
0100
0010
1000
0001
1000
0000
,
1100
0000
0011
0000
0001
1000
0010
0000
,
0100
0001
1000
0100
0010
0000
0001
0000
,
1000
0010
0100
0001
1000
0000
0100
0000
,
0010
0001
0010
0001
1000
0010
1000
0000
,
0101
0000
1100
0000
0001
0010
0100
0000
,
0010
0001
1000
0010
0100
0000
0001
0000
,
1100
0000
0101
0000
1000
0010
0100
0000
,
0001
0010
0100
0010
0001
0000
1000
0001
,
1000
0100
0000
0000
0100
0010
0000
0000
,
0010
0001
0000
0000
0001
0200
0000
0300
,
0010
1000
0000
0000
0001
0100
0000
0000
,
0010
1000
0000
0000
0001
0010
0100
1000
,
0001
0001
0100
0010
,
1000
0100
0010
0001
,
1001
0100
1001
0010
,
0110
0000
1100
0000
0001
0001
0010
0000
,
0001
0100
0001
0100
0010
1000
0001
0000
,
0010
0100
1000
0000
0010
0100
0001
0000
,
1000
0100
1000
0100
0010
0001
1000
0000
,
0010
0100
0001
0000
0010
0100
0100
0000
,
0010
0001
1000
0010
1000
0001
0010
0000
,
0100
1000
0001
0100
0001
1000
0100
0000
,
0110
1000
1010
0001
,
0010
0100
1000
0000
0010
0100
0001
0000
,
1000
1000
0100
0000
0010
0010
0001
0000
,
0100
0100
0010
0000
1000
1000
0001
0000
,
0010
0100
1000
0001
0100
0010
0100
0010
,
2000
0000
3000
0001
0002
0000
0000
0000
,
0000
0000
0000
0000
,
0000
0000
0000
0000
,
0003
0000
0000
0000
;

//--------------- dance-single - forcednature ----------------
#NOTEDATA:;
#STEPSTYPE:dance-single;
#DESCRIPTION:forcednature;
#CREDIT:forcednature;
#DIFFICULTY:Hard;
#METER:15;
#RADARVALUES:0,0,0,0,0;
#NOTES:
0000
0000
0000
0000
,
0000
0000
0000
0000
,
0000
0000
1001
0000
1000
0100
0010
0100
,
1000
0000
1001
0000
0001
0100
0010
0100
,
0001
0000
0010
0100
2100
0000
3010
0100
,
0102
0000
0000
1000
0000
1000
0000
1000
,
0000
0000
1003
0000
0010
0000
0010
0000
0100
0010
0100
0000
0001
0000
1000
0000
,
0010
1000
0100
0001
0000
0100
0110
0000
,
0010
0000
0001
0000
0100
0000
0001
0100
0000
0000
0001
0000
0011
0000
0000
0000
,
1000
0000
0100
0000
1000
0000
0010
1000
0000
0000
0010
0000
0100
0000
0001
0000
,
0010
0000
0001
0000
0100
0000
0010
0100
0000
0000
0010
0000
1000
0000
0001
0000
,
0010
0000
0001
0000
0100
0000
0010
1000
0000
1000
0000
0000
0001
0000
0010
0000
,
0100
0000
1000
0000
0100
0000
1000
0010
0000
0000
0100
0000
0110
0000
0000
0000
,
0001
0000
0010
0000
0001
0000
1000
0100
0000
0000
1000
0000
0010
0000
0100
0000
,
0002
0010
0000
0013
0200
1000
0000
1300
,
0010
0000
0100
0000
0001
0000
0100
0000
0010
0000
1000
0000
0001
1000
0001
1000
,
0001
0010
0100
2000
0000
3020
0000
0230
,
0000
0000
0301
0000
0010
0000
0100
0000
0010
0000
0001
0000
0100
0000
0010
1000
,
0020
0000
0130
0002
0000
1003
0200
0000
,
0310
0000
0000
0001
1000
0000
0001
0000
0200
0000
0000
0000
0320
0000
0000
0000
,
1030
0100
1100
0000
1000
0010
1010
0000
,
0001
0100
0110
0000
0001
1000
1100
0000
,
0001
0001
0000
0010
1000
1000
0000
0010
,
0001
0000
1000
0000
0100
0000
1000
0000
0010
0000
0100
0000
0001
1000
0001
1000
,
0001
0000
1000
0100
0001
0100
1000
0001
,
0020
0230
2300
3010
,
1001
0000
0001
0100
1000
0100
0001
1000
,
0020
0230
0302
0013
,
1001
0000
1000
0100
0001
0100
1000
0001
,
0020
0000
0031
0100
1000
0100
0001
1000
,
0020
0000
1030
0100
0001
1000
0010
0001
,
1000
0010
0100
0010
0001
0010
2000
0000
,
3001
0001
0100
0001
0010
1000
0010
0001
,
1000
1000
0100
1000
0010
0001
0010
0000
,
1000
0100
0010
0100
1000
0010
0001
0010
,
1000
0001
0100
1000
0100
0001
0010
0000
,
1001
0000
0000
0000
1000
0000
0000
1000
0100
0000
0000
0100
0010
0000
0001
0000
,
0100
0000
0010
0000
1000
0000
0100
0000
0010
0000
0001
0000
0100
0000
0010
0100
,
0010
0000
1000
0000
0100
0000
1000
0001
1000
0000
0001
0000
0010
0000
0100
0010
,
0100
0000
1000
0000
0010
1000
0010
0000
0100
0000
0001
0000
1000
0001
1000
0001
,
0020
0000
0000
0000
,
0230
0000
0000
0000
,
2300
0000
3002
0000
,
0203
0000
0000
0000
0000
0000
0000
0000
0000
0000
0000
0000
0320
0000
0000
0000
0000
0030
0000
0000
0000
0000
0000
0000
,
1000
0000
0100
1000
0000
0100
1000
0000
0010
1000
0000
0001
0010
0000
0000
0000
,
0001
0100
1000
0100
0001
1000
0010
0000
,
0100
0000
0001
0100
0000
0001
0010
0000
0100
0010
0000
0100
1000
0000
0000
0000
,
0001
0010
1000
0010
0001
1000
0100
0000
,
1000
0000
0010
0100
0000
0010
0100
0000
0001
0010
0000
0001
1000
0000
0000
0000
,
0001
0000
0010
0100
0000
0010
0100
0000
1000
0010
0000
1000
0001
0000
0000
0000
,
0010
0000
0100
0010
0000
0100
1000
0000
0010
0100
0000
0001
0010
0000
0001
0000
,
2000
0000
0000
0000
0000
0000
3010
0000
0100
0000
0001
0100
0001
0000
1000
0000
,
0100
0001
0000
0001
0100
1000
0000
1000
,
0010
0000
0100
0001
1000
0000
0100
0000
0010
0000
0001
0000
0011
0000
0000
0000
,
1100
0000
0001
0000
1000
0000
0010
0100
0000
0010
0100
0000
0001
0000
0010
0000
,
0001
0000
1000
0000
0100
0000
1000
0010
0000
0010
0100
0000
0001
0000
0010
0000
,
0001
0000
1000
0000
0010
0000
0100
0001
0000
0001
1000
0000
0100
0000
0010
0000
,
0001
0000
0100
0000
1000
0000
0100
0001
0000
0001
1000
0000
0010
0000
0100
0000
,
1001
0000
0001
0000
0010
0000
0100
1000
0000
0100
1000
0000
0010
0000
0100
0000
,
0001
0000
0010
0000
0100
0000
0010
0001
0000
0001
1000
0000
0010
0000
0100
0000
,
0001
0000
0010
0000
1000
0000
0010
0001
0000
0001
1000
0000
0100
0000
1000
0000
,
0001
0000
0100
0000
1000
0000
0100
0000
0001
0000
1000
0001
1000
0000
0001
1000
,
0010
0000
0100
0000
0001
0000
0010
0001
0000
0001
0010
0000
0100
0000
1000
0000
,
0010
0000
0100
0000
0001
0000
0010
0100
0000
0010
0001
0000
1000
0000
0010
0000
,
1000
0000
0100
0000
0001
0000
0100
1000
0000
0010
1000
0000
0001
0000
0010
0000
,
0100
0000
0010
0000
0001
0000
1000
0010
0000
0100
0010
0000
0100
0000
0001
0000
,
0010
0000
0010
0100
0000
0000
1000
0000
0010
0000
0010
0100
0000
0000
0001
0000
,
0010
0000
0010
0100
0000
0000
1000
0000
0010
0000
0010
0100
0000
0000
0001
0000
,
1000
0000
0100
0010
0000
0000
0001
0000
1000
0000
0010
0100
0000
0000
0001
0000
,
1000
0000
0100
0010
0000
0000
0001
0000
0100
0010
0100
0000
0010
1000
0010
0000
,
1000
0100
0010
0100
1000
0001
0010
0001
,
1000
0010
0100
0001
0010
0100
1000
0001
,
0101
0000
0001
1000
1010
0000
0001
0010
,
0210
0000
0000
0000
1000
0000
0000
0000
0310
0000
0001
0010
0001
0000
0010
0001
,
1000
0010
0100
0010
1000
0001
0100
1000
,
0100
0000
0001
0000
0010
0000
0001
0000
1000
0000
0010
0000
0100
0010
0100
0000
,
0001
0010
0100
0001
0100
1000
0001
0010
,
0001
0000
1000
0000
0010
0000
0100
0000
0001
0000
0010
0001
0010
0000
0000
0000
,
1100
0000
0001
0000
0010
0000
0100
0000
0001
0000
0100
0000
0010
0000
0001
1000
,
0001
0000
0100
0000
0010
0000
1000
0000
0100
0000
0010
0000
0100
0000
1000
0001
,
1000
0000
0010
0000
0100
0000
1000
0000
0100
0000
0010
0000
1000
0000
0001
0100
,
0001
0010
0001
1000
0001
0100
0101
0001
,
0010
0010
0100
0100
1000
1000
0001
0001
,
0100
0010
0001
0010
1000
0010
0100
0001
,
1000
0100
1000
0000
0100
0010
0100
0000
0010
0000
0010
0000
0001
1000
0001
1000
,
0020
0000
0030
0010
0020
0000
0000
0000
,
0000
0000
0000
0000
,
0000
0000
0000
0000
,
0030
0000
0000
0000
;

//--------------- dance-single - forcednature ----------------
#NOTEDATA:;
#STEPSTYPE:dance-single;
#DESCRIPTION:forcednature;
#CREDIT:forcednature;
#DIFFICULTY:Challenge;
#METER:17;
#RADARVALUES:0,0,0,0,0;
#NOTES:
0000
0000
0000
0000
,
0000
0000
0000
0000
,
0000
0000
0000
0000
1000
0000
0100
0000
1000
0000
1000
0010
0000
0000
0100
0000
,
0001
0000
0001
0010
0000
0000
0001
0000
1000
0000
1000
0010
0000
0000
0100
0000
,
0001
0000
1000
0100
0000
0000
0010
0000
0001
0000
0001
1000
0000
0000
0010
0000
,
0100
0000
0100
0001
0000
0000
0010
0000
0100
0000
0010
0000
0000
0000
0010
0000
,
0001
0000
0010
0000
0100
0000
1000
0010
0100
0000
0001
0000
1000
0100
0010
0000
,
0001
0000
0100
0001
0100
0001
0200
0000
0000
0000
0310
0000
1001
0000
0000
0000
,
0110
0000
0001
0000
1000
0000
0010
1000
0000
0000
0001
0000
0010
0000
0000
0000
,
0100
0000
1000
0000
0001
0000
0100
0010
1000
0000
0001
0000
0010
0000
0100
0000
,
0010
0000
0001
0000
1000
0000
0010
0001
0000
0000
0010
0000
0100
0000
0001
0000
,
1000
0000
0100
1000
0100
0000
0010
0000
0001
0000
0001
0000
0100
0000
0001
0000
,
1000
0000
0010
0000
0100
0000
0010
1000
0000
0000
0100
0000
0001
0000
0100
0000
,
1000
0000
0001
0000
0010
0000
0100
0001
0000
0000
0100
0000
1000
0000
0001
0000
,
0100
0010
0100
0010
0100
0000
0010
0000
1000
0010
1000
0010
1000
0000
0001
0000
,
0010
0100
0010
0100
1000
0100
1000
0100
0010
0001
0010
0001
1000
0100
0010
0001
,
1000
0010
0100
0001
0000
0110
0000
1020
,
0000
0000
0001
0000
0000
0000
0100
0000
0000
0000
1030
0000
0000
0000
0010
0100
,
0001
1000
1000
0100
1000
1000
0010
0000
,
0110
0000
0000
0001
0010
0000
0100
0000
2000
0000
0000
0000
3020
0000
0000
0000
,
0130
0000
0010
0100
0001
0000
0010
0000
0001
0000
0010
0100
1000
0000
0010
0000
,
0100
0000
1000
0100
0001
0000
0000
0000
0011
0000
0000
0000
0110
0000
0000
0000
,
1100
1100
0000
1000
0010
0110
0000
0100
,
0001
0000
0010
0001
0010
0000
0100
0000
1000
0001
1000
0001
0100
0010
0100
0010
,
1000
0000
0000
0000
0001
0010
0100
0010
0001
1000
0100
1000
0001
0010
0100
1000
,
0002
0003
0200
0300
0020
0030
2000
3000
,
1001
0000
0000
0000
1000
0010
0100
0010
1000
0001
0100
0001
1000
0010
0100
0001
,
2000
3000
0200
0300
0020
0030
0002
0003
,
1001
0000
0000
0000
0001
0100
0010
0100
0010
1000
0001
1000
0010
0100
0001
1000
,
0010
0000
0000
0000
1000
0100
0010
0100
0010
0001
1000
0001
0010
0100
1000
0001
,
0010
0000
0000
0000
0001
0100
0001
1000
0010
1000
0001
0010
0100
1000
0001
1000
,
0010
0000
0100
0010
0100
0000
0001
0000
1000
0000
1000
0000
0100
0000
0000
0000
,
1000
0000
0001
0100
0001
0100
0010
0100
0010
0100
0010
1000
0010
1000
0001
0100
,
0010
0000
1000
0001
0010
0000
0100
0000
0100
0000
0010
0000
0001
0000
1000
0000
,
0001
0000
1000
0100
1000
0100
0010
0100
0010
0100
0010
0001
0010
0001
1000
0010
,
0100
0001
0010
0100
0010
0010
0001
0100
,
1001
0000
1000
0100
0010
0000
0001
0100
0010
0000
1000
0001
1000
0000
0010
0000
,
0100
0001
1000
0001
0100
0000
0010
0000
1000
0001
0010
0000
0100
0000
0010
0000
,
0001
1000
0100
1000
0001
1000
0100
1000
0001
0010
0100
0010
0001
0010
0100
0010
,
0001
1000
0010
0100
0010
1000
0001
0100
0001
1000
0100
0010
0001
0010
0100
1000
,
0020
0000
0000
0000
,
0230
0000
0000
0000
,
0302
0000
2003
0000
,
3200
0000
0000
0000
0000
0000
0000
0000
0000
0000
0000
0000
0320
0000
0000
0000
0000
0030
0000
0000
0000
0000
0000
0000
,
1001
0000
0001
0100
0000
0010
0100
0000
0001
1000
0000
0100
0001
0000
0100
0000
,
1000
0000
0010
0100
0000
0001
0010
0000
0001
1000
0100
1000
0001
0000
0010
0000
,
0001
0000
1000
0010
0000
0100
1000
0000
0100
0001
0000
1000
0010
0000
0100
0000
,
0001
0000
0010
0100
0000
0010
0001
0000
1000
0010
0100
0010
1000
0001
0100
0001
,
1000
0000
0001
0010
0000
0100
0001
0000
0100
1000
0000
0010
1000
0000
0001
0000
,
0100
0000
0010
0001
0000
0010
1000
0000
0001
0100
0000
0001
0010
0100
0010
0100
,
1000
0000
0010
0100
0000
1000
0100
0000
0001
1000
0000
0010
0100
0001
0010
0000
,
0200
0000
0000
0000
0000
0000
1300
0000
0001
0100
0010
0100
0001
1000
0010
0100
,
0001
0010
0000
0010
0100
0010
0000
0010
,
0001
1000
0010
0100
0001
0000
1000
0000
0100
0000
1100
0000
1010
0000
0000
0000
,
0110
0000
0001
0000
1000
0000
0100
0001
0100
0001
0000
0100
1000
0000
0001
0010
,
0001
0000
1000
0000
0010
0000
0100
1000
0100
1000
0100
0001
1000
0010
0100
0001
,
1000
0000
0100
0000
1000
0000
0010
0001
0010
0001
0010
1000
0001
0100
0010
1000
,
0001
0000
0010
0000
0011
0000
1000
0100
0000
1000
0010
0000
0100
0000
0001
0000
,
0110
0000
1000
0000
0001
0000
0100
1000
0100
1000
0100
0001
1000
0000
0010
0000
,
1000
0000
0001
0000
0010
0000
0100
0001
0100
0001
0100
1000
0001
0010
0100
1000
,
0001
0000
0100
0000
0001
0000
0010
1000
0010
1000
0010
0001
1000
0100
0010
0001
,
1000
0000
0010
0000
1010
0000
0000
0000
0001
0010
0100
1000
0010
0100
0001
1000
,
0100
0000
0010
0000
0000
0000
0100
0001
0100
1000
0100
0000
0010
0000
0001
0000
,
0100
0000
0001
0000
0101
0000
0000
1000
0100
0010
0100
0010
0001
0000
1000
0000
,
0010
0000
0100
0000
1000
0000
0100
0001
0000
1000
0010
0001
0010
0000
1000
0000
,
0001
0000
0010
0001
0100
0000
0010
0000
1000
0001
0000
0010
1000
0000
0010
0000
,
1001
0000
0001
0100
0000
0000
0001
0000
1000
0000
1000
0100
0000
0000
1000
0000
,
0001
0000
0001
0010
0000
0000
0001
0000
1000
0000
1000
0020
0000
0000
0130
0000
,
0001
0000
0010
0001
0000
0000
0100
0000
0010
0000
0100
0010
0000
0000
1000
0000
,
0100
0000
1000
0100
0000
0000
0010
0000
0001
0100
0001
0100
0010
1000
0010
1000
,
0001
1000
0100
1000
0010
1000
0100
1000
,
0010
0100
0001
0010
0001
0100
0010
1000
,
1100
0000
0001
0010
0012
0000
0103
0000
,
0001
0010
0001
0010
0100
1000
0001
0100
0010
1000
0010
0100
0001
1000
0001
0100
,
0010
0000
1000
0100
1000
0000
0100
0010
0100
0000
0010
0001
1000
0001
0010
0000
,
0001
0000
0100
0001
0100
0000
0010
0100
0010
0000
1000
0001
0100
0001
1000
0000
,
0100
0000
0010
0100
1000
0000
1000
0001
0010
0000
0100
0000
0010
0001
0100
0000
,
0010
0000
1000
0100
0010
0000
0100
1000
0001
0000
0101
0000
0110
0000
0000
0000
,
1001
0000
1000
0100
0010
0000
0100
1000
0001
0000
0100
0010
0100
0010
1000
0000
,
0001
0000
0010
0001
0100
0000
0010
1000
0001
0000
0010
0000
0100
0010
0100
0000
,
1000
0001
0100
0001
1000
0000
0010
0100
0001
0000
0010
0100
1000
0000
0001
0000
,
0010
0001
0010
0100
0010
0000
0001
1000
0010
0000
0100
0001
1000
0000
0100
0000
,
1000
0010
0100
0010
1000
0010
0100
0010
1000
0001
0100
0001
1000
0001
0100
0001
,
1000
0100
0010
0100
1000
0001
0010
0001
1000
0010
0100
0001
0100
0010
1000
0001
,
0010
0100
1000
0100
0010
0001
1000
0001
0100
0010
1000
0010
0100
0001
1000
0100
,
0020
0000
0030
0010
0020
0000
0000
0000
,
0000
0000
0000
0000
,
0000
0000
0000
0000
,
0030
0000
0000
0000
;

//--------------- dance-double - forcednature ----------------
#NOTEDATA:;
#STEPSTYPE:dance-double;
#DESCRIPTION:forcednature;
#CREDIT:forcednature;
#DIFFICULTY:Easy;
#METER:9;
#RADARVALUES:0,0,0,0,0;
#NOTES:
00000000
00000000
00000000
00000000
,
00000000
00000000
00000000
00000000
,
00000000
00010000
00001000
00010000
,
00000000
00000100
00001000
00000100
,
00000000
00000010
00000001
00000010
,
00000001
00000000
00000100
00000000
,
00000100
00000000
00001000
00001000
,
00010000
00100000
00000000
01100000
,
10010000
10000000
01000000
00000000
,
10000000
00010000
00100000
00000000
,
00001000
00010000
00001000
00000000
,
00010000
00000100
00001000
00000100
,
00001000
00000001
00000010
00000000
,
00000001
00000100
00000010
00001000
,
00000000
00000100
00000100
00010000
,
00001000
00100000
00010000
01000000
,
10010000
10000000
00100000
02000000
,
00000000
03010000
00100000
00010000
,
01000000
00000000
00000000
01000000
00000000
00000000
00001000
00000000
,
00010000
00000010
00001000
00000100
,
00000000
00000110
00000000
00001001
,
00000000
00000001
00000100
00001000
,
00010000
00000000
00010000
00000000
,
00100000
10000000
00010000
01000000
,
01100000
00000000
10000000
10000000
,
01000000
00010000
00001000
00010000
,
00001000
00000000
00000010
00000010
,
00000001
00000100
00001000
00010000
,
00001000
00000000
00010000
00100000
,
10010000
00000000
10000000
01000000
,
10010000
00000000
00010000
00100000
,
00001000
00001000
00010000
00000100
,
00001001
00000000
00000001
00000010
,
00000100
00000010
00000001
00000100
,
00001001
00000000
00010000
00000010
,
00001000
00000010
00010000
00001000
,
00100000
00100000
00010000
00010000
,
01000000
00100000
10000000
01000000
,
10010000
00000000
01100000
00000000
,
00010000
00000000
00100000
00000000
00001000
00010000
00001000
00000000
,
00020000
00000000
00000000
00000000
,
00030020
00000000
00000000
00000000
,
00002030
00000000
00003002
00000000
,
00000203
00000000
00000000
00000000
00000000
00000000
00000000
00000000
00000000
00000000
00000000
00000000
00000320
00000000
00000000
00000000
00000000
00000030
00000000
00000000
00000000
00000000
00000000
00000000
,
00001000
00000100
00010000
00001000
,
00011000
00100000
00010000
00000000
,
01000000
00100000
10000000
01000000
,
01100000
00010000
00100000
00000000
,
00001000
00010000
00000010
00001000
,
00000110
00000001
00000010
00000000
,
00000100
00010000
00001000
00100000
,
00020000
00000000
01030000
00100000
,
10000000
00000000
01000000
00000000
,
00010000
00001000
00010000
00011000
,
00000100
00000000
00001000
00000000
00000100
00000010
00000100
00000000
,
00000010
00000001
00000100
00001000
,
00010000
00000000
00001000
00000000
00100000
00010000
00100000
00000000
,
01000000
10000000
00100000
01000000
,
01100000
00000000
00010000
00000000
00100000
00010000
00100000
00000000
,
00001000
00010000
00000010
00001000
,
00000100
00000000
00000010
00000000
00000001
00000010
00000001
00000000
,
00000100
00001000
00010000
00001000
,
00011000
00000000
00100000
00000000
00010000
00100000
00010000
00000000
,
10000000
00100000
01000000
00001000
,
00011000
00000000
00100000
00000000
00001000
00010000
00001000
00000000
,
00010000
00000100
00001000
00000010
,
00000100
00000001
00000000
00000000
00000001
00000100
00000000
00000000
,
00000100
00000010
00000000
00000000
00000010
00001000
00000000
00000000
,
00000100
00010000
00000000
00000000
00001000
00010000
00000000
00000000
,
00001000
00100000
00000000
00000000
00010000
00000000
01000000
00000000
,
10010000
10000000
00100000
10000000
,
01000000
00010000
00001000
00000000
,
00011000
00000000
00010100
00000000
,
00000100
00000100
00001000
00000010
,
00000110
00000001
00000010
00000100
,
00001000
00000100
00001000
00000000
00000100
00000000
00010000
00000000
,
00001000
00100000
00010000
01000000
,
00100000
00000000
00100000
00000000
00000000
10000000
10000000
00000000
,
00010000
10000000
00010000
00000000
00100000
00000000
00001000
00000000
,
00010000
00001000
00010000
00000000
00000100
00000000
00001000
00000000
,
00000010
00001000
00000010
00000000
00000100
00000000
00000001
00000000
,
00000010
00000001
00000010
00000000
00000100
00000000
00010000
00000000
,
00011000
00100000
00010000
01000000
,
00010000
10000000
00010000
00000000
00100000
00000000
01100000
00000000
,
10000000
00010000
10000000
00000000
00100000
00000000
00010000
00000000
,
00002000
00000000
00003000
00010000
00002000
00000000
00000000
00000000
,
00000000
00000000
00000000
00000000
,
00000000
00000000
00000000
00000000
,
00003000
00000000
00000000
00000000
;

//--------------- dance-double - forcednature ----------------
#NOTEDATA:;
#STEPSTYPE:dance-double;
#DESCRIPTION:forcednature;
#CREDIT:forcednature;
#DIFFICULTY:Medium;
#METER:12;
#RADARVALUES:0,0,0,0,0;
#NOTES:
00000000
00000000
00000000
00000000
,
00000000
00000000
00000000
00000000
,
00000000
00000000
00011000
00000000
00100000
00000000
00010000
00100000
,
00010000
00000000
01000000
00000000
00100000
00000000
10000000
00100000
,
10000000
00000000
00000000
01000000
00000000
01000000
00000000
00010000
,
00000000
00002000
00000000
00100000
00000000
00100000
00000000
00010000
,
00000000
00013000
00000000
00001000
00010000
00000010
00001000
00000010
,
00000000
00000100
00000002
00000000
00000000
00000013
00000010
00000000
,
00000110
00000000
00001000
00000000
00000001
00000100
00000010
00000000
,
00001010
00000000
00010000
00000000
00001000
00010000
00001000
00000000
,
00110000
00000000
10000000
00000000
00100000
01000000
00010000
00000000
,
00100000
01000000
00100000
00000000
01000000
10000000
00010000
00000000
,
01010000
00000000
00001000
00000000
00010000
00000010
00001000
00000000
,
00001100
00000000
00000001
00000000
00000010
00000100
00001000
00000000
,
00000010
00001000
00000000
00001000
00000000
00010000
00000000
01000000
,
00100000
10000000
00100000
10000000
00010000
00100000
02000000
00000000
,
13000000
00010000
10000000
00200000
00000000
00320000
00000000
00032000
,
00000000
00000000
00100000
00000000
00100000
00000000
00103000
00001000
,
00020000
00000000
00030100
00002000
00000000
00003010
00000200
00000000
,
00000301
00000000
00000000
00001000
00000000
00000000
00000100
00000000
00002000
00000000
00000000
00000000
00003020
00000000
00000000
00000000
,
00000130
00001001
00001000
00010100
,
00010000
00011000
00101000
00110000
,
00010000
10000000
00000000
10000000
01000000
10000000
00000000
10000000
,
00100000
01000000
00100000
01000000
00010000
10000000
01000000
00000000
,
01100000
00000000
00100000
00010000
00100000
00001000
00010000
00000000
,
00000200
00002300
00003002
00000013
,
00001001
00000000
00001000
00000010
00010000
00001000
00010000
00000000
,
00200000
02300000
03020000
10030000
,
10010000
00000000
00010000
00100000
01000000
10000000
01000000
00000000
,
01100000
00000000
00100000
00001000
00010000
00000100
00010000
00000000
,
00011000
00000000
00000010
00001000
00000010
00000100
00000001
00000000
,
00000010
00000100
00001000
00000000
00000010
00000100
00000001
00000000
,
00001001
00000000
00001000
00000100
00010000
00000000
00001000
00100000
,
00010000
00000000
01000000
00100000
10000000
00000000
01000000
00000000
,
10010000
00000000
00010000
01000000
00001000
00000000
00010000
00000010
,
00001000
00000000
00000100
00000010
00000001
00000000
00000100
00000000
,
00000010
00001000
00000000
00001000
00000100
00010000
00000000
00010000
,
00001000
00100000
00001000
00100000
00010000
10000000
00100000
00000000
,
01100000
00010000
00110000
00001000
,
00010000
00000100
00001000
00000100
00000010
00000001
00001000
00000010
,
00000200
00000000
00000000
00000000
,
00002300
00000000
00000000
00000000
,
00023000
00000000
00230000
00000000
,
20300000
00000000
00000000
00000000
00000000
00000000
00000000
00000000
00000000
00000000
00000000
00000000
32000000
00000000
00000000
00000000
00000000
03000000
00000000
00000000
00000000
00000000
00000000
00000000
,
00100000
00000000
00000000
00001000
00000000
00000000
00010000
00000000
00000000
00000100
00000000
00000000
00001000
00000000
00000000
00000000
,
00000010
00000000
00000000
00000100
00000000
00000000
00000001
00000000
00000000
00001000
00000000
00000000
00000010
00000000
00000000
00000000
,
00010000
00000000
00000000
00001000
00000000
00000000
01000000
00000000
00000000
00010000
00000000
00000000
00100000
00000000
00000000
00000000
,
01000000
00000000
00000000
10000000
00000000
00000000
01000000
00000000
00000000
00010000
00000000
00000000
00001000
00000000
00000000
00000000
,
00100000
00000000
00000000
00100000
00000000
00000000
00001000
00000000
00000000
00010000
00000000
00000000
00000100
00000000
00000000
00000000
,
00001000
00000000
00000000
00001000
00000000
00000000
00000010
00000000
00000000
00000100
00000000
00000000
00000001
00000000
00000000
00000000
,
00000010
00000000
00000000
00000100
00000000
00000000
00010000
00000000
00000000
00001000
00000000
00000000
00100000
00000000
00000000
00000000
,
02000000
00000000
03000000
10000000
00010000
10000000
00010000
00000000
,
01000000
00000000
01000000
10000000
01000000
00000000
01000000
00010000
,
00100000
00000000
00001000
00000000
00010000
00001000
00011000
00000000
,
00010100
00000000
00001100
00000000
00001000
00000001
00000010
00000000
,
00000110
00000000
00001000
00000000
00000010
00010000
00001000
00000000
,
00011000
00000000
00100000
00000000
00010000
10000000
00100000
00000000
,
01000000
00010000
01000000
00000000
00100000
10000000
00100000
00000000
,
01100000
00000000
00010000
00000000
00100000
00001000
00010000
00000000
,
00011000
00000000
00000100
00000000
00001000
00000001
00000010
00000000
,
00000110
00000000
00001000
00000000
00000010
00000100
00000001
00000000
,
00000010
00000100
00001000
00000000
00000010
00010000
00001000
00000000
,
00011000
00000000
00100000
00000000
00010000
01000000
00100000
00000000
,
10000000
00010000
10000000
01000000
00100000
00000000
00010000
00000000
,
00110000
00000000
00001000
00000000
00010000
00000100
00001000
00000000
,
00000010
00000100
00000001
00000100
00000010
00000000
00001000
00000000
,
00000100
00010000
00000000
00000000
00001000
00100000
00000000
00000000
,
00001000
00010000
00000000
00000000
00100000
02000000
00000000
03000000
,
00010000
10000000
00000000
00000000
01000000
00010000
00000000
00000000
,
00001000
00010000
00000000
00000000
00001000
00000010
00000001
00000010
,
00000100
00010000
00001000
00100000
,
00010000
01000000
00100000
10000000
,
10010000
01000000
00011000
00100000
,
00101000
00000000
00010100
00000000
00000100
00000100
00001000
00000000
,
00000010
00000100
00000010
00000100
00000001
00001000
00000010
00000000
,
00001000
00000100
00010000
00000000
00001000
00100000
00010000
00000000
,
01000000
00100000
01000000
00100000
10000000
00010000
00100000
00000000
,
01000000
10000000
01000000
00000000
00010000
00001000
00001000
00000000
,
00100000
00010000
00100000
00001000
00010000
00000100
00001000
00000000
,
00000010
00000100
00000001
00000100
00000010
00001000
00000001
00000000
,
00000011
00001000
00001100
00010000
,
00001000
00100000
00010000
00000000
01000000
00100000
10000000
00000000
,
01000000
01000000
00010000
00000000
00001000
00001000
00010000
00000000
,
00001000
00001000
00000010
00000000
00000001
00000001
00001000
00000000
,
00000010
00000100
00000010
00000100
00001000
00010000
00001000
00010000
,
00200000
00000000
00300000
10000000
20000000
00000000
00000000
00000000
,
00000000
00000000
00000000
00000000
,
00000000
00000000
00000000
00000000
,
30000000
00000000
00000000
00000000
;

//--------------- dance-double - forcednature ----------------
#NOTEDATA:;
#STEPSTYPE:dance-double;
#DESCRIPTION:forcednature;
#CREDIT:forcednature;
#DIFFICULTY:Hard;
#METER:16;
#RADARVALUES:0,0,0,0,0;
#NOTES:
00000000
00000000
00000000
00000000
,
00000000
00000000
00000000
00000000
,
00000000
00000000
00011000
00000000
00010000
00100000
01000000
00100000
,
10000000
00000000
10010000
00000000
00010000
00100000
01000000
00010000
,
00001000
00000000
00100000
00010000
00002000
00000000
00003100
00000010
,
00000002
00000000
00000000
00000100
00000000
00000100
00000000
00000100
,
00000000
00000103
00000001
00000010
00001000
00010000
01000000
10000000
,
00200000
00000000
01300000
01000000
00000000
00001000
00010000
00000000
,
00000010
00000000
00001000
00000000
00000100
00000000
00001000
00000100
00000000
00000000
00000010
00000000
00000011
00000000
00000000
00000000
,
00000001
00000000
00000100
00000000
00001000
00000000
00000100
00001000
00000000
00000000
00010000
00000000
00001000
00000000
00010000
00000000
,
00100000
00000000
10000000
00000000
01000000
00000000
10000000
01000000
00000000
00000000
00100000
00000000
00010000
00000000
10000000
00000000
,
00100000
00000000
00010000
00000000
00001000
00000000
00010000
00000100
00000000
00000100
00000000
00000000
00001000
00000000
00000010
00000000
,
00000100
00000000
00001000
00000000
00000100
00000000
00000001
00000100
00000000
00000000
00000001
00000000
00000011
00000000
00000000
00000000
,
00001000
00000000
00000100
00000000
00000010
00000000
00000100
00010000
00000000
00000000
00001000
00000000
00100000
00000000
00010000
00000000
,
02000000
00100000
00000000
03100000
20000000
01000000
00000000
31000000
,
00100000
00000000
00010000
00000000
10000000
00000000
00100000
00000000
00010000
00000000
00001000
00000000
00010000
00001000
00010000
00001000
,
00010000
00000100
00001000
00000020
00000000
00000230
00000000
00000302
,
00000000
00000000
00000013
00000000
00000100
00000000
00001000
00000000
00000100
00000000
00010000
00000000
00001000
00000000
00100000
00010000
,
00200000
00000000
01300000
20000000
00000000
30010000
02000000
00000000
,
03100000
00000000
00000000
00100000
10000000
00000000
01000000
00000000
00020000
00000000
00000000
00000000
00032000
00000000
00000000
00000000
,
00003010
00000001
00000101
00000000
00001000
00000010
00000110
00000000
,
00001001
00010100
01001000
10010000
,
10000000
10000000
00000000
00100000
00010000
00010000
00000000
00100000
,
10000000
00000000
01000000
00000000
00010000
00000000
00001000
00000000
00000010
00000000
00000001
00000000
00000100
00000010
00000100
00000010
,
00001000
00000000
00000001
00000100
00000010
00001000
00010000
01000000
,
00200000
00320000
00230000
10300000
,
10010000
00000000
10000000
01000000
00100000
00010000
00001000
00000100
,
00000020
00002030
00003020
00000031
,
00001001
00000000
00000001
00000010
00001000
00010000
01000000
10000000
,
00020000
00000000
10030000
00100000
00010000
00001000
00000100
00000001
,
00002000
00000000
00003001
00000010
00001000
00010000
01000000
00010000
,
00001000
00100000
00010000
00100000
00001000
00000010
00000200
00000000
,
00001300
00000010
00000100
00001000
00010000
00100000
01000000
00010000
,
10000000
01000000
00010000
00001000
00100000
00010000
01000000
00000000
,
00100000
00010000
00001000
00000100
00001000
00010000
00000010
00001000
,
00000001
00000100
00001000
00010000
00100000
00010000
00001000
00000000
,
00011000
00000000
00000000
00000000
00010000
00000000
00000000
00010000
01000000
00000000
00000000
01000000
10000000
00000000
00000000
00000000
,
00010000
00000000
00100000
00000000
01000000
00000000
00010000
00000000
00001000
00000000
00000010
00000000
00000100
00000000
00001000
00000100
,
00001000
00000000
00000001
00000000
00000010
00000000
00000100
00000010
00000100
00000000
00010000
00000000
00001000
00000000
00100000
00010000
,
00100000
00000000
00010000
00000000
01000000
00100000
01000000
00000000
00100000
00000000
10000000
00000000
01000000
10000000
01000000
10000000
,
00020000
00000000
00000000
00000000
,
00230000
00000000
00000000
00000000
,
00302000
00000000
00023000
00000000
,
00030020
00000000
00000000
00000000
00000000
00000000
00000000
00000000
00000000
00000000
00000000
00000000
00002030
00000000
00000000
00000000
00000000
00003000
00000000
00000000
00000000
00000000
00000000
00000000
,
00000001
00000000
00000010
00000001
00000000
00000010
00000001
00000000
00000100
00000001
00000000
00000100
00000010
00000000
00000000
00000000
,
00001000
00000000
00000000
00000100
00000000
00000000
00000001
00000000
00000000
00000100
00000000
00000000
00010000
00000000
00000000
00000000
,
00001000
00000000
00100000
00010000
00000000
00100000
01000000
00000000
10000000
01000000
00000000
10000000
00010000
00000000
00000000
00000000
,
01000000
00000000
00000000
10000000
00000000
00000000
01000000
00000000
00000000
00001000
00000000
00000000
00100000
00000000
00000000
00000000
,
00010000
00000000
01000000
00100000
00000000
01000000
00100000
00000000
10000000
01000000
00000000
10000000
00010000
00000000
00000000
00000000
,
00100000
00000000
00010000
00100000
00000000
00010000
00100000
00000000
00001000
00010000
00000000
00000010
00001000
00000000
00000000
00000000
,
00000001
00000000
00000010
00000001
00000000
00000100
00000010
00000000
00001000
00000100
00000000
00001000
00000010
00000000
00000100
00000000
,
00000002
00000000
00000000
00000103
00001000
00001000
00010000
00100000
,
10000000
01000000
00000000
01000000
00010000
01000000
00000000
01000000
,
10000000
00100000
00010000
00001000
00000010
00000100
00000110
00000000
,
00000001
00000000
00001000
00000000
00000100
00000000
00000001
00000100
00000000
00001000
00000000
00000000
00000010
00000000
00010000
00000000
,
00001000
00000000
00100000
00000000
00010000
00000000
01000000
00100000
00000000
00000000
10000000
00000000
01000000
00000000
00010000
00000000
,
00001000
00000000
00100000
00000000
00010000
00000000
00100000
00001000
00000000
00000000
00010000
00000000
01000000
00000000
10000000
00000000
,
00100000
00000000
01000000
00000000
10000000
00000000
01000000
00010000
00000000
00000000
00100000
00000000
00001000
00000000
00010000
00000000
,
00011000
00000000
00000100
00000000
00001000
00000000
00000010
00000100
00000000
00001000
00000000
00000000
00000100
00000000
00000001
00000000
,
00000010
00000000
00001000
00000000
00010000
00000000
00001000
00100000
00000000
00000000
00010000
00000000
01000000
00000000
00100000
00000000
,
10000000
00000000
01000000
00000000
00010000
00000000
00001000
00010000
00000000
00000000
00001000
00000000
00000010
00000000
00000001
00000000
,
00000100
00000000
00001000
00000000
00000100
00000000
00000001
00000000
00000010
00000000
00000100
00000010
00000100
00000000
00000010
00000100
,
00001000
00000000
00000010
00000000
00010000
00000000
00001000
00100000
00000000
00100000
00001000
00000000
00010000
00000000
00100000
00000000
,
01000000
00000000
00010000
00000000
10000000
00000000
00100000
01000000
00000000
00100000
10000000
00000000
01000000
00000000
00010000
00000000
,
00001000
00000000
00000010
00000000
00000100
00000000
00001000
00000001
00000000
00000100
00000001
00000000
00000010
00000000
00001000
00000000
,
00010000
00000000
00100000
00000000
10000000
00000000
00010000
01000000
00000000
00100000
01000000
00000000
00010000
00000000
10000000
00000000
,
01000000
00000000
01000000
00010000
00000000
00000000
01000000
00000000
00010000
00000000
00010000
00001000
00000000
00000000
00010000
00000000
,
00001000
00000000
00001000
00000010
00000000
00000000
00001000
00000000
00000010
00000000
00000010
00000001
00000000
00000000
00000010
00000000
,
00000001
00000000
00000100
00000001
00000000
00000000
00000100
00000000
00001000
00000000
00000100
00001000
00000000
00000000
00010000
00000000
,
00001000
00000000
00010000
00001000
00000000
00000000
00010000
00000000
00100000
00000000
10000000
00000000
01000000
00000000
00010000
00000000
,
00011000
00000000
00001000
00000010
00000100
00000010
00000001
00000100
,
00000010
00000100
00001000
00010000
01000000
00100000
01000000
10000000
,
10100000
01001000
00010100
00001010
,
00000102
00000000
00000000
00000000
00000010
00000000
00000000
00000000
00001003
00000000
00000100
00001000
00000100
00000000
00001000
00000100
,
00010000
00001000
00000010
00001000
00010000
00000010
00001000
00010000
,
01000000
00000000
00100000
00000000
10000000
00000000
00010000
00000000
00100000
00000000
01000000
00000000
10000000
00010000
10000000
00000000
,
00100000
01000000
00001000
00010000
00000010
00000100
00001000
00010000
,
00000100
00000000
00000010
00000000
00001000
00000000
00000010
00000000
00000001
00000000
00000010
00000100
00001000
00000000
00000000
00000000
,
00000001
00000000
00000100
00000000
00001000
00000000
00010000
00000000
00000100
00000000
00000010
00000000
00001000
00000000
00010000
00001000
,
00010000
00000000
01000000
00000000
00100000
00000000
00001000
00000000
00010000
00000000
00100000
00000000
01000000
00000000
00010000
10000000
,
00010000
00000000
00100000
00000000
01000000
00000000
00010000
00000000
00001000
00000000
00000010
00000000
00000100
00000000
00010000
00001000
,
00010000
00000010
00001000
00000001
00000100
00001000
00011000
00000000
,
00010000
00100000
10000000
01000000
00010000
00001000
00000100
00000001
,
00000010
00001000
00010000
00001000
00000100
00001000
00010000
01000000
,
10000000
00100000
10000000
00000000
00100000
01000000
00100000
00000000
01000000
00010000
01000000
00000000
00001000
00010000
00001000
00010000
,
00000020
00000000
00000030
00000010
00000020
00000000
00000000
00000000
,
00000000
00000000
00000000
00000000
,
00000000
00000000
00000000
00000000
,
00000030
00000000
00000000
00000000
;

//--------------- dance-double - forcednature ----------------
#NOTEDATA:;
#STEPSTYPE:dance-double;
#DESCRIPTION:forcednature;
#CREDIT:forcednature;
#DIFFICULTY:Challenge;
#METER:17;
#RADARVALUES:0,0,0,0,0;
#NOTES:
00000000
00000000
00000000
00000000
,
00000000
00000000
00000000
00000000
,
00000000
00000000
00000000
00000000
00001000
00000000
00010000
00000000
00000100
00001000
00000100
00000000
00000010
00000000
00000001
00000000
,
00000100
00000000
00000000
00000000
00001000
00000000
00010000
00000000
00001000
00100000
00001000
00000000
00100000
00000000
00010000
00000000
,
01000000
00000000
00000000
00000000
00100000
00000000
10000000
00000000
01000000
10000000
01000000
00000000
00010000
00000000
00001000
00000000
,
00100000
00000000
00010000
01000000
00000000
01000000
10000000
01000000
,
00000000
00000000
01000000
00000000
00010000
00000000
00100000
00010000
00100000
00000000
00001000
00000000
00010000
00001000
00010000
00000000
,
00000100
00000000
00001000
00000100
00001000
00000000
00000020
00000000
00000000
00000000
00000130
00000000
00001001
00000000
00000000
00000000
,
00000001
00000000
00000100
00000000
00001000
00000000
00010000
00001000
00000000
00000000
00010000
00000000
00100000
00000000
00000000
00000000
,
01000000
00000000
00010000
00000000
10000000
00000000
00100000
10000000
00000000
01000000
10000000
00000000
01000000
00000000
00010000
00000000
,
00001000
00000000
00100000
00000000
00001000
00000000
00010000
00000100
00000000
00000000
00001000
00000000
00000010
00000000
00001000
00000000
,
00000001
00000000
00000100
00000001
00000100
00000000
00001000
00000000
00010000
00000000
00010000
00000000
00100000
00000000
10000000
00000000
,
00010000
00000000
00100000
00000000
01000000
00000000
10000000
01000000
00000000
00000000
00010000
00000000
00001000
00000000
00000000
00000000
,
00100000
00000000
00010000
00000000
00100000
00000000
00001000
00010000
00000000
00000010
00010000
00000000
00000010
00000000
00001000
00000000
,
00000100
00001000
00000100
00001000
00000100
00000000
00000010
00000000
00000001
00000010
00000001
00000010
00000001
00000000
00001000
00000000
,
00000010
00001000
00000100
00000000
00010000
00001000
00010000
00000000
00100000
01000000
00010000
00000000
00100000
01000000
10000000
00000000
,
01000000
00010000
00001000
00011000
00000000
00010010
00000000
00002010
,
00000000
00000000
00000100
00000000
00000000
00000000
00000001
00000000
00000000
00000000
00003010
00000000
00000000
00000000
00001000
00000100
,
00010000
00001000
00001000
00010000
00100000
00100000
10000000
00000000
,
11000000
00000000
00000000
00010000
01000000
00000000
00100000
00000000
20000000
00000000
00000000
00000000
32000000
00000000
00000000
00000000
,
03010000
00000000
00001000
00010000
00001000
00000000
00000100
00000000
00000010
00000000
00001000
00000010
00001000
00000000
00000001
00000000
,
00000100
00000000
00000000
00000100
00001000
00000000
00010000
00000000
00011000
00000000
00000000
00000000
00101000
00000000
00000000
00000000
,
00110000
00110000
00000000
00010000
01000000
01100000
00000000
00100000
,
10000000
00000000
01000000
10000000
01000000
00000000
00010000
00000000
00001000
00010000
00000100
00001000
00000100
00001000
00000001
00000100
,
00000010
00000000
00000000
00000000
00000100
00001000
00000100
00001000
00010000
00001000
00010000
00001000
00010000
00100000
00010000
00100000
,
20000000
30000000
00020000
00030000
02000000
03000000
00200000
00300000
,
20000000
00000000
30000000
00000000
01000000
00010000
01000000
00010000
00001000
00010000
00001000
00010000
00001000
00000010
00001000
00000010
,
00000002
00000003
00002000
00003000
00000020
00000030
00000200
00000300
,
00000002
00000000
00000003
00000000
00000100
00001000
00000100
00001000
00010000
00001000
00010000
00001000
00010000
00100000
01000000
00100000
,
10000000
00000000
00000000
00000000
01000000
00010000
01000000
00010000
00001000
00010000
00001000
00010000
00001000
00000010
00000100
00000010
,
00000001
00000000
00000000
00000000
00000100
00001000
00000100
00001000
00010000
00001000
00010000
00001000
00010000
01000000
00100000
01000000
,
10000000
00000000
00010000
10000000
00010000
00000000
00100000
00000000
01000000
00000000
01000000
00000000
00010000
00000000
00000000
00000000
,
00001000
00000000
00010000
00001000
00010000
00001000
00010000
00000100
00001000
00000100
00001000
00000010
00000100
00000010
00000100
00000001
,
00001000
00000000
00000100
00001000
00000100
00000000
00010000
00000000
00001000
00000000
00001000
00000000
00100000
00000000
00010000
00000000
,
01000000
00000000
00100000
10000000
00100000
10000000
01000000
10000000
01000000
10000000
01000000
00010000
01000000
00010000
00001000
00010000
,
00001000
00000010
00000001
00000100
00001000
00001000
00010000
00000000
,
00011000
00000000
00001000
00010000
00000010
00000000
00001000
00000010
00001000
00000000
00000100
00000010
00000001
00000000
00000100
00000000
,
00001000
00000100
00001000
00010000
00001000
00000000
00010000
00000000
00100000
01000000
00010000
00000000
01000000
00000000
00100000
00000000
,
10000000
00010000
10000000
00010000
00100000
00000000
01000000
00000000
00100000
00010000
00100000
00001000
00010000
00000000
00001000
00000000
,
00000010
00000100
00000010
00000100
00001000
00000100
00001000
00000100
00010000
00001000
00100000
00010000
00100000
01000000
10000000
00010000
,
02000000
00000000
00000000
00000000
,
03200000
00000000
00000000
00000000
,
20300000
00000000
32000000
00000000
,
23000000
00000000
00000000
00000000
00000000
00000000
00000000
00000000
00000000
00000000
00000000
00000000
30200000
00000000
00000000
00000000
00000000
00300000
00000000
00000000
00000000
00000000
00000000
00000000
,
00000100
00000000
00000001
00000100
00000000
00000010
00000100
00000000
00000001
00001000
00000000
00000100
00001000
00000000
00000010
00000000
,
00010000
00000000
00001000
00100000
00000000
00100000
00010000
00000000
01000000
00010000
01000000
00010000
10000000
00000000
00100000
00000000
,
10000000
00000000
01000000
00010000
00000000
00001000
00010000
00000000
00001000
00100000
00000000
00010000
00100000
00000000
01000000
00000000
,
00010000
00000000
00001000
00010000
00000000
00001000
00000010
00000000
00000001
00001000
00000001
00001000
00000100
00000010
00000001
00000000
,
00001000
00000000
00000010
00001000
00000000
00000100
00010000
00000000
00001000
00010000
00000000
00001000
00100000
00000000
00010000
00000000
,
01000000
00000000
00100000
10000000
00000000
01000000
10000000
00000000
01000000
00010000
00000000
00001000
00010000
00001000
00010000
00000100
,
00001000
00000000
00000010
00000100
00000000
00001000
00000100
00000000
00000001
00001000
00000000
00000010
00001000
00000010
00010000
00000000
,
00002000
00000000
00000000
00000000
00000000
00000000
00103000
00000000
00010000
01000000
00100000
01000000
00010000
10000000
00100000
10000000
,
00010000
00100000
00000000
00100000
01000000
00010000
00000000
00010000
,
00001000
00100000
00001000
00010000
00000100
00000000
00001000
00000000
00000010
00000000
00000110
00000000
00000101
00000000
00000000
00000000
,
00000011
00000000
00001000
00000000
00000100
00000000
00010000
00001000
00010000
00001000
00000000
00100000
00010000
00000000
01000000
00100000
,
01000000
00000000
00100000
00000000
10000000
00000000
01000000
00010000
01000000
00010000
00001000
00010000
00001000
00000000
00000010
00000000
,
00000100
00000000
00001000
00000000
00000001
00000000
00000100
00001000
00000100
00001000
00010000
00001000
00010000
00000000
00100000
00000000
,
10000000
00000000
01000000
00000000
00010000
00000000
00001000
00100000
00000000
00010000
00100000
00000000
01000000
00000000
10000000
00000000
,
01100000
00000000
00010000
00000000
00100000
00000000
01000000
00010000
01000000
00010000
00001000
00010000
00001000
00000000
00000010
00000000
,
00000100
00000000
00010000
00000000
00000010
00000000
00000100
00001000
00000100
00001000
00010000
00001000
00010000
00000000
00100000
00000000
,
01000000
00000000
00010000
00000000
10000000
00000000
00100000
00010000
00100000
00010000
00001000
00010000
00001000
00000000
00000010
00000000
,
00000100
00000000
00000000
00000000
00001001
00000000
00000000
00000000
00000001
00000100
00000010
00001000
00000100
00010000
00001000
00100000
,
00010000
00000000
01000000
00000000
00000000
00000000
00100000
10000000
01000000
10000000
01000000
00000000
00010000
00000000
00001000
00000000
,
00100000
00000000
00010000
00000000
00101000
00000000
00000000
00001000
00010000
00001000
00010000
00000100
00001000
00000000
00000010
00000000
,
00000100
00000000
00001000
00000000
00000100
00000000
00000001
00001000
00000000
00000010
00001000
00000010
00000100
00000000
00001000
00000000
,
00010000
00000000
00100000
01000000
00010000
00000000
10000000
00000000
01000000
00010000
00000000
00001000
00010000
00000000
00001000
00000000
,
00011000
00000000
00000010
00001000
00000000
00000000
00001000
00000000
00010000
00000000
01000000
00010000
00000000
00000000
00100000
00000000
,
00010000
00000000
00100000
01000000
00000000
00000000
00100000
00000000
00001000
00000000
00001000
00020000
00000000
00000000
00030100
00000000
,
00001100
00000000
00000001
00000010
00000000
00000000
00000001
00000000
00000100
00000000
00000001
00000100
00000000
00000000
00001000
00000000
,
00000100
00000000
00001000
00000100
00000000
00000000
00001000
00000000
00010000
00001000
00010000
00001000
00100000
00010000
00100000
01000000
,
10000000
00100000
10000000
01000000
00010000
00001000
00000100
00000001
,
00000010
00001000
00000010
00000001
00000100
00001000
00010000
01000000
,
01100000
00000000
00010000
10000000
10020000
00000000
00130000
00000000
,
00010000
10000000
00010000
10000000
01000000
00100000
00010000
00100000
00001000
00010000
00000010
00001000
00000010
00000100
00000001
00001000
,
00000010
00000000
00000100
00000010
00000100
00000000
00000001
00000100
00000001
00000000
00000010
00000001
00000010
00000000
00001000
00000000
,
00010000
00000000
00001000
00010000
00001000
00000000
00100000
00010000
00100000
00000000
01000000
00100000
01000000
00000000
10000000
00000000
,
00010000
00000000
01000000
00010000
01000000
00000000
00001000
00010000
00001000
00000000
00100000
00010000
00100000
00000000
01000000
00000000
,
00010000
00000000
00001000
00010000
00001000
00000000
00000010
00000000
00000100
00000000
00001100
00000000
00001010
00000000
00000000
00000000
,
00000101
00000000
00000001
00001000
00000001
00000000
00000010
00000001
00000010
00000000
00000100
00001000
00000100
00000000
00010000
00000000
,
00011000
00000000
00100000
00010000
01000000
00000000
00100000
10000000
00010000
00000000
00100000
00000000
01000000
00100000
01000000
00000000
,
10000000
00010000
01000000
00010000
01000000
00000000
00001000
00000000
00010000
00001000
00010000
00001000
00010000
00000000
00000100
00000000
,
00001000
00000010
00001000
00000010
00000100
00000000
00000001
00000000
00001000
00000100
00001000
00000100
00010000
00000000
00001000
00000000
,
00100000
00010000
00100000
00000000
01000000
10000000
01000000
00000000
00100000
00001000
00010000
00000000
00000100
00010000
00001000
00000000
,
00000010
00000100
00000010
00000000
00000001
00001000
00000100
00000000
00001000
00000010
00000100
00000000
00001000
00010000
00001000
00000000
,
00010000
00100000
00010000
00100000
10000000
00100000
10000000
00100000
01000000
00010000
01000000
00010000
00100000
00001000
00010000
00000100
,
00020000
00000000
00030000
00000001
00000002
00000000
00000000
00000000
,
00000000
00000000
00000000
00000000
,
00000000
00000000
00000000
00000000
,
00000003
00000000
00000000
00000000
;
