#VERSION:0.83;
#TITLE:Light Shine;
#SUBTITLE:;
#ARTIST:Ryu☆;
#TITLETRANSLIT:;
#SUBTITLETRANSLIT:;
#ARTISTTRANSLIT:;
#GENRE:BUBBLEGUM DANCE;
#CREDIT:;
#MUSIC:Light Shine.ogg;
#BANNER:Light Shine.png;
#BACKGROUND:Light Shine-bg.png;
#CDTITLE:./CDTitles/bm IIDX 17 SIRIUS.png;
#SAMPLESTART:56.923;
#SAMPLELENGTH:15.000;
#SELECTABLE:YES;
#OFFSET:1.354;
#BPMS:0.000=140.000;
#STOPS:;
#TIMESIGNATURES:0.000=4=4;
#BGCHANGES:0.000=../BGAs/10di.mp4=1.000=0=0=0=StretchNoLoop====,
99999.000=-nosongbg-=1.000=0=0=0=StretchNoLoop====
;
#FGCHANGES:;

//--------------- dance-single - forcednature ----------------
#NOTEDATA:;
#STEPSTYPE:dance-single;
#DESCRIPTION:forcednature;
#CREDIT:forcednature;
#DIFFICULTY:Beginner;
#METER:1;
#RADARVALUES:0,0,0,0,0;
#NOTES:
0000
0000
0000
0000
,
0000
0000
0000
0000
,
0000
0000
0000
0000
,
0000
0000
0000
0000
,
0000
0000
0000
0000
,
0000
0000
0000
0000
,
1000
0000
0000
0000
,
0000
0000
0000
0000
,
0001
0000
0000
0000
,
0100
0000
0000
0000
,
0001
0000
0000
0000
,
1000
0000
0000
0000
,
1000
0000
0000
0000
,
0100
0000
0000
0000
,
1000
0000
0000
0000
,
0001
0000
0000
0000
,
0000
0000
0000
0000
,
0010
0000
0000
0000
,
0000
0000
0000
0000
,
0001
0000
0000
0000
,
0000
0000
0000
0000
,
0100
0000
0000
0000
,
0000
0000
0000
0000
,
0010
0000
0000
0000
,
0000
0000
0000
0000
,
1000
0000
0000
0000
,
0000
0000
0000
0000
,
0100
0000
0000
0000
,
0000
0000
0000
0000
,
1000
0000
0000
0000
,
0000
0000
0000
0000
,
0001
0000
0000
0000
,
0000
0000
0000
0000
,
0000
0000
0000
0000
,
0100
0000
0000
0000
,
0010
0000
0000
0000
,
1000
0000
0000
0000
,
0001
0000
0000
0000
,
0010
0000
0000
0000
,
0100
0000
0000
0000
,
1000
0000
0000
0000
,
0001
0000
0000
0000
,
0000
0000
0000
0000
,
0100
0000
0000
0000
,
0000
0000
0000
0000
,
0010
0000
0000
0000
,
0000
0000
0000
0000
,
1000
0000
0000
0000
,
0000
0000
0000
0000
,
0001
0000
0000
0000
,
0000
0000
0000
0000
,
0010
0000
0000
0000
,
0100
0000
0000
0000
,
1000
0000
0000
0000
,
0100
0000
0000
0000
,
0010
0000
0000
0000
,
0001
0000
0000
0000
,
1000
0000
0000
0000
,
0001
0000
0000
0000
,
1001
0000
0000
0000
;

//--------------- dance-single - forcednature ----------------
#NOTEDATA:;
#STEPSTYPE:dance-single;
#DESCRIPTION:forcednature;
#CREDIT:forcednature;
#DIFFICULTY:Easy;
#METER:4;
#RADARVALUES:0,0,0,0,0;
#NOTES:
0000
0000
0000
0000
,
0000
0000
0000
0000
,
0000
0000
0000
0000
,
0000
0000
0000
0000
,
0000
0000
0000
0000
,
0000
0000
0000
0000
,
1000
0000
0001
0000
,
0000
0010
0000
0000
,
0100
0000
1000
0000
,
0100
1000
0100
0000
,
0010
0000
0001
0000
,
0010
0001
0010
0000
,
0001
0000
0100
0000
,
0001
0100
0001
0000
,
1000
0000
0010
0000
,
1000
0010
1000
0000
,
0001
0000
0000
0010
,
0000
0100
0000
1000
,
0000
0100
0000
1000
,
0000
0001
0000
0100
,
0000
0001
0000
0100
,
0000
0010
0000
0010
,
0000
1000
0000
0001
,
0000
0010
0000
0010
,
0000
0001
0000
1000
,
0000
0010
0000
0100
,
0000
0001
0000
1000
,
0000
0100
0000
0010
,
0000
0001
0000
1000
,
0000
0010
0000
0100
,
0000
0001
0000
1000
,
0000
0100
0000
0010
,
0000
0001
0000
1000
,
0000
0000
0010
0000
,
0100
0000
0001
0000
,
0100
0001
0200
0300
,
0010
0000
1000
0000
,
0010
1000
0020
0030
,
1000
0000
0100
0000
,
1000
0100
2000
3000
,
0001
0000
0010
0000
,
0001
0010
0002
0000
,
0003
0000
0000
0000
,
0100
0000
0010
0000
,
1000
0000
0000
0000
,
0100
0000
0010
0000
,
0001
0000
0100
0000
,
0010
0000
1000
0000
,
0001
0000
0000
0000
,
0010
0000
0100
0000
,
0000
0000
1000
0000
,
0000
0001
0000
0100
,
0000
0001
0100
0010
,
0000
1000
0000
0001
,
0010
0100
0020
0030
,
0000
0100
0000
1000
,
0000
0100
1000
0010
,
0000
0100
0000
0001
,
0010
0100
0020
0030
,
1001
0000
0000
0000
;

//--------------- dance-single - forcednature ----------------
#NOTEDATA:;
#STEPSTYPE:dance-single;
#DESCRIPTION:forcednature;
#CREDIT:forcednature;
#DIFFICULTY:Medium;
#METER:7;
#RADARVALUES:0,0,0,0,0;
#NOTES:
0000
0000
0000
0000
,
0000
0000
0000
0000
,
0000
0000
0000
0000
,
0000
0000
0000
0000
,
0000
0000
0000
0000
,
0000
0000
0000
0000
,
1000
0001
0100
0010
,
0000
0000
1000
0000
0000
0001
0000
0000
0010
0000
0000
0000
0100
0000
0000
0000
,
1000
0000
0001
0000
0100
0001
0100
0000
,
0001
1000
2002
3003
,
0001
0000
1000
0000
0100
1000
0100
0000
,
1000
0001
2002
3003
,
1000
0000
0001
0000
0010
0001
0010
0000
,
0100
0010
0220
0330
,
0001
0000
1000
0000
0010
1000
0010
0000
,
0100
0010
0220
0330
,
0001
0000
1000
0000
0100
0000
0010
0001
,
0010
0100
0010
0001
,
0100
0010
0100
0001
,
1000
0100
0010
0100
,
1000
0010
0100
0010
,
1000
0001
0010
0001
,
1000
0010
1000
0001
,
0010
0100
1000
0100
,
0010
0001
0100
0001
,
1000
0010
1000
0200
,
0310
0001
0100
0002
,
1003
0010
1000
0002
,
0013
0100
1000
0002
,
0103
0010
1000
0002
,
0013
0100
1000
0020
,
0130
0010
1000
0200
,
0310
0001
1000
0020
,
0030
0000
0100
0000
0001
0000
1000
0100
,
1000
0000
0001
0000
0100
0010
0100
0000
,
0001
1000
2002
3003
,
0001
0000
1000
0000
0100
0010
0100
0000
,
1000
0001
2002
3003
,
1000
0000
0001
0000
0010
0100
0010
0000
,
0001
1000
2002
3003
,
0001
0000
1000
0000
0010
0100
0010
0000
,
1000
0001
2002
3003
,
0000
0001
0100
0010
,
1000
0100
0010
0100
,
1000
0000
0001
0000
0020
0000
0000
0030
,
0001
0100
0010
1000
,
0002
0000
0023
0000
0230
0000
0000
0300
,
0010
0001
0100
0010
,
1000
0000
0001
0000
0020
0000
0000
0030
,
0100
1000
0001
0100
,
0000
0000
0010
0000
0000
1000
0000
0000
0001
0000
0000
0000
0010
0000
0100
0000
,
0010
1001
0100
1001
,
0010
1001
0002
2003
,
3100
1001
0010
1001
,
0100
0010
0220
0330
,
0010
1001
0100
1001
,
0010
1001
2000
3002
,
0103
1001
0010
1001
,
0110
1001
0220
0330
,
1001
0000
0000
0000
;

//--------------- dance-single - forcednature ----------------
#NOTEDATA:;
#STEPSTYPE:dance-single;
#DESCRIPTION:forcednature;
#CREDIT:forcednature;
#DIFFICULTY:Hard;
#METER:12;
#RADARVALUES:0,0,0,0,0;
#NOTES:
0000
0000
0000
0000
,
0000
0000
0000
0000
,
0000
0000
0000
0000
,
0000
0000
0000
0000
,
0000
0000
0000
0000
,
0000
0000
0000
0000
,
1000
0000
0000
0000
1000
0000
0000
1000
0001
0000
0010
0000
0100
0000
1000
0000
,
0000
0001
0100
0010
1000
0100
0020
0000
,
0031
0100
1000
0100
0001
1000
0010
0000
,
1010
0101
2002
3003
,
1000
0100
0001
0100
1000
0001
0010
0000
,
0011
1100
2002
3003
,
1000
0010
0001
0010
1000
0001
0100
0000
,
0101
0011
2002
3003
,
0001
0010
1000
0010
0001
1000
0100
0000
,
1100
1010
2002
3003
,
0001
0000
0010
0000
0100
1000
0100
0000
1000
0000
0010
0000
0100
0010
0100
0010
,
0000
0100
0001
0010
0001
1000
0001
0010
,
0001
0100
1000
0100
0001
0010
0001
1000
,
0001
0010
0001
0100
1000
0100
0001
0010
,
0001
1000
0010
1000
0100
0010
0110
0000
,
1000
0100
0001
0100
1000
0010
1000
0001
,
0010
0001
0100
0010
1000
0100
0001
0100
,
1000
0010
1000
0001
0010
0001
0100
0010
,
1000
0100
0001
0100
1000
0001
1001
0000
,
1000
0000
0010
0000
0100
0000
0010
0000
1000
0000
0010
0000
0100
0001
0100
0000
,
0001
0000
0010
0000
0100
0000
0010
0000
0001
0000
0010
0000
0100
1000
0100
0000
,
1000
0000
0001
0000
0100
0000
0001
0000
1000
0000
0001
0000
0100
0010
0100
0000
,
0001
0000
1000
0000
0100
0000
1000
0000
0001
0000
1000
0000
0100
0010
0100
0000
,
0010
0000
0001
0000
0100
0000
0010
0000
1000
0000
0100
0000
0010
0100
0010
0000
,
0100
0000
1000
0000
0010
0000
0100
0000
0001
0000
0010
0000
0100
0010
0100
0000
,
0010
0000
0001
0000
1000
0000
0010
0000
0100
0000
0001
0000
1000
0001
1000
0000
,
0010
0100
0001
0010
0100
1000
1001
0000
,
0001
0000
0010
0000
0001
0100
0001
0000
0100
0000
0010
0000
1000
0010
1000
0010
,
1000
0100
0001
0100
1000
0001
0010
0000
,
0100
1000
0000
0000
0001
0010
0000
0000
2002
0000
0000
0000
3003
0000
0000
0000
,
0001
0100
1000
0100
0001
1000
0010
0000
,
0100
0001
0000
0000
1000
0010
0000
0000
2002
0000
0000
0000
3003
0000
0000
0000
,
1000
0010
0001
0010
1000
0001
0100
0000
,
0001
0010
0000
0000
0100
1000
0000
0000
2002
0000
0000
0000
3003
0000
0000
0000
,
0001
0010
1000
0010
0001
1000
0100
0000
,
1000
0010
0000
0000
0100
0001
0000
0000
2002
0000
0000
0000
3003
0000
0000
0000
,
0000
2000
3200
0320
0032
0203
0320
0030
,
1000
0000
0100
0000
0001
0000
0100
0000
1000
0000
0000
0001
0010
0000
0100
0000
,
0010
0000
0000
0001
1000
0000
0100
0000
0020
0000
0000
0000
0000
0000
0030
0000
,
0001
0000
0100
0000
1000
0000
0100
0000
0001
0000
0000
1000
0010
0000
0100
0000
,
0002
0023
2030
3000
,
0010
0000
0001
0000
0100
0000
0010
0000
1000
0000
0000
0100
0010
0000
0001
0000
,
0100
0000
0000
0010
1000
0000
0001
0000
0020
0000
0000
0000
0000
0000
0030
0000
,
0100
0000
1000
0000
0010
0000
0100
0010
0100
0000
0001
0000
0010
0000
0011
0000
,
0000
0000
1000
0000
0000
0100
1000
0000
0001
0000
0010
0000
0001
0100
0001
0100
,
0000
0000
0010
0100
0010
0000
1000
0000
0100
0000
0010
0100
0010
0000
0001
0000
,
0100
0000
0010
0100
0010
0000
1000
0000
0200
0000
0302
0000
0203
0000
0000
0000
,
0300
0000
0010
0100
0010
0000
0001
0000
0100
0000
0010
0100
0010
0000
1000
0000
,
0100
1000
0000
0000
0010
0100
0000
0000
0001
0020
0000
0000
0130
0000
0000
0000
,
0010
0000
0001
0100
0001
0000
1000
0000
0010
0000
1000
0100
1000
0000
0001
0000
,
0010
0000
0001
0100
0001
0000
1000
0000
0020
0000
0032
0000
0023
0000
0000
0000
,
1030
0000
0100
1000
0100
0000
0010
0000
0001
0000
0100
0001
0100
0000
0010
0000
,
1000
0100
0000
0000
0001
0100
0000
0000
2002
0000
0000
0000
3003
0000
0000
0000
,
0110
0000
0000
0000
;

//--------------- dance-double - forcednature ----------------
#NOTEDATA:;
#STEPSTYPE:dance-double;
#DESCRIPTION:forcednature;
#CREDIT:forcednature;
#DIFFICULTY:Easy;
#METER:4;
#RADARVALUES:0,0,0,0,0;
#NOTES:
00000000
00000000
00000000
00000000
,
00000000
00000000
00000000
00000000
,
00000000
00000000
00000000
00000000
,
00000000
00000000
00000000
00000000
,
00000000
00000000
00000000
00000000
,
00000000
00000000
00000000
00000000
,
00001000
00000000
00010000
00000000
,
00000000
00010000
00000000
00000000
,
00001000
00000000
00100000
00000000
,
00010000
00100000
00010000
00000000
,
01000000
00000000
00100000
00000000
,
10000000
00100000
10000000
00000000
,
00010000
00000000
00100000
00000000
,
00010000
01000000
00010000
00000000
,
00100000
00000000
00001000
00000000
,
00010000
00001000
00010000
00000000
,
00000100
00000000
00000000
00001000
,
00000000
00000010
00000000
00000100
,
00000000
00000010
00000000
00001000
,
00000000
00000001
00000000
00000100
,
00000000
00000001
00000000
00000010
,
00000000
00000100
00000000
00000100
,
00000000
00010000
00000000
00001000
,
00000000
00100000
00000000
00100000
,
00000000
00010000
00000000
01000000
,
00000000
00100000
00000000
10000000
,
00000000
00100000
00000000
01000000
,
00000000
00010000
00000000
00100000
,
00000000
00001000
00000000
00010000
,
00000000
00000100
00000000
00001000
,
00000000
00000010
00000000
00001000
,
00000000
00000001
00000000
00000100
,
00000000
00000001
00000000
00001000
,
00000000
00000000
00000100
00000000
,
00010000
00000000
00001000
00000000
,
00100000
00010000
00200000
00300000
,
00010000
00000000
00010000
00000000
,
01000000
00100000
02000000
03000000
,
00100000
00000000
00100000
00000000
,
10000000
01000000
20000000
30000000
,
00010000
00000000
00010000
00000000
,
00100000
00010000
00200000
00000000
,
00300000
00000000
00000000
00000000
,
00001000
00000000
00010000
00000000
,
00000100
00000000
00000000
00000000
,
00001000
00000000
00000001
00000000
,
00000100
00000000
00000010
00000000
,
00001000
00000000
00000100
00000000
,
00010000
00000000
00000000
00000000
,
00001000
00000000
00100000
00000000
,
00000000
00000000
00010000
00000000
,
00000000
01000000
00000000
01000000
,
00000000
00010000
01000000
00010000
,
00000000
00100000
00000000
00100000
,
00001000
00010000
00002000
00003000
,
00000000
00010000
00000000
00010000
,
00000000
00010000
00000100
00001000
,
00000000
00000010
00000000
00000010
,
00001000
00000001
00002000
00003000
,
00001001
00000000
00000000
00000000
;

//--------------- dance-double - forcednature ----------------
#NOTEDATA:;
#STEPSTYPE:dance-double;
#DESCRIPTION:forcednature;
#CREDIT:forcednature;
#DIFFICULTY:Medium;
#METER:8;
#RADARVALUES:0,0,0,0,0;
#NOTES:
00000000
00000000
00000000
00000000
,
00000000
00000000
00000000
00000000
,
00000000
00000000
00000000
00000000
,
00000000
00000000
00000000
00000000
,
00000000
00000000
00000000
00000000
,
00000000
00000000
00000000
00000000
,
00001000
00010000
00000100
00001000
,
00000000
00000000
00000010
00000000
00000000
00000010
00000000
00000000
00000100
00000000
00000000
00000000
00000001
00000000
00000000
00000000
,
00001000
00000000
00000100
00000000
00010000
00001000
00010000
00000000
,
00001000
00100000
00020000
00030000
,
10000000
00000000
00100000
00000000
01000000
00100000
01000000
00000000
,
00010000
00100000
00002000
00003000
,
00010000
00000000
00000100
00000000
00001000
00000100
00001000
00000000
,
00000010
00000100
00000002
00000003
,
00000010
00000000
00000001
00000000
00000010
00000100
00000010
00000000
,
00000100
00010000
00002000
00003000
,
00100000
00000000
00010000
00000000
01000000
00000000
00100000
01000000
,
00100000
10000000
01000000
10000000
,
00100000
01000000
00010000
00100000
,
00001000
00010000
00000100
00001000
,
00000010
00000100
00000001
00000010
,
00000001
00000100
00000010
00001000
,
00000100
00010000
00001000
00100000
,
00010000
01000000
00100000
10000000
,
01000000
10000000
00100000
01000000
,
00010000
00000000
00010000
00000000
00010000
00000000
00100000
00010000
,
00100000
00000000
00100000
00000000
00100000
00000000
00001000
00010000
,
00001000
00000000
00001000
00000000
00001000
00000000
00010000
00000100
,
00010000
00000000
00010000
00000000
00010000
00000000
00000010
00001000
,
00000010
00000000
00000010
00000000
00000010
00000000
00000100
00000001
,
00000100
00000000
00000100
00000000
00000100
00000000
00000010
00001000
,
00000010
00000000
00000010
00000000
00000010
00000000
00010000
00001000
,
00010000
00000000
00010000
00000000
00010000
00000000
00001000
00010000
,
00001000
00000000
00100000
00000000
00010000
00000000
10000000
10000000
,
00010000
01000000
00100000
10000000
,
01000000
00010000
00022000
00033000
,
00000010
00001000
00000001
00000100
,
00001000
00010000
00022000
00033000
,
01000000
00010000
10000000
00100000
,
00010000
00001000
00022000
00033000
,
00000100
00001000
00000001
00000010
,
00001000
00010000
00022000
00033000
,
00000000
00100000
00010000
01000000
,
00100000
10000000
01000000
00010000
,
00001000
00000000
00010000
00000000
00000200
00000000
00000000
00000300
,
00001000
00000001
00000100
00000001
,
00000020
00000230
00000320
00000030
,
00000001
00000100
00001000
00010000
,
00001000
00000000
00100000
00000000
00020000
00000000
00000000
00030000
,
01000000
00000000
00100000
00000000
10000000
00000000
00100000
01000000
,
00000000
00000000
01000000
00000000
00000000
01000000
00000000
00000000
00010000
00000000
00000000
00000000
00100000
00000000
00000000
00000000
,
00001000
00011000
00000100
00011000
,
00000010
00011000
02000000
03020000
,
00130000
00011000
01000000
00011000
,
00001000
00010000
00022000
00033000
,
00100000
00011000
01000000
00011000
,
00000010
00011000
00000200
00002300
,
00003100
00011000
01000000
00011000
,
00000010
00000110
00002002
00003003
,
00000110
00000000
00000000
00000000
;

//--------------- dance-double - forcednature ----------------
#NOTEDATA:;
#STEPSTYPE:dance-double;
#DESCRIPTION:forcednature;
#CREDIT:forcednature;
#DIFFICULTY:Hard;
#METER:13;
#RADARVALUES:0,0,0,0,0;
#NOTES:
00000000
00000000
00000000
00000000
,
00000000
00000000
00000000
00000000
,
00000000
00000000
00000000
00000000
,
00000000
00000000
00000000
00000000
,
00000000
00000000
00000000
00000000
,
00000000
00000000
00000000
00000000
,
00001000
00000000
00000000
00000000
00001000
00000000
00000000
00001000
00010000
00000000
00100000
00000000
01000000
00000000
00100000
00000000
,
00000000
00000000
10000000
00000000
01000000
00000000
00010000
00000000
00001000
00000000
00000100
00000000
00000001
00001000
00000001
00001000
,
00000001
00000010
00000100
00000010
00001000
00010000
01000000
00000000
,
10010000
00101000
02020000
03030000
,
10000000
00100000
01000000
00100000
00010000
00001000
00000100
00000000
,
00001001
00010100
00002020
00003030
,
00000001
00000010
00000100
00000010
00001000
00010000
01000000
00000000
,
10010000
00101000
02020000
03030000
,
10000000
00100000
01000000
00100000
00010000
00001000
00000100
00000000
,
00001001
00010100
00002020
00003030
,
00000001
00000000
00000010
00000000
00000001
00001000
00000001
00000000
00001000
00000000
00000100
00000000
00010000
00001000
00010000
00001000
,
00000000
00010000
00100000
10000000
00010000
10000000
00100000
00010000
,
00001000
00010000
00001000
00000010
00000001
00001000
00000001
00000010
,
00001000
00010000
00001000
00010000
00100000
10000000
00010000
10000000
,
00100000
00010000
00001000
00010000
00001000
00000010
00000001
00001000
,
00000001
00000100
00001000
00010000
00001000
00010000
01000000
10000000
,
00010000
10000000
01000000
00010000
00001000
00010000
00001000
00000100
,
00000001
00001000
00000001
00000100
00001000
00010000
00001000
00010000
,
01000000
10000000
00010000
10000000
01000000
00010000
00001000
00010000
,
00000010
00000000
00000100
00000000
00001000
00000000
00000100
00000000
00000010
00000000
00000100
00000000
00001000
00010000
00001000
00000000
,
00100000
00000000
01000000
00000000
00010000
00000000
01000000
00000000
00100000
00000000
01000000
00000000
00010000
00001000
00010000
00000000
,
00000100
00000000
00000010
00000000
00001000
00000000
00000010
00000000
00000100
00000000
00000010
00000000
00001000
00010000
00001000
00000000
,
01000000
00000000
00100000
00000000
00010000
00000000
00100000
00000000
01000000
00000000
00100000
00000000
00010000
00001000
00010000
00000000
,
00000010
00000000
00000100
00000000
00001000
00000000
00000001
00000000
00000010
00000000
00000100
00000000
00001000
00010000
00001000
00000000
,
00100000
00000000
01000000
00000000
00010000
00000000
10000000
00000000
00100000
00000000
01000000
00000000
00010000
00001000
00010000
00000000
,
00000100
00000000
00000010
00000000
00001000
00000000
00000001
00000000
00000100
00000000
00000010
00000000
00001000
00010000
00001000
00000000
,
01000000
00000000
00100000
00000000
00010000
00000000
10000000
00000000
01000000
00000000
00100000
00000000
00010000
00001000
00010000
00000000
,
00000010
00000000
00001000
00000000
00000001
00001000
00000001
00000000
00000010
00000000
00000100
00000000
00010000
00001000
00010000
00001000
,
00100000
00010000
10000000
01000000
00010000
00001000
00000010
00000000
,
00002001
00010000
00000200
00003300
,
00000010
00001000
00000001
00000100
00001000
00010000
00100000
00000000
,
10020000
00001000
02000000
03030000
,
00100000
00010000
10000000
01000000
00010000
00001000
00000010
00000000
,
00002001
00010000
00000200
00003300
,
00000010
00001000
00000001
00000100
00001000
00010000
00100000
00000000
,
10020000
00001000
02000000
03030000
,
00000000
20000000
32000000
03020000
00032000
00003200
00000302
00000003
,
00000010
00000000
00000100
00000000
00010000
00000000
00000100
00000000
00000010
00000000
00000000
00000010
00000001
00000000
00000100
00000000
,
00001000
00000000
00000000
00001000
00010000
00000000
01000000
00000000
20000000
00000000
00000000
00000000
30000000
00000000
00000000
00000000
,
00100000
00000000
01000000
00000000
00001000
00000000
01000000
00000000
00100000
00000000
00000000
10000000
01000000
00000000
00010000
00000000
,
00002000
00003020
00000032
00000003
,
00000100
00000000
00000010
00000000
00010000
00000000
00000010
00000000
00000100
00000000
00000000
00000100
00000001
00000000
00000010
00000000
,
00001000
00000000
00000000
00001000
00010000
00000000
00100000
00000000
20000000
00000000
00000000
00000000
30000000
00000000
00000000
00000000
,
01000000
00000000
00100000
00000000
00001000
00000000
00010000
00001000
00010000
00000000
00000100
00000000
00001000
00000000
00001010
00000000
,
00000000
00000000
00000001
00000100
00000000
00000001
00000100
00000000
00000010
00000000
00010000
00000000
00001000
00010000
00001000
00010000
,
00000000
00000000
00000010
00001000
00000100
00000000
00010000
00000000
00001000
00000000
00100000
00010000
01000000
00000000
00001000
00000000
,
00010000
00000000
00000010
00001000
00000100
00000000
00010000
00000000
00002000
00000000
00003020
00000000
00002030
00000000
00003000
00000000
,
00000000
00000000
00100000
00010000
01000000
00000000
00001000
00000000
00010000
00000000
00000010
00001000
00000100
00000000
00010000
00000000
,
00011000
00101000
00020200
00030300
,
00010000
00000000
00000100
00001000
00000010
00000000
00010000
00000000
00001000
00000000
01000000
00010000
00100000
00000000
00001000
00000000
,
00010000
00000000
00000100
00001000
00000010
00000000
00010000
00000000
00002000
00000000
00003200
00000000
00002300
00000000
00003000
00000000
,
00000000
00000000
01000000
00010000
00100000
00000000
00001000
00000000
00010000
00000000
00000100
00001000
00000010
00000000
00000100
00000000
,
00000110
00011000
02200000
03300000
,
10010000
00000000
00000000
00000000
;
